<?xml version="1.0" standalone="no"?>
<!DOCTYPE svg PUBLIC "-//W3C//DTD SVG 1.1//EN" "http://www.w3.org/Graphics/SVG/1.1/DTD/svg11.dtd" >
<svg xmlns="http://www.w3.org/2000/svg" xmlns:xlink="http://www.w3.org/1999/xlink" version="1.1">
<metadata>
Created by FontForge 20170731 at Mon Sep  3 20:56:16 2018
 By Aleksey,,,
</metadata>
<defs>
<font id="ProductSans-Regular" horiz-adv-x="542" >
  <font-face 
    font-family="Product Sans"
    font-weight="400"
    font-stretch="normal"
    units-per-em="1000"
    panose-1="2 11 4 3 3 5 2 4 2 3"
    ascent="800"
    descent="-200"
    x-height="490"
    cap-height="716"
    bbox="-176 -253 3284 960"
    underline-thickness="84"
    underline-position="-538"
    unicode-range="U+000D-2215"
  />
<missing-glyph horiz-adv-x="570" 
d="M136 60h298v596h-298v-596zM498 0h-426v716h426v-716z" />
    <glyph glyph-name="f_i" unicode="fi" horiz-adv-x="584" 
d="M539 659q0 -27 -19 -46t-46 -19t-46 19t-19 46t19 46t46 19t46 -19t19 -46zM208 406v-406h-92v406h-92v84h92v71q0 36 12.5 66t34.5 51.5t52.5 33.5t66.5 12q50 0 82 -17l-25 -81q-24 12 -54 12q-34 0 -55.5 -23.5t-21.5 -62.5v-62h312v-490h-92v406h-220z" />
    <glyph glyph-name="f_l" unicode="fl" horiz-adv-x="576" 
d="M520 720v-720h-92v636h-138q-82 0 -82 -92v-54h128v-84h-128v-406h-92v406h-92v84h92v65q0 74 48 119.5t126 45.5h230z" />
    <glyph glyph-name="f_b" unicode="fb" horiz-adv-x="948" 
d="M520 720v-230l-4 -68h4q24 38 68.5 61t98.5 23q97 0 164 -76q69 -77 69 -185q0 -109 -69 -185q-67 -76 -164 -76q-54 0 -98.5 23t-68.5 61h-4v-68h-88v636h-138q-82 0 -82 -92v-54h128v-84h-128v-406h-92v406h-92v84h92v65q0 37 12.5 67.5t35.5 52t55 33.5t71 12h230z
M672 68q66 0 111 50q45 49 45 127q0 77 -45 127t-111 50q-67 0 -112 -50q-44 -50 -44 -127q0 -78 44 -128q45 -49 112 -49z" />
    <glyph glyph-name="f_f" unicode="ff" horiz-adv-x="680" 
d="M208 490h220v71q0 73 46.5 118t119.5 45q50 0 82 -17l-25 -81q-24 12 -54 12q-34 0 -55.5 -23.5t-21.5 -62.5v-62h128v-84h-128v-406h-92v406h-220v-406h-92v406h-92v84h92v71q0 73 46.5 118t119.5 45q50 0 82 -17l-25 -81q-24 12 -54 12q-34 0 -55.5 -23.5t-21.5 -62.5
v-62z" />
    <glyph glyph-name="f_f_b" unicode="ffb" horiz-adv-x="1260" 
d="M208 490h220v65q0 37 12.5 67.5t35.5 52t55 33.5t71 12h230v-230l-4 -68h4q24 38 68.5 61t98.5 23q97 0 164 -76q69 -77 69 -185q0 -109 -69 -185q-67 -76 -164 -76q-54 0 -98.5 23t-68.5 61h-4v-68h-88v636h-138q-82 0 -82 -92v-54h128v-84h-128v-406h-92v406h-220v-406
h-92v406h-92v84h92v71q0 36 12.5 66t34.5 51.5t52.5 33.5t66.5 12q50 0 82 -17l-25 -81q-24 12 -54 12q-34 0 -55.5 -23.5t-21.5 -62.5v-62zM984 68q66 0 111 50q45 49 45 127q0 77 -45 127t-111 50q-67 0 -112 -50q-44 -50 -44 -127q0 -78 44 -128q45 -49 112 -49z" />
    <glyph glyph-name="f_f_h" unicode="ffh" horiz-adv-x="1226" 
d="M208 490h220v65q0 74 48 119.5t126 45.5h230v-230l-4 -68h4q21 36 64.5 60t90.5 24q90 0 138.5 -51.5t48.5 -146.5v-308h-92v290q0 132 -117 132q-56 0 -94.5 -46.5t-38.5 -108.5v-267h-92v636h-138q-82 0 -82 -92v-54h128v-84h-128v-406h-92v406h-220v-406h-92v406h-92
v84h92v71q0 73 46.5 118t119.5 45q50 0 82 -17l-25 -81q-24 12 -54 12q-34 0 -55.5 -23.5t-21.5 -62.5v-62z" />
    <glyph glyph-name="f_f_i" unicode="ffi" horiz-adv-x="896" 
d="M851 659q0 -27 -19 -46t-46 -19t-46 19t-19 46t19 46t46 19t46 -19t19 -46zM208 490h220v71q0 36 12.5 66t34.5 51.5t52.5 33.5t66.5 12q50 0 82 -17l-25 -81q-24 12 -54 12q-34 0 -55.5 -23.5t-21.5 -62.5v-62h312v-490h-92v406h-220v-406h-92v406h-220v-406h-92v406
h-92v84h92v71q0 36 12.5 66t34.5 51.5t52.5 33.5t66.5 12q50 0 82 -17l-25 -81q-24 12 -54 12q-34 0 -55.5 -23.5t-21.5 -62.5v-62z" />
    <glyph glyph-name="f_f_j" unicode="ffj" horiz-adv-x="896" 
d="M851 659q0 -27 -19 -46t-46 -19t-46 19t-19 46t19 46t46 19t46 -19t19 -46zM208 490h220v71q0 36 12.5 66t34.5 51.5t52.5 33.5t66.5 12q50 0 82 -17l-25 -81q-24 12 -54 12q-34 0 -55.5 -23.5t-21.5 -62.5v-62h312v-556q0 -78 -37.5 -119t-109.5 -41q-30 0 -54 10l24 80
q16 -6 27 -6q56 0 58 69v479h-220v-406h-92v406h-220v-406h-92v406h-92v84h92v71q0 36 12.5 66t34.5 51.5t52.5 33.5t66.5 12q50 0 82 -17l-25 -81q-24 12 -54 12q-34 0 -55.5 -23.5t-21.5 -62.5v-62z" />
    <glyph glyph-name="f_f_k" unicode="ffk" horiz-adv-x="1167" 
d="M208 490h220v65q0 74 48 119.5t126 45.5h230v-445l212 215h118v-4l-191 -190l200 -292v-4h-111l-153 231l-75 -74v-157h-92v636h-138q-82 0 -82 -92v-54h128v-84h-128v-406h-92v406h-220v-406h-92v406h-92v84h92v71q0 73 46.5 118t119.5 45q50 0 82 -17l-25 -81
q-24 12 -54 12q-34 0 -55.5 -23.5t-21.5 -62.5v-62z" />
    <glyph glyph-name="f_f_l" unicode="ffl" horiz-adv-x="888" 
d="M208 490h220v65q0 74 48 119.5t126 45.5h230v-720h-92v636h-138q-82 0 -82 -92v-54h128v-84h-128v-406h-92v406h-220v-406h-92v406h-92v84h92v71q0 73 46.5 118t119.5 45q50 0 82 -17l-25 -81q-24 12 -54 12q-34 0 -55.5 -23.5t-21.5 -62.5v-62z" />
    <glyph glyph-name="f_f_t" unicode="fft" horiz-adv-x="984" 
d="M208 490h220v71q0 36 12.5 66t34.5 51.5t52.5 33.5t66.5 12q50 0 82 -17l-25 -81q-24 12 -54 12q-34 0 -55.5 -23.5t-21.5 -62.5v-62h220v150h92v-150h120v-84h-120v-244q0 -49 19 -66.5t43 -17.5q11 0 21.5 2.5t19.5 6.5l29 -82q-36 -13 -84 -13q-60 0 -99.5 37
t-40.5 103v274h-220v-406h-92v406h-220v-406h-92v406h-92v84h92v71q0 36 12.5 66t34.5 51.5t52.5 33.5t66.5 12q50 0 82 -17l-25 -81q-24 12 -54 12q-34 0 -55.5 -23.5t-21.5 -62.5v-62z" />
    <glyph glyph-name="f_h" unicode="fh" horiz-adv-x="914" 
d="M520 720v-230l-4 -68h4q21 36 64.5 60t90.5 24q90 0 138.5 -51.5t48.5 -146.5v-308h-92v290q0 132 -117 132q-56 0 -94.5 -46.5t-38.5 -108.5v-267h-92v636h-138q-82 0 -82 -92v-54h128v-84h-128v-406h-92v406h-92v84h92v65q0 74 48 119.5t126 45.5h230z" />
    <glyph glyph-name="f_j" unicode="fj" horiz-adv-x="584" 
d="M539 659q0 -27 -19 -46t-46 -19t-46 19t-19 46t19 46t46 19t46 -19t19 -46zM373 -226q-30 0 -54 10l24 80q16 -6 27 -6q56 0 58 69v479h-220v-406h-92v406h-92v84h92v71q0 36 12.5 66t34.5 51.5t52.5 33.5t66.5 12q50 0 82 -17l-25 -81q-24 12 -54 12q-34 0 -55.5 -23.5
t-21.5 -62.5v-62h312v-556q0 -78 -37.5 -119t-109.5 -41z" />
    <glyph glyph-name="f_k" unicode="fk" horiz-adv-x="855" 
d="M520 720v-445l212 215h118v-4l-191 -190l200 -292v-4h-111l-153 231l-75 -74v-157h-92v636h-138q-82 0 -82 -92v-54h128v-84h-128v-406h-92v406h-92v84h92v65q0 74 48 119.5t126 45.5h230z" />
    <glyph glyph-name="f_t" unicode="ft" horiz-adv-x="672" 
d="M652 5q-36 -13 -84 -13q-60 0 -99.5 37t-40.5 103v274h-220v-406h-92v406h-92v84h92v71q0 36 12.5 66t34.5 51.5t52.5 33.5t66.5 12q50 0 82 -17l-25 -81q-24 12 -54 12q-34 0 -55.5 -23.5t-21.5 -62.5v-62h220v150h92v-150h120v-84h-120v-244q0 -49 19 -66.5t43 -17.5
q11 0 21.5 2.5t19.5 6.5z" />
    <glyph glyph-name="r_f" unicode="rf" horiz-adv-x="748" 
d="M662 724q50 0 82 -17l-25 -81q-24 12 -54 12q-34 0 -55.5 -23.5t-21.5 -62.5v-62h128v-84h-128v-406h-92v406h-92v84h92v71q0 73 46.5 118t119.5 45zM56 490h88v-80h4q41 94 169 94l19 -2v-96l-41 4q-64 0 -105.5 -39.5t-41.5 -100.5v-270h-92v490z" />
    <glyph glyph-name="r_f_f" unicode="rff" horiz-adv-x="1060" 
d="M56 490h88v-80h4q41 94 169 94l19 -2v-96l-41 4q-64 0 -105.5 -39.5t-41.5 -100.5v-270h-92v490zM588 490h220v71q0 73 46.5 118t119.5 45q50 0 82 -17l-25 -81q-24 12 -54 12q-34 0 -55.5 -23.5t-21.5 -62.5v-62h128v-84h-128v-406h-92v406h-220v-406h-92v406h-92v84h92
v71q0 73 46.5 118t119.5 45q50 0 82 -17l-25 -81q-24 12 -54 12q-34 0 -55.5 -23.5t-21.5 -62.5v-62z" />
    <glyph glyph-name="r_t" unicode="rt" horiz-adv-x="734" 
d="M630 -8q-60 0 -99.5 37t-40.5 103v274h-86v84h86v150h92v-150h120v-84h-120v-244q0 -49 19 -66.5t43 -17.5q11 0 21.5 2.5t19.5 6.5l29 -82q-36 -13 -84 -13zM56 490h88v-80h4q41 94 169 94l19 -2v-96l-41 4q-64 0 -105.5 -39.5t-41.5 -100.5v-270h-92v490z" />
    <glyph glyph-name="t_f" unicode="tf" horiz-adv-x="674" 
d="M250 -8q-59 0 -99 37t-41 103v274h-86v84h86v150h92v-150h220v71q0 73 46.5 118t119.5 45q50 0 82 -17l-25 -81q-24 12 -54 12q-34 0 -55.5 -23.5t-21.5 -62.5v-62h128v-84h-128v-406h-92v406h-220v-247q0 -43 17.5 -62t41.5 -19q23 0 44 9l29 -82q-37 -13 -84 -13z" />
    <glyph glyph-name="t_t" unicode="tt" horiz-adv-x="674" 
d="M570 -8q-60 0 -99.5 37t-40.5 103v274h-228v-247q0 -43 17.5 -62t41.5 -19q23 0 44 9l29 -82q-36 -13 -84 -13q-60 0 -99.5 37t-40.5 103v274h-86v84h86v150h92v-150h228v150h92v-150h120v-84h-120v-244q0 -49 19 -66.5t43 -17.5q11 0 21.5 2.5t19.5 6.5l29 -82
q-36 -13 -84 -13z" />
    <glyph glyph-name=".notdef" horiz-adv-x="570" 
d="M136 60h298v596h-298v-596zM498 0h-426v716h426v-716z" />
    <glyph glyph-name=".null" horiz-adv-x="0" 
 />
    <glyph glyph-name="uni000D" horiz-adv-x="0" 
 />
    <glyph glyph-name="NULL" horiz-adv-x="0" 
 />
    <glyph glyph-name="NULL" horiz-adv-x="0" 
 />
    <glyph glyph-name="nonmarkingreturn" unicode="&#xd;" horiz-adv-x="333" 
 />
    <glyph glyph-name="space" unicode=" " horiz-adv-x="220" 
 />
    <glyph glyph-name="exclam" unicode="!" horiz-adv-x="232" 
d="M152 222h-72l-10 268v226h92v-226zM184 62q0 -28 -19.5 -48t-48.5 -20q-28 0 -48 20t-20 48q0 29 20 48.5t48 19.5q29 0 48.5 -19.5t19.5 -48.5z" />
    <glyph glyph-name="quotedbl" unicode="&#x22;" horiz-adv-x="320" 
d="M128 716v-226h-84v226h84zM276 716v-226h-84v226h84z" />
    <glyph glyph-name="numbersign" unicode="#" horiz-adv-x="632" 
d="M238 279h136l20 135h-136zM412 0h-80l30 203h-136l-30 -203h-80l30 203h-123l13 76h122l20 135h-125l12 76h124l29 194h80l-29 -194h136l29 194h80l-29 -194h123l-12 -76h-122l-20 -135h125l-12 -76h-125z" />
    <glyph glyph-name="dollar" unicode="$" horiz-adv-x="533" 
d="M141 517q0 -60 92 -105v197q-42 -7 -67 -32t-25 -60zM401 180q0 62 -92 104v-207q92 21 92 103zM309 -13v-87h-76v86q-76 10 -133 59t-76 124l82 33q12 -48 46.5 -82.5t80.5 -44.5v240q-100 40 -142 88.5t-42 113.5q0 71 51 122.5t133 59.5v85h76v-88q62 -10 107.5 -47
t61.5 -87l-82 -35q-18 62 -87 79v-225q102 -43 143 -89t41 -110q0 -79 -49.5 -130.5t-134.5 -64.5z" />
    <glyph glyph-name="percent" unicode="%" horiz-adv-x="814" 
d="M374 529q0 -70 -51 -121q-50 -50 -120 -50q-69 0 -121 50q-50 52 -50 121q0 70 50 120q51 51 121 51t120 -51q51 -50 51 -120zM657 654l-444 -662l-57 37l445 663zM300 529q0 45 -27.5 74.5t-69.5 29.5q-41 0 -69 -30q-28 -29 -28 -74t28 -74q28 -30 69 -30
q42 0 69.5 29.5t27.5 74.5zM782 155q0 -70 -51 -121q-50 -50 -120 -50q-69 0 -121 50q-50 52 -50 121q0 70 50 120q51 51 121 51t120 -51q51 -50 51 -120zM708 155q0 45 -27.5 74.5t-69.5 29.5q-41 0 -69 -30q-28 -29 -28 -74t28 -74q28 -30 69 -30q42 0 69.5 29.5
t27.5 74.5z" />
    <glyph glyph-name="ampersand" unicode="&#x26;" horiz-adv-x="618" 
d="M514 124l67 -88l-69 -52l-49 65q-73 -65 -166 -65q-109 0 -185 73t-76 180q0 63 33.5 119.5t90.5 91.5q-52 67 -52 119q0 68 51 116.5t122 48.5q57 0 99 -32.5t61 -88.5l-79 -42q-28 75 -81 75q-35 0 -57.5 -21t-22.5 -56q0 -34 23 -64l237 -310l64 107l72 -44zM120 237
q0 -72 51 -120.5t126 -48.5q71 0 115 48l-201 265q-42 -23 -66.5 -62t-24.5 -82z" />
    <glyph glyph-name="quotesingle" unicode="'" horiz-adv-x="172" 
d="M128 716v-226h-84v226h84z" />
    <glyph glyph-name="parenleft" unicode="(" horiz-adv-x="330" 
d="M310 732q-69 -82 -112 -194q-42 -110 -42 -216q0 -107 42 -216q43 -112 112 -194l-68 -48q-83 97 -131 216q-47 123 -47 242q0 120 47 241q47 119 131 217z" />
    <glyph glyph-name="parenright" unicode=")" horiz-adv-x="330" 
d="M88 780q42 -48 74.5 -102t55.5 -115q48 -120 48 -241t-48 -242q-46 -118 -130 -216l-68 48q69 82 112 194q42 109 42 216q0 106 -42 216q-43 112 -112 194z" />
    <glyph glyph-name="asterisk" unicode="*" horiz-adv-x="436" 
d="M359 413l-62 -45l-76 104h-6l-76 -104l-62 45l77 104l-2 7l-112 38l24 73l111 -40l5 3v118h76v-118l5 -3l111 40l24 -73l-112 -38l-2 -7z" />
    <glyph glyph-name="plus" unicode="+" horiz-adv-x="550" 
d="M494 309v-76h-181v-181h-76v181h-181v76h181v181h76v-181h181z" />
    <glyph glyph-name="comma" unicode="," horiz-adv-x="232" 
d="M87 -112l-43 28l54 84q-21 4 -35.5 21t-14.5 41q0 29 20 48.5t48 19.5q29 0 48.5 -19.5t19.5 -48.5q0 -27 -20 -59z" />
    <glyph glyph-name="hyphen" unicode="-" horiz-adv-x="432" 
d="M376 272h-320v76h320v-76z" />
    <glyph glyph-name="period" unicode="." horiz-adv-x="232" 
d="M184 62q0 -28 -19.5 -48t-48.5 -20q-28 0 -48 20t-20 48q0 29 20 48.5t48 19.5q29 0 48.5 -19.5t19.5 -48.5z" />
    <glyph glyph-name="slash" unicode="/" horiz-adv-x="437" 
d="M410 716l-297 -716h-86l297 716h86z" />
    <glyph glyph-name="zero" unicode="0" horiz-adv-x="638" 
d="M44 342q0 156 77 257t198 101t198 -102q77 -101 77 -256q0 -154 -77 -257q-77 -101 -198 -101t-198 101q-77 103 -77 257zM500 342q0 118 -50 194q-49 76 -131 76t-131 -76q-50 -76 -50 -194t50 -195q49 -75 131 -75t131 76q50 77 50 194z" />
    <glyph glyph-name="one" unicode="1" horiz-adv-x="384" 
d="M300 684v-684h-92v570l-133 -58l-35 78l201 94h59z" />
    <glyph glyph-name="two" unicode="2" horiz-adv-x="520" 
d="M476 88v-88h-436v92l177 179q89 91 123 136.5t34 95.5q0 45 -35 77t-90 32q-47 0 -81 -28t-44 -68l-84 34q20 63 77 106.5t134 43.5q93 0 155 -57t62 -140q0 -99 -109 -214l-200 -201h317z" />
    <glyph glyph-name="three" unicode="3" horiz-adv-x="531" 
d="M491 194q0 -90 -67 -150q-66 -60 -164 -60q-77 0 -139 46q-63 48 -85 125l84 35q16 -57 52.5 -87.5t87.5 -30.5q56 0 97 35q40 36 40 87t-42 86q-41 35 -99 35h-59v86h52q55 0 90 30.5t35 79.5q0 45 -33 73t-87 28q-87 0 -119 -89l-85 36q23 63 77 102t127 39
q91 0 153 -54q61 -52 61 -135q0 -99 -92 -147v-4q54 -23 84.5 -67t30.5 -99z" />
    <glyph glyph-name="four" unicode="4" horiz-adv-x="589" 
d="M457 144v-144h-92v144h-325v70l317 470h100v-454h88v-86h-88zM144 230h221v319h-4z" />
    <glyph glyph-name="five" unicode="5" horiz-adv-x="555" 
d="M507 214q0 -98 -68 -164t-168 -66q-80 0 -145 50t-86 135l82 33q15 -60 54.5 -95t92.5 -35q64 0 104.5 39.5t40.5 101.5q0 63 -40.5 103t-103.5 40q-73 0 -115 -59l-93 40l44 347h359v-88h-282l-25 -196l4 -1q51 41 124 41q92 0 156.5 -65t64.5 -161z" />
    <glyph glyph-name="six" unicode="6" horiz-adv-x="549" 
d="M295 434q83 0 148 -66q66 -65 66 -155q0 -92 -70 -161q-71 -68 -164 -68q-99 0 -167 68t-68 161q0 83 67 189l199 298l74 -51l-169 -234l2 -2q31 21 82 21zM133 212q0 -59 41 -100q41 -40 101 -40t100 40q41 41 41 100q0 58 -42 99q-41 41 -99 41q-57 0 -100 -41
q-42 -41 -42 -99z" />
    <glyph glyph-name="seven" unicode="7" horiz-adv-x="523" 
d="M483 590l-332 -606l-82 42l317 570h-346l2 88h441v-94z" />
    <glyph glyph-name="eight" unicode="8" horiz-adv-x="544" 
d="M504 189q0 -88 -67 -146q-68 -59 -165 -59t-165 59q-67 58 -67 146q0 54 29 98.5t83 70.5v4q-40 26 -64.5 64t-24.5 80q0 83 59 139q58 55 150 55t150 -55q59 -56 59 -139q0 -42 -24.5 -80t-64.5 -64v-4q54 -26 83 -70.5t29 -98.5zM157 508q0 -48 32 -77.5t83 -29.5
t83 29.5t32 77.5t-32 76t-83 28t-83 -28t-32 -76zM134 194q0 -27 10.5 -49t29 -38.5t43.5 -25.5t55 -9t55 9t43.5 25.5t29 38.5t10.5 49q0 52 -40 86q-40 35 -98 35t-99 -35q-39 -35 -39 -86z" />
    <glyph glyph-name="nine" unicode="9" horiz-adv-x="549" 
d="M254 250q-82 0 -149 65q-65 67 -65 156q0 93 70 160q70 69 164 69q99 0 167 -68t68 -161q0 -83 -67 -189l-199 -298l-74 51l169 234l-2 2q-32 -21 -82 -21zM416 472q0 58 -42 99q-41 41 -100 41t-100 -41t-41 -99t41 -99q43 -41 100 -41t100 41q42 40 42 99z" />
    <glyph glyph-name="colon" unicode=":" horiz-adv-x="232" 
d="M184 428q0 -28 -19.5 -48t-48.5 -20q-28 0 -48 20t-20 48q0 29 20 48.5t48 19.5q29 0 48.5 -19.5t19.5 -48.5zM184 62q0 -28 -19.5 -48t-48.5 -20q-28 0 -48 20t-20 48q0 29 20 48.5t48 19.5q29 0 48.5 -19.5t19.5 -48.5z" />
    <glyph glyph-name="semicolon" unicode=";" horiz-adv-x="232" 
d="M184 428q0 -28 -19.5 -48t-48.5 -20q-28 0 -48 20t-20 48q0 29 20 48.5t48 19.5q29 0 48.5 -19.5t19.5 -48.5zM87 -93l-43 28l54 84q-21 4 -35.5 21t-14.5 41q0 29 20 48.5t48 19.5q29 0 48.5 -19.5t19.5 -48.5q0 -27 -20 -59z" />
    <glyph glyph-name="less" unicode="&#x3c;" horiz-adv-x="506" 
d="M446 136v-84l-390 185v68l390 185v-84l-294 -133v-4z" />
    <glyph glyph-name="equal" unicode="=" horiz-adv-x="562" 
d="M506 376h-450v76h450v-76zM506 186h-450v76h450v-76z" />
    <glyph glyph-name="greater" unicode="&#x3e;" horiz-adv-x="506" 
d="M450 305v-68l-390 -185v84l294 133v4l-294 133v84z" />
    <glyph glyph-name="question" unicode="?" horiz-adv-x="493" 
d="M286 222h-94v47q0 41 16.5 73t63 75t63 68t16.5 57q0 47 -30 74.5t-81 27.5q-87 0 -118 -96l-86 36q24 66 78 107t126 41q90 0 147.5 -53.5t57.5 -136.5q0 -42 -21 -80.5t-79 -91.5t-59 -105v-43zM307 62q0 -28 -19.5 -48t-48.5 -20q-28 0 -48 20t-20 48q0 29 20 48.5
t48 19.5q29 0 48.5 -19.5t19.5 -48.5z" />
    <glyph glyph-name="at" unicode="@" horiz-adv-x="868" 
d="M824 304q0 -96 -40 -152t-110 -56q-75 0 -112 73q-49 -73 -140 -73q-84 0 -139 58t-55 146q0 87 55 145q56 59 135 59q77 0 128 -59h4v45h72v-249q0 -80 59 -80q71 0 71 143q0 130 -92 222t-224 92t-224 -92t-92 -222q0 -131 92 -223q91 -91 224 -91q72 0 127 28l28 -68
q-72 -32 -155 -32q-107 0 -198 51q-89 51 -142 141q-26 46 -39 95t-13 100q0 50 12.5 98.5t38.5 93.5t62.5 81t81 60.5t94.5 38t103 13.5q106 0 195 -51q90 -51 141 -141q52 -89 52 -194zM308 300q0 -28 9 -51.5t25.5 -40.5t38.5 -26.5t48 -9.5t48 9.5t38.5 26t25.5 40
t9 52.5q0 28 -9 52t-25.5 40.5t-38.5 26t-48 9.5t-48 -9.5t-38.5 -26.5t-25.5 -40.5t-9 -51.5z" />
    <glyph glyph-name="A" unicode="A" horiz-adv-x="668" 
d="M332 603l-117 -323h238l-117 323h-4zM114 0h-102l270 716h104l270 -716h-102l-69 194h-301z" />
    <glyph glyph-name="B" unicode="B" horiz-adv-x="594" 
d="M72 0v716h259q85 0 146 -56q61 -55 61 -139q0 -106 -97 -149v-4q55 -18 88 -62.5t33 -101.5q0 -88 -64 -146q-62 -58 -153 -58h-273zM164 628v-219h167q49 0 82 33q33 34 33 77q0 42 -32 76q-32 33 -79 33h-171zM164 323v-235h185q50 0 85 35q34 35 34 83q0 47 -35 82
t-88 35h-181z" />
    <glyph glyph-name="C" unicode="C" horiz-adv-x="729" 
d="M409 -16q-159 0 -266 107q-106 107 -106 267t106 266q106 108 266 108q162 0 263 -117l-66 -64q-77 93 -197 93q-119 0 -199 -80q-79 -79 -79 -206t79 -206q80 -80 199 -80q125 0 217 105l67 -65q-51 -61 -125 -94.5t-159 -33.5z" />
    <glyph glyph-name="D" unicode="D" horiz-adv-x="691" 
d="M72 0v716h219q164 0 263.5 -99t99.5 -259q0 -161 -99.5 -259.5t-263.5 -98.5h-219zM164 628v-540h127q125 0 197 71.5t72 198.5q0 126 -72 198t-197 72h-127z" />
    <glyph glyph-name="E" unicode="E" 
d="M490 716v-88h-326v-227h294v-86h-294v-227h326v-88h-418v716h418z" />
    <glyph glyph-name="F" unicode="F" horiz-adv-x="522" 
d="M164 307v-307h-92v716h418v-88h-326v-235h294v-86h-294z" />
    <glyph glyph-name="G" unicode="G" horiz-adv-x="801" 
d="M761 329q0 -150 -89 -239q-100 -106 -263 -106q-156 0 -264 108t-108 266t108 266t264 108q79 0 149 -28t115 -79l-66 -66q-33 40 -85.5 62.5t-112.5 22.5q-117 0 -198 -81q-80 -82 -80 -205t80 -205q81 -81 198 -81q107 0 178 60t82 165h-260v86h347q5 -28 5 -54z" />
    <glyph glyph-name="H" unicode="H" horiz-adv-x="686" 
d="M164 0h-92v716h92v-307h358v307h92v-716h-92v323h-358v-323z" />
    <glyph glyph-name="I" unicode="I" horiz-adv-x="236" 
d="M164 0h-92v716h92v-716z" />
    <glyph glyph-name="J" unicode="J" horiz-adv-x="524" 
d="M247 -16q-81 0 -140 44t-83 122l87 36q34 -114 136 -114q56 0 90.5 39.5t34.5 102.5v502h92v-494q0 -111 -58.5 -174.5t-158.5 -63.5z" />
    <glyph glyph-name="K" unicode="K" horiz-adv-x="622" 
d="M483 716h119v-4l-266 -307l284 -401v-4h-113l-233 334l-110 -127v-207h-92v716h92v-369h4z" />
    <glyph glyph-name="L" unicode="L" horiz-adv-x="498" 
d="M474 0h-402v716h92v-628h310v-88z" />
    <glyph glyph-name="M" unicode="M" horiz-adv-x="830" 
d="M164 0h-92v716h92l249 -436h4l249 436h92v-716h-92v425l4 120h-4l-224 -393h-54l-224 393h-4l4 -120v-425z" />
    <glyph glyph-name="N" unicode="N" horiz-adv-x="696" 
d="M164 0h-92v716h112l348 -557h4l-4 138v419h92v-716h-96l-364 584h-4l4 -138v-446z" />
    <glyph glyph-name="O" unicode="O" horiz-adv-x="810" 
d="M773 358q0 -159 -106 -266q-107 -108 -262 -108q-156 0 -262 108q-106 107 -106 266t106 266q106 108 262 108t262 -109q106 -107 106 -265zM131 358q0 -124 78 -205q79 -81 196 -81t195 81q79 80 79 205t-79 205q-78 81 -195 81t-196 -81q-78 -81 -78 -205z" />
    <glyph glyph-name="P" unicode="P" horiz-adv-x="564" 
d="M164 290v-290h-92v716h244q93 0 158 -62q66 -62 66 -151q0 -91 -66 -152q-64 -61 -158 -61h-152zM164 628v-250h154q55 0 91 37q37 37 37 88q0 50 -37 87q-36 38 -91 38h-154z" />
    <glyph glyph-name="Q" unicode="Q" horiz-adv-x="810" 
d="M698 -1l-72 -47l-49 73q-84 -41 -172 -41q-156 0 -262 108q-106 107 -106 266t106 266q106 108 262 108t262 -109q106 -107 106 -265q0 -84 -32.5 -157t-92.5 -127zM405 72q64 0 121 28l-84 126l72 49l83 -125q82 79 82 208q0 125 -79 205q-78 81 -195 81t-196 -81
q-78 -81 -78 -205t78 -205q79 -81 196 -81z" />
    <glyph glyph-name="R" unicode="R" horiz-adv-x="578" 
d="M164 628v-252h148q56 0 95 36.5t39 90.5q0 50 -36.5 87.5t-91.5 37.5h-154zM164 0h-92v716h244q93 0 158.5 -61.5t65.5 -151.5q0 -74 -48.5 -131.5t-122.5 -73.5l-2 -3l201 -291v-4h-109l-193 290h-102v-290z" />
    <glyph glyph-name="S" unicode="S" horiz-adv-x="553" 
d="M514 191q0 -94 -69 -151q-70 -56 -170 -56q-89 0 -157 52t-94 142l88 36q9 -32 25 -58t37.5 -44.5t47.5 -29t55 -10.5q63 0 103 32.5t40 86.5q0 45 -33 77q-31 31 -116 60q-86 31 -107 42q-114 58 -114 171q0 79 63 135q64 56 157 56q82 0 142 -42q60 -41 80 -103
l-86 -36q-12 40 -47.5 66.5t-86.5 26.5q-54 0 -91 -30q-37 -28 -37 -73q0 -37 29 -64q32 -27 139 -64q109 -37 155.5 -90.5t46.5 -131.5z" />
    <glyph glyph-name="T" unicode="T" horiz-adv-x="540" 
d="M316 628v-628h-92v628h-200v88h492v-88h-200z" />
    <glyph glyph-name="U" unicode="U" horiz-adv-x="642" 
d="M321 -16q-119 0 -192 78q-73 77 -73 204v450h92v-454q0 -88 46 -139t127 -51t127 51t46 139v454h92v-450q0 -130 -72 -206t-193 -76z" />
    <glyph glyph-name="V" unicode="V" horiz-adv-x="632" 
d="M360 0h-96l-252 716h102l196 -581h4l204 581h102z" />
    <glyph glyph-name="W" unicode="W" horiz-adv-x="922" 
d="M810 716h96l-191 -716h-94l-154 472h-4l-154 -472h-94l-199 716h96l151 -563h4l155 467h86l155 -467h4z" />
    <glyph glyph-name="X" unicode="X" horiz-adv-x="632" 
d="M124 0h-108l240 370l-226 346h110l174 -274h4l174 274h110l-226 -346l240 -370h-108l-190 293h-4z" />
    <glyph glyph-name="Y" unicode="Y" horiz-adv-x="594" 
d="M345 333v-333h-92v333l-241 383h108l177 -291h4l173 291h108z" />
    <glyph glyph-name="Z" unicode="Z" horiz-adv-x="564" 
d="M524 0h-492v96l381 532h-365v88h472v-96l-381 -532h385v-88z" />
    <glyph glyph-name="bracketleft" unicode="[" horiz-adv-x="308" 
d="M276 -124h-204v916h204v-76h-120v-764h120v-76z" />
    <glyph glyph-name="backslash" unicode="\" horiz-adv-x="437" 
d="M113 716l297 -716h-86l-297 716h86z" />
    <glyph glyph-name="bracketright" unicode="]" horiz-adv-x="308" 
d="M236 -124h-204v76h120v764h-120v76h204v-916z" />
    <glyph glyph-name="asciicircum" unicode="^" horiz-adv-x="470" 
d="M271 716l187 -306h-96l-125 218h-4l-125 -218h-96l187 306h72z" />
    <glyph glyph-name="underscore" unicode="_" horiz-adv-x="480" 
d="M480 -216h-480v76h480v-76z" />
    <glyph glyph-name="grave" unicode="`" horiz-adv-x="400" 
d="M196 716l52 -128h-80l-72 128h100z" />
    <glyph glyph-name="a" unicode="a" horiz-adv-x="510" 
d="M123 150q0 -36 30.5 -60t71.5 -24q58 0 103.5 43t45.5 101q-43 34 -120 34q-56 0 -93.5 -27t-37.5 -67zM242 506q102 0 161 -54.5t59 -149.5v-302h-88v68h-4q-57 -84 -152 -84q-81 0 -135.5 48t-54.5 120q0 76 57.5 121t153.5 45q82 0 135 -30v21q0 48 -38 81.5t-89 33.5
q-77 0 -122 -65l-81 51q67 96 198 96z" />
    <glyph glyph-name="b" unicode="b" horiz-adv-x="576" 
d="M315 -16q-54 0 -98.5 23t-68.5 61h-4v-68h-88v716h92v-226l-4 -68h4q24 38 68.5 61t98.5 23q97 0 164 -76q69 -77 69 -185q0 -109 -69 -185q-67 -76 -164 -76zM300 68q66 0 111 50q45 49 45 127q0 77 -45 127t-111 50q-67 0 -112 -50q-44 -50 -44 -127q0 -78 44 -128
q45 -49 112 -49z" />
    <glyph glyph-name="c" unicode="c" horiz-adv-x="522" 
d="M280 -16q-109 0 -181 74q-71 76 -71 187q0 113 71 187q72 74 181 74q75 0 131 -37.5t84 -103.5l-84 -35q-39 92 -137 92q-63 0 -109 -51q-45 -51 -45 -126t45 -126q46 -51 109 -51q101 0 142 92l82 -35q-27 -66 -84.5 -103.5t-133.5 -37.5z" />
    <glyph glyph-name="d" unicode="d" horiz-adv-x="576" 
d="M276 68q68 0 111 49q45 49 45 128q0 77 -45 127q-44 50 -111 50q-66 0 -111 -50t-45 -127q0 -78 45 -127q45 -50 111 -50zM261 -16q-96 0 -165 76q-68 77 -68 185t68 185q69 76 165 76q54 0 98.5 -23t68.5 -61h4l-4 68v226h92v-716h-88v68h-4q-24 -38 -68.5 -61
t-98.5 -23z" />
    <glyph glyph-name="e" unicode="e" horiz-adv-x="536" 
d="M276 -16q-108 0 -178 74t-70 187q0 112 68 186.5t174 74.5q109 0 173.5 -70.5t64.5 -197.5l-1 -10h-385q2 -72 48 -116t110 -44q88 0 138 88l82 -40q-33 -62 -91.5 -97t-132.5 -35zM129 304h281q-4 51 -41.5 84.5t-100.5 33.5q-52 0 -89.5 -32t-49.5 -86z" />
    <glyph glyph-name="f" unicode="f" horiz-adv-x="368" 
d="M282 724q50 0 82 -17l-25 -81q-24 12 -54 12q-34 0 -55.5 -23.5t-21.5 -62.5v-62h128v-84h-128v-406h-92v406h-92v84h92v71q0 73 46.5 118t119.5 45z" />
    <glyph glyph-name="g" unicode="g" horiz-adv-x="576" 
d="M276 68q68 0 111 49q45 49 45 128q0 77 -45 127q-44 50 -111 50q-66 0 -111 -50t-45 -127q0 -78 45 -127q45 -50 111 -50zM273 -232q-41 0 -77 10.5t-65.5 29.5t-50.5 45t-32 58l87 36q15 -43 52 -69t86 -26q75 0 117 45t42 124v47h-4q-26 -39 -70.5 -61.5t-96.5 -22.5
q-96 0 -165 75q-68 77 -68 186t68 185q69 76 165 76q52 0 96.5 -22.5t70.5 -61.5h4v68h88v-469q0 -118 -67 -185q-68 -68 -180 -68z" />
    <glyph glyph-name="h" unicode="h" 
d="M56 716h92v-226l-4 -68h4q21 36 64.5 60t90.5 24q90 0 138.5 -51.5t48.5 -146.5v-308h-92v290q0 132 -117 132q-56 0 -94.5 -46.5t-38.5 -108.5v-267h-92v716z" />
    <glyph glyph-name="i" unicode="i" horiz-adv-x="220" 
d="M175 659q0 -27 -19 -46t-46 -19t-46 19t-19 46t19 46t46 19t46 -19t19 -46zM156 490v-490h-92v490h92z" />
    <glyph glyph-name="j" unicode="j" horiz-adv-x="220" 
d="M175 659q0 -27 -19 -46t-46 -19t-46 19t-19 46t19 46t46 19t46 -19t19 -46zM9 -226q-30 0 -54 10l24 80q16 -6 27 -6q56 0 58 69v563h92v-549q0 -167 -147 -167z" />
    <glyph glyph-name="k" unicode="k" horiz-adv-x="483" 
d="M487 0h-111l-153 231l-75 -74v-157h-92v716h92v-441l212 215h118v-4l-191 -190l200 -292v-4z" />
    <glyph glyph-name="l" unicode="l" horiz-adv-x="204" 
d="M148 716v-716h-92v716h92z" />
    <glyph glyph-name="m" unicode="m" horiz-adv-x="852" 
d="M148 0h-92v490h88v-68h4q21 36 64.5 60t86.5 24q54 0 95 -25t60 -69q61 94 169 94q85 0 131 -52t46 -148v-306h-92v292q0 69 -25 99.5t-84 30.5q-53 0 -89 -45t-36 -106v-271h-92v292q0 69 -25 99.5t-84 30.5q-53 0 -89 -45t-36 -106v-271z" />
    <glyph glyph-name="n" unicode="n" 
d="M56 490h88v-68h4q21 36 64.5 60t90.5 24q90 0 138.5 -51.5t48.5 -146.5v-308h-92v302q-3 120 -121 120q-55 0 -92 -44.5t-37 -106.5v-271h-92v490z" />
    <glyph glyph-name="o" unicode="o" horiz-adv-x="560" 
d="M28 245q0 113 71 187q72 74 181 74t180 -74q72 -74 72 -187q0 -114 -72 -187q-71 -74 -180 -74t-181 74q-71 74 -71 187zM120 245q0 -79 46 -128t114 -49t114 49t46 128q0 78 -46 127q-47 50 -114 50t-114 -50q-46 -49 -46 -127z" />
    <glyph glyph-name="p" unicode="p" horiz-adv-x="572" 
d="M296 68q66 0 111 50q45 49 45 127q0 77 -45 127t-111 50q-67 0 -112 -50q-44 -50 -44 -127q0 -78 44 -128q45 -49 112 -49zM311 -16q-54 0 -98.5 23t-68.5 61h-4l4 -68v-216h-92v706h88v-68h4q24 38 68.5 61t98.5 23q97 0 164 -76q69 -77 69 -185q0 -109 -69 -185
q-67 -76 -164 -76z" />
    <glyph glyph-name="q" unicode="q" horiz-adv-x="572" 
d="M520 -216h-92v216l4 68h-4q-24 -38 -68.5 -61t-98.5 -23q-96 0 -165 76q-68 77 -68 185t68 185q69 76 165 76q54 0 98.5 -23t68.5 -61h4v68h88v-706zM276 68q68 0 111 49q45 49 45 128q0 77 -45 127q-44 50 -111 50q-66 0 -111 -50t-45 -127q0 -78 45 -127
q45 -50 111 -50z" />
    <glyph glyph-name="r" unicode="r" horiz-adv-x="363" 
d="M148 0h-92v490h88v-80h4q14 39 57.5 66.5t85.5 27.5q40 0 68 -12l-28 -89q-17 7 -54 7q-52 0 -90.5 -42t-38.5 -98v-270z" />
    <glyph glyph-name="s" unicode="s" horiz-adv-x="455" 
d="M431 136q0 -64 -56 -108t-141 -44q-74 0 -130 38.5t-80 101.5l82 35q18 -44 52.5 -68.5t75.5 -24.5q44 0 73.5 19t29.5 45q0 47 -72 69l-84 21q-143 36 -143 138q0 67 54.5 107.5t139.5 40.5q65 0 117.5 -31t73.5 -83l-82 -34q-14 31 -45.5 48.5t-70.5 17.5
q-36 0 -64.5 -18t-28.5 -44q0 -42 79 -60l74 -19q146 -36 146 -147z" />
    <glyph glyph-name="t" unicode="t" horiz-adv-x="354" 
d="M250 -8q-60 0 -99.5 37t-40.5 103v274h-86v84h86v150h92v-150h120v-84h-120v-244q0 -49 19 -66.5t43 -17.5q11 0 21.5 2.5t19.5 6.5l29 -82q-36 -13 -84 -13z" />
    <glyph glyph-name="u" unicode="u" 
d="M486 0h-88v68h-4q-21 -36 -64.5 -60t-90.5 -24q-90 0 -138.5 51.5t-48.5 146.5v308h92v-302q3 -120 121 -120q55 0 92 44.5t37 106.5v271h92v-490z" />
    <glyph glyph-name="v" unicode="v" horiz-adv-x="498" 
d="M294 0h-92l-198 490h100l144 -380h2l146 380h98z" />
    <glyph glyph-name="w" unicode="w" horiz-adv-x="754" 
d="M750 490l-158 -490h-94l-122 376l-121 -376h-93l-158 490h96l109 -370h1l121 370h95l121 -370h1l108 370h94z" />
    <glyph glyph-name="x" unicode="x" horiz-adv-x="472" 
d="M289 249l175 -249h-108l-121 181l-119 -181h-108l173 249l-169 241h104l121 -173l115 173h108z" />
    <glyph glyph-name="y" unicode="y" horiz-adv-x="498" 
d="M494 490l-307 -706h-95l114 247l-202 459h100l146 -352h2l142 352h100z" />
    <glyph glyph-name="z" unicode="z" horiz-adv-x="460" 
d="M428 0h-396v80l279 326h-271v84h384v-80l-279 -326h283v-84z" />
    <glyph glyph-name="braceleft" unicode="{" horiz-adv-x="318" 
d="M286 -124h-22q-76 0 -121 44.5t-45 120.5v162q0 93 -74 93v76q74 0 74 93v162q0 76 45 120.5t121 44.5h22v-76h-15q-89 0 -89 -101v-166q-1 -89 -69 -113v-4q67 -22 69 -110v-169q0 -101 89 -101h15v-76z" />
    <glyph glyph-name="bar" unicode="|" horiz-adv-x="228" 
d="M156 -120h-84v912h84v-912z" />
    <glyph glyph-name="braceright" unicode="}" horiz-adv-x="318" 
d="M32 -124v76h15q89 0 89 101v169q2 88 69 110v4q-68 24 -69 113v166q0 101 -89 101h-15v76h22q76 0 121 -44.5t45 -120.5v-162q0 -93 74 -93v-76q-74 0 -74 -93v-162q0 -76 -45 -120.5t-121 -44.5h-22z" />
    <glyph glyph-name="asciitilde" unicode="~" horiz-adv-x="530" 
d="M377 234q-31 0 -116.5 32.5t-105.5 32.5q-21 0 -35 -15t-16 -36h-72q0 58 35.5 96t85.5 38q35 0 117 -32.5t105 -32.5q21 0 35 15t16 36h72q0 -58 -35.5 -96t-85.5 -38z" />
    <glyph glyph-name="uni00A0" unicode="&#xa0;" horiz-adv-x="220" 
 />
    <glyph glyph-name="exclamdown" unicode="&#xa1;" horiz-adv-x="232" 
d="M162 10v-226h-92v226l10 268h72zM184 438q0 -28 -19.5 -48t-48.5 -20q-28 0 -48 20t-20 48q0 29 20 48.5t48 19.5q29 0 48.5 -19.5t19.5 -48.5z" />
    <glyph glyph-name="cent" unicode="&#xa2;" horiz-adv-x="522" 
d="M240 515q-27 -8 -49 -24t-37.5 -38.5t-24.5 -51t-9 -59.5q0 -32 9 -60t24.5 -50.5t37.5 -39t49 -23.5v346zM498 222q-51 -120 -182 -137v-85h-76v86q-95 13 -153 84q-59 71 -59 172t58 171q59 71 154 85v86h76v-85q128 -17 179 -137l-84 -35q-30 70 -95 87v-344
q70 16 100 87z" />
    <glyph glyph-name="sterling" unicode="&#xa3;" horiz-adv-x="519" 
d="M32 0v80q98 45 98 149v10l-1 7h-97v77h68q-68 102 -68 179q0 83 58.5 140.5t147.5 57.5q72 0 124.5 -39t73.5 -103l-84 -35q-28 89 -114 89q-50 0 -82 -32t-32 -78q0 -48 36 -109t40 -70h135v-77h-115q0 -96 -59 -155l3 -3h178q62 0 85 57l76 -32q-45 -111 -158 -113
h-313z" />
    <glyph glyph-name="currency" unicode="&#xa4;" horiz-adv-x="598" 
d="M113 91l-53 54l60 58q-37 58 -37 122q0 70 37 122l-60 59l53 54l59 -57q56 41 127 41t127 -41l59 57l53 -54l-59 -58q36 -54 36 -123q0 -68 -36 -122l59 -58l-53 -54l-59 57q-60 -42 -127 -42q-33 0 -65.5 10.5t-61.5 31.5zM167 325q0 -58 38 -99q39 -40 94 -40
q56 0 93 40q39 40 39 99q0 57 -39 98q-38 41 -93 41t-94 -41q-38 -41 -38 -98z" />
    <glyph glyph-name="yen" unicode="&#xa5;" horiz-adv-x="572" 
d="M501 242v-76h-167v-166h-92v166h-171v76h171v84h-171v76h122l-181 282h105l169 -282h4l165 282h105l-178 -282h119v-76h-167v-84h167z" />
    <glyph glyph-name="brokenbar" unicode="&#xa6;" horiz-adv-x="228" 
d="M156 756v-380h-84v380h84zM156 292v-412h-84v412h84z" />
    <glyph glyph-name="section" unicode="&#xa7;" horiz-adv-x="535" 
d="M157 279q0 -53 75 -86l126 -47q19 14 31 39.5t12 49.5q0 49 -35 80t-126 59l-4 1q-34 -10 -56.5 -38t-22.5 -58zM495 -41q0 -85 -65 -138t-158 -53q-82 0 -146 52t-86 141l86 35q17 -65 55.5 -102.5t90.5 -37.5q54 0 91.5 29t37.5 72q0 47 -35 78t-123.5 58t-134 71.5
t-45.5 112.5q0 40 22.5 77t62.5 60q-85 51 -85 143q0 71 58 123t148 52q71 0 128 -43t76 -102l-85 -35q-11 37 -44 64.5t-73 27.5q-48 0 -81 -26t-33 -61q0 -63 119.5 -101t169 -89t49.5 -128q0 -90 -65 -138q65 -53 65 -142z" />
    <glyph glyph-name="dieresis" unicode="&#xa8;" horiz-adv-x="400" 
d="M173 659q0 -23 -16.5 -40t-40.5 -17q-22 0 -39.5 17.5t-17.5 39.5q0 24 17 40.5t40 16.5q25 0 41 -16t16 -41zM341 659q0 -23 -16.5 -40t-40.5 -17q-22 0 -39.5 17.5t-17.5 39.5q0 24 17 40.5t40 16.5q25 0 41 -16t16 -41z" />
    <glyph glyph-name="copyright" unicode="&#xa9;" horiz-adv-x="532" 
d="M496 502q0 -95 -68 -163q-67 -67 -162 -67q-96 0 -163 67t-67 163q0 95 67 162q68 68 163 68q94 0 162 -68t68 -162zM84 502q0 -74 54 -128t128 -54q75 0 128 53q54 54 54 129q0 76 -53 129t-129 53q-75 0 -129 -54q-53 -53 -53 -128zM270 383q-51 0 -85 34t-34 85
q0 50 34 84q35 35 85 35q48 0 87 -39l-32 -29q-23 24 -55 24q-30 0 -51.5 -22t-21.5 -53q0 -15 6 -29t16 -24t23 -16t28 -6q38 0 60 31l34 -27q-36 -48 -94 -48z" />
    <glyph glyph-name="ordfeminine" unicode="&#xaa;" horiz-adv-x="478" 
d="M132 415q0 -30 26 -48.5t64 -18.5q52 0 92 35.5t40 85.5q-14 12 -48 23q-30 7 -55 7q-57 0 -88 -22t-31 -62zM208 272q-71 0 -119.5 41.5t-48.5 105.5q0 67 53.5 107t138.5 40q75 0 122 -28v15q0 45 -31.5 73t-78.5 28q-73 0 -105 -55l-78 38q19 43 66.5 69t112.5 26
q88 0 143 -50.5t55 -134.5v-261h-84v62h-4q-21 -35 -59 -55.5t-83 -20.5z" />
    <glyph glyph-name="guillemotleft" unicode="&#xab;" horiz-adv-x="556" 
d="M296 440l-160 -169l160 -169l-54 -50l-202 219l202 219zM496 440l-160 -169l160 -169l-54 -50l-202 219l202 219z" />
    <glyph glyph-name="logicalnot" unicode="&#xac;" horiz-adv-x="562" 
d="M482 385v-280h-72v204h-362v76h434z" />
    <glyph glyph-name="uni00AD" unicode="&#xad;" horiz-adv-x="432" 
d="M376 272h-320v76h320v-76z" />
    <glyph glyph-name="registered" unicode="&#xae;" horiz-adv-x="532" 
d="M496 502q0 -95 -68 -163q-67 -67 -162 -67q-96 0 -163 67t-67 163q0 95 67 162q68 68 163 68q94 0 162 -68t68 -162zM84 502q0 -74 54 -128t128 -54q75 0 128 53q54 54 54 129q0 76 -53 129t-129 53q-75 0 -129 -54q-53 -53 -53 -128zM235 515h46q13 0 22 8t9 20
q0 28 -37 28h-40v-56zM314 389l-55 84h-24v-84h-46v226h96q30 0 51.5 -21t21.5 -51q0 -23 -14 -41.5t-36 -24.5l-2 -2l60 -84v-2h-52z" />
    <glyph glyph-name="macron" unicode="&#xaf;" horiz-adv-x="400" 
d="M340 695v-72h-280v72h280z" />
    <glyph glyph-name="degree" unicode="&#xb0;" horiz-adv-x="325" 
d="M293 571q0 -54 -39 -91q-38 -38 -91 -38t-93 38q-38 38 -38 91t38 91q40 38 93 38q54 0 92 -38t38 -91zM163 506q25 0 43.5 19.5t18.5 45.5q1 28 -19 46.5t-45 18.5t-43 -19q-18 -17 -18 -43q0 -13 4.5 -25.5t13 -22t20 -15.5t25.5 -5z" />
    <glyph glyph-name="plusminus" unicode="&#xb1;" horiz-adv-x="550" 
d="M494 372v-76h-181v-157h-76v157h-181v76h181v157h76v-157h181zM494 76v-76h-438v76h438z" />
    <glyph glyph-name="twosuperior" unicode="&#xb2;" horiz-adv-x="304" 
d="M276 414v-64h-250v60l143 144q33 35 33 62q0 19 -15 31.5t-37 12.5q-49 0 -61 -58l-65 27q9 43 44 69t81 26q52 0 88.5 -30.5t36.5 -77.5q0 -44 -51 -98l-105 -104h158z" />
    <glyph glyph-name="threesuperior" unicode="&#xb3;" horiz-adv-x="323" 
d="M158 342q-51 0 -86.5 26t-47.5 74l65 24q13 -60 69 -60q25 0 43 15.5t18 38.5q0 50 -71 50h-30v60h29q60 0 60 47q0 19 -14.5 31t-35.5 12q-42 0 -58 -43l-62 25q28 82 120 82q54 0 88 -29t34 -77q0 -47 -45 -75q57 -33 57 -84q0 -26 -10 -47t-28 -37t-42.5 -24.5
t-52.5 -8.5z" />
    <glyph glyph-name="acute" unicode="&#xb4;" horiz-adv-x="400" 
d="M304 716l-72 -128h-80l52 128h100z" />
    <glyph glyph-name="mu" unicode="&#xb5;" 
d="M486 490v-490h-88v68h-4q-50 -84 -151 -84q-53 0 -99 40h-4l4 -56v-184h-92v706h92v-283q0 -139 121 -139q55 0 92 45t37 107v270h92z" />
    <glyph glyph-name="paragraph" unicode="&#xb6;" horiz-adv-x="624" 
d="M544 -216h-84v844h-84v-844h-84v512h-44q-96 0 -160 59t-64 151t64 151t160 59h296v-932z" />
    <glyph glyph-name="periodcentered" unicode="&#xb7;" horiz-adv-x="176" 
d="M156 324q0 -28 -19.5 -48t-48.5 -20q-28 0 -48 20t-20 48q0 29 20 48.5t48 19.5q29 0 48.5 -19.5t19.5 -48.5z" />
    <glyph glyph-name="cedilla" unicode="&#xb8;" horiz-adv-x="400" 
d="M266 -141q0 -40 -29 -68t-72 -28q-31 0 -57 18.5t-37 48.5l52 23q11 -34 42 -34q18 0 29.5 11.5t11.5 28.5q0 18 -11.5 30t-29.5 12q-19 0 -33 -16l-47 22l35 93h56l-21 -48l20 2q38 0 64.5 -27t26.5 -68z" />
    <glyph glyph-name="onesuperior" unicode="&#xb9;" horiz-adv-x="242" 
d="M182 716v-366h-70v285l-64 -26l-24 54l112 53h46z" />
    <glyph glyph-name="ordmasculine" unicode="&#xba;" horiz-adv-x="516" 
d="M480 502q0 -99 -63 -165q-63 -65 -159 -65t-159 65q-63 66 -63 165t63 164q63 66 159 66t159 -66q63 -65 63 -164zM124 502q0 -64 39 -107q40 -43 95 -43t94 43q40 43 40 107q0 63 -40 106q-39 44 -94 44t-95 -43q-39 -44 -39 -107z" />
    <glyph glyph-name="guillemotright" unicode="&#xbb;" horiz-adv-x="556" 
d="M114 52l-54 50l160 169l-160 169l54 50l202 -219zM314 52l-54 50l160 169l-160 169l54 50l202 -219z" />
    <glyph glyph-name="onequarter" unicode="&#xbc;" horiz-adv-x="736" 
d="M632 72v-72h-70v72h-171v48l174 246h67v-234h48v-60h-48zM558 263l-94 -131h98v131h-4zM622 686l-465 -694l-57 37l466 695zM206 716v-366h-70v285l-64 -26l-24 54l112 53h46z" />
    <glyph glyph-name="onehalf" unicode="&#xbd;" horiz-adv-x="776" 
d="M720 64v-64h-250v60l143 144q33 35 33 62q0 19 -15 31.5t-37 12.5q-49 0 -61 -58l-65 27q9 43 44 69t81 26q52 0 88.5 -30.5t36.5 -77.5q0 -44 -51 -98l-105 -104h158zM614 686l-465 -694l-57 37l466 695zM206 716v-366h-70v285l-64 -26l-24 54l112 53h46z" />
    <glyph glyph-name="threequarters" unicode="&#xbe;" horiz-adv-x="829" 
d="M723 72v-72h-70v72h-171v48l174 246h67v-234h48v-60h-48zM649 263l-94 -131h98v131h-4zM701 686l-465 -694l-57 37l466 695zM182 342q-51 0 -86.5 26t-47.5 74l65 24q13 -60 69 -60q25 0 43 15.5t18 38.5q0 50 -71 50h-30v60h29q60 0 60 47q0 19 -14.5 31t-35.5 12
q-42 0 -58 -43l-62 25q28 82 120 82q54 0 88 -29t34 -77q0 -47 -45 -75q57 -33 57 -84q0 -26 -10 -47t-28 -37t-42.5 -24.5t-52.5 -8.5z" />
    <glyph glyph-name="questiondown" unicode="&#xbf;" horiz-adv-x="482" 
d="M196 278h94v-47q0 -41 -16.5 -73t-63 -75t-63 -68t-16.5 -57q0 -47 30 -74.5t81 -27.5q87 0 118 96l86 -36q-24 -66 -78 -107t-126 -41q-90 0 -147.5 53.5t-57.5 136.5q0 42 21 80.5t79 91.5t59 105v43zM175 438q0 29 20 48.5t48 19.5q29 0 48.5 -19.5t19.5 -48.5
q0 -28 -19.5 -48t-48.5 -20q-28 0 -48 20t-20 48z" />
    <glyph glyph-name="Agrave" unicode="&#xc0;" horiz-adv-x="668" 
d="M332 603l-117 -323h238l-117 323h-4zM114 0h-102l270 716h104l270 -716h-102l-69 194h-301zM320 900l52 -128h-80l-72 128h100z" />
    <glyph glyph-name="Aacute" unicode="&#xc1;" horiz-adv-x="668" 
d="M332 603l-117 -323h238l-117 323h-4zM114 0h-102l270 716h104l270 -716h-102l-69 194h-301zM448 900l-72 -128h-80l52 128h100z" />
    <glyph glyph-name="Acircumflex" unicode="&#xc2;" horiz-adv-x="668" 
d="M332 603l-117 -323h238l-117 323h-4zM114 0h-102l270 716h104l270 -716h-102l-69 194h-301zM280 778h-89v5l103 117h80l103 -117v-5h-89l-50 60h-8z" />
    <glyph glyph-name="Atilde" unicode="&#xc3;" horiz-adv-x="668" 
d="M332 603l-117 -323h238l-117 323h-4zM114 0h-102l270 716h104l270 -716h-102l-69 194h-301zM394 778q-24 0 -66.5 22.5t-49.5 22.5q-31 0 -33 -35h-76q0 53 32.5 85.5t78.5 32.5q29 0 81 -30q30 -15 35 -15q31 0 33 35h76q0 -53 -32.5 -85.5t-78.5 -32.5z" />
    <glyph glyph-name="Adieresis" unicode="&#xc4;" horiz-adv-x="668" 
d="M332 603l-117 -323h238l-117 323h-4zM114 0h-102l270 716h104l270 -716h-102l-69 194h-301zM307 843q0 -23 -16.5 -40t-40.5 -17q-22 0 -39.5 17.5t-17.5 39.5q0 24 17 40.5t40 16.5q25 0 41 -16t16 -41zM475 843q0 -23 -16.5 -40t-40.5 -17q-22 0 -39.5 17.5t-17.5 39.5
q0 24 17 40.5t40 16.5q25 0 41 -16t16 -41z" />
    <glyph glyph-name="Aring" unicode="&#xc5;" horiz-adv-x="668" 
d="M294 756q0 -16 12 -28t28 -12q17 0 28.5 12t11.5 28q0 17 -11.5 28.5t-28.5 11.5q-16 0 -28 -11.5t-12 -28.5zM332 603l-117 -323h238l-117 323h-4zM485 194h-301l-70 -194h-102l255 676q-37 33 -37 80q0 22 8 41t22.5 33t33.5 22t40 8t40 -8t33.5 -22.5t22.5 -33.5
t8 -40q0 -48 -37 -79l255 -677h-102z" />
    <glyph glyph-name="AE" unicode="&#xc6;" horiz-adv-x="960" 
d="M490 628h-4l-206 -348h210v348zM908 0h-418v194h-261l-115 -194h-110l432 716h472v-88h-326v-227h294v-86h-294v-227h326v-88z" />
    <glyph glyph-name="Ccedilla" unicode="&#xc7;" horiz-adv-x="729" 
d="M515 -141q0 -40 -29 -68t-72 -28q-31 0 -57 18.5t-37 48.5l52 23q10 -34 42 -34q18 0 29.5 11.5t11.5 28.5q0 18 -11.5 30t-29.5 12q-20 0 -33 -16l-47 22l30 80q-144 17 -235 120q-92 104 -92 251q0 160 106 266q106 108 266 108q162 0 263 -117l-66 -64q-77 93 -197 93
q-119 0 -199 -80q-79 -79 -79 -206t79 -206q80 -80 199 -80q125 0 217 105l67 -65q-49 -58 -121 -92t-154 -36l-14 -32l20 2q38 0 64.5 -27t26.5 -68z" />
    <glyph glyph-name="Egrave" unicode="&#xc8;" 
d="M490 716v-88h-326v-227h294v-86h-294v-227h326v-88h-418v716h418zM277 900l52 -128h-80l-72 128h100z" />
    <glyph glyph-name="Eacute" unicode="&#xc9;" 
d="M490 716v-88h-326v-227h294v-86h-294v-227h326v-88h-418v716h418zM387 900l-72 -128h-80l52 128h100z" />
    <glyph glyph-name="Ecircumflex" unicode="&#xca;" 
d="M490 716v-88h-326v-227h294v-86h-294v-227h326v-88h-418v716h418zM227 778h-89v5l103 117h80l103 -117v-5h-89l-50 60h-8z" />
    <glyph glyph-name="Edieresis" unicode="&#xcb;" 
d="M490 716v-88h-326v-227h294v-86h-294v-227h326v-88h-418v716h418zM250 843q0 -23 -16.5 -40t-40.5 -17q-22 0 -39.5 17.5t-17.5 39.5q0 24 17 40.5t40 16.5q25 0 41 -16t16 -41zM418 843q0 -23 -16.5 -40t-40.5 -17q-22 0 -39.5 17.5t-17.5 39.5q0 24 17 40.5t40 16.5
q25 0 41 -16t16 -41z" />
    <glyph glyph-name="Igrave" unicode="&#xcc;" horiz-adv-x="236" 
d="M164 0h-92v716h92v-716zM106 900l52 -128h-80l-72 128h100z" />
    <glyph glyph-name="Iacute" unicode="&#xcd;" horiz-adv-x="236" 
d="M164 0h-92v716h92v-716zM230 900l-72 -128h-80l52 128h100z" />
    <glyph glyph-name="Icircumflex" unicode="&#xce;" horiz-adv-x="236" 
d="M164 0h-92v716h92v-716zM64 778h-89v5l103 117h80l103 -117v-5h-89l-50 60h-8z" />
    <glyph glyph-name="Idieresis" unicode="&#xcf;" horiz-adv-x="236" 
d="M243 844q0 -23 -16.5 -40t-40.5 -17q-22 0 -39.5 17.5t-17.5 39.5q0 24 17 40.5t40 16.5q25 0 41 -16t16 -41zM107 844q0 -23 -16.5 -40t-40.5 -17q-22 0 -39.5 17.5t-17.5 39.5q0 24 17 40.5t40 16.5q25 0 41 -16t16 -41zM164 0h-92v716h92v-716z" />
    <glyph glyph-name="Eth" unicode="&#xd0;" horiz-adv-x="751" 
d="M714 358q0 -161 -99.5 -259.5t-263.5 -98.5h-219v319h-76v76h76v321h219q164 0 263.5 -99t99.5 -259zM224 319v-231h127q125 0 197 71.5t72 198.5q0 126 -72 198t-197 72h-127v-233h200v-76h-200z" />
    <glyph glyph-name="Ntilde" unicode="&#xd1;" horiz-adv-x="696" 
d="M164 0h-92v716h112l348 -557h4l-4 138v419h92v-716h-96l-364 584h-4l4 -138v-446zM413 778q-24 0 -66.5 22.5t-49.5 22.5q-31 0 -33 -35h-76q0 53 32.5 85.5t78.5 32.5q29 0 81 -30q30 -15 35 -15q31 0 33 35h76q0 -53 -32.5 -85.5t-78.5 -32.5z" />
    <glyph glyph-name="Ograve" unicode="&#xd2;" horiz-adv-x="810" 
d="M773 358q0 -159 -106 -266q-107 -108 -262 -108q-156 0 -262 108q-106 107 -106 266t106 266q106 108 262 108t262 -109q106 -107 106 -265zM131 358q0 -124 78 -205q79 -81 196 -81t195 81q79 80 79 205t-79 205q-78 81 -195 81t-196 -81q-78 -81 -78 -205zM393 900
l52 -128h-80l-72 128h100z" />
    <glyph glyph-name="Oacute" unicode="&#xd3;" horiz-adv-x="810" 
d="M773 358q0 -159 -106 -266q-107 -108 -262 -108q-156 0 -262 108q-106 107 -106 266t106 266q106 108 262 108t262 -109q106 -107 106 -265zM131 358q0 -124 78 -205q79 -81 196 -81t195 81q79 80 79 205t-79 205q-78 81 -195 81t-196 -81q-78 -81 -78 -205zM517 900
l-72 -128h-80l52 128h100z" />
    <glyph glyph-name="Ocircumflex" unicode="&#xd4;" horiz-adv-x="810" 
d="M773 358q0 -159 -106 -266q-107 -108 -262 -108q-156 0 -262 108q-106 107 -106 266t106 266q106 108 262 108t262 -109q106 -107 106 -265zM131 358q0 -124 78 -205q79 -81 196 -81t195 81q79 80 79 205t-79 205q-78 81 -195 81t-196 -81q-78 -81 -78 -205zM351 779h-89
v5l103 117h80l103 -117v-5h-89l-50 60h-8z" />
    <glyph glyph-name="Otilde" unicode="&#xd5;" horiz-adv-x="810" 
d="M773 358q0 -159 -106 -266q-107 -108 -262 -108q-156 0 -262 108q-106 107 -106 266t106 266q106 108 262 108t262 -109q106 -107 106 -265zM131 358q0 -124 78 -205q79 -81 196 -81t195 81q79 80 79 205t-79 205q-78 81 -195 81t-196 -81q-78 -81 -78 -205zM462 778
q-24 0 -66.5 22.5t-49.5 22.5q-31 0 -33 -35h-76q0 53 32.5 85.5t78.5 32.5q29 0 81 -30q30 -15 35 -15q31 0 33 35h76q0 -53 -32.5 -85.5t-78.5 -32.5z" />
    <glyph glyph-name="Odieresis" unicode="&#xd6;" horiz-adv-x="810" 
d="M773 358q0 -159 -106 -266q-107 -108 -262 -108q-156 0 -262 108q-106 107 -106 266t106 266q106 108 262 108t262 -109q106 -107 106 -265zM131 358q0 -124 78 -205q79 -81 196 -81t195 81q79 80 79 205t-79 205q-78 81 -195 81t-196 -81q-78 -81 -78 -205zM378 843
q0 -23 -16.5 -40t-40.5 -17q-22 0 -39.5 17.5t-17.5 39.5q0 24 17 40.5t40 16.5q25 0 41 -16t16 -41zM546 843q0 -23 -16.5 -40t-40.5 -17q-22 0 -39.5 17.5t-17.5 39.5q0 24 17 40.5t40 16.5q25 0 41 -16t16 -41z" />
    <glyph glyph-name="multiply" unicode="&#xd7;" 
d="M482 116l-51 -51l-160 156l-160 -156l-51 51l159 155l-159 155l51 51l160 -156l160 156l51 -51l-159 -155z" />
    <glyph glyph-name="Oslash" unicode="&#xd8;" horiz-adv-x="810" 
d="M405 644q-117 0 -195.5 -81t-78.5 -205q0 -138 94 -220l299 480q-54 26 -119 26zM405 72q117 0 195.5 81t78.5 205q0 136 -93 219l-299 -479q54 -26 118 -26zM773 358q0 -158 -106 -266t-262 -108q-89 0 -165 38l-37 -59l-63 39l37 59q-66 52 -103 130t-37 167
q0 158 106 266t262 108q88 0 166 -39l38 61l62 -40l-38 -60q67 -53 103.5 -130.5t36.5 -165.5z" />
    <glyph glyph-name="Ugrave" unicode="&#xd9;" horiz-adv-x="642" 
d="M321 -16q-119 0 -192 78q-73 77 -73 204v450h92v-454q0 -88 46 -139t127 -51t127 51t46 139v454h92v-450q0 -130 -72 -206t-193 -76zM315 900l52 -128h-80l-72 128h100z" />
    <glyph glyph-name="Uacute" unicode="&#xda;" horiz-adv-x="642" 
d="M321 -16q-119 0 -192 78q-73 77 -73 204v450h92v-454q0 -88 46 -139t127 -51t127 51t46 139v454h92v-450q0 -130 -72 -206t-193 -76zM427 900l-72 -128h-80l52 128h100z" />
    <glyph glyph-name="Ucircumflex" unicode="&#xdb;" horiz-adv-x="642" 
d="M321 -16q-119 0 -192 78q-73 77 -73 204v450h92v-454q0 -88 46 -139t127 -51t127 51t46 139v454h92v-450q0 -130 -72 -206t-193 -76zM267 778h-89v5l103 117h80l103 -117v-5h-89l-50 60h-8z" />
    <glyph glyph-name="Udieresis" unicode="&#xdc;" horiz-adv-x="642" 
d="M321 -16q-119 0 -192 78q-73 77 -73 204v450h92v-454q0 -88 46 -139t127 -51t127 51t46 139v454h92v-450q0 -130 -72 -206t-193 -76zM294 843q0 -23 -16.5 -40t-40.5 -17q-22 0 -39.5 17.5t-17.5 39.5q0 24 17 40.5t40 16.5q25 0 41 -16t16 -41zM462 843q0 -23 -16.5 -40
t-40.5 -17q-22 0 -39.5 17.5t-17.5 39.5q0 24 17 40.5t40 16.5q25 0 41 -16t16 -41z" />
    <glyph glyph-name="Yacute" unicode="&#xdd;" horiz-adv-x="594" 
d="M345 333v-333h-92v333l-241 383h108l177 -291h4l173 291h108zM403 900l-72 -128h-80l52 128h100z" />
    <glyph glyph-name="Thorn" unicode="&#xde;" horiz-adv-x="564" 
d="M164 506v-250h154q55 0 91 37q37 37 37 88q0 50 -37 87q-36 38 -91 38h-154zM164 168v-168h-92v716h92v-122h152q93 0 158 -62q66 -62 66 -151q0 -91 -66 -152q-64 -61 -158 -61h-152z" />
    <glyph glyph-name="germandbls" unicode="&#xdf;" horiz-adv-x="562" 
d="M412 389v-4q118 -51 118 -174q0 -95 -64.5 -157t-164.5 -62l-53 4v88l53 -4q57 0 96 38t39 93q0 53 -42.5 91t-100.5 38h-37v86h25q57 0 90 30t33 82q0 46 -33.5 76t-83.5 30q-57 0 -89 -34.5t-32 -93.5v-516h-94v516q0 97 58.5 156.5t156.5 59.5q91 0 151 -55t60 -139
q0 -105 -86 -149z" />
    <glyph glyph-name="agrave" unicode="&#xe0;" horiz-adv-x="510" 
d="M123 150q0 -36 30.5 -60t71.5 -24q58 0 103.5 43t45.5 101q-43 34 -120 34q-56 0 -93.5 -27t-37.5 -67zM242 506q102 0 161 -54.5t59 -149.5v-302h-88v68h-4q-57 -84 -152 -84q-81 0 -135.5 48t-54.5 120q0 76 57.5 121t153.5 45q82 0 135 -30v21q0 48 -38 81.5t-89 33.5
q-77 0 -122 -65l-81 51q67 96 198 96zM252 716l52 -128h-80l-72 128h100z" />
    <glyph glyph-name="aacute" unicode="&#xe1;" horiz-adv-x="510" 
d="M123 150q0 -36 30.5 -60t71.5 -24q58 0 103.5 43t45.5 101q-43 34 -120 34q-56 0 -93.5 -27t-37.5 -67zM242 506q102 0 161 -54.5t59 -149.5v-302h-88v68h-4q-57 -84 -152 -84q-81 0 -135.5 48t-54.5 120q0 76 57.5 121t153.5 45q82 0 135 -30v21q0 48 -38 81.5t-89 33.5
q-77 0 -122 -65l-81 51q67 96 198 96zM357 716l-72 -128h-80l52 128h100z" />
    <glyph glyph-name="acircumflex" unicode="&#xe2;" horiz-adv-x="510" 
d="M123 150q0 -36 30.5 -60t71.5 -24q58 0 103.5 43t45.5 101q-43 34 -120 34q-56 0 -93.5 -27t-37.5 -67zM242 506q102 0 161 -54.5t59 -149.5v-302h-88v68h-4q-57 -84 -152 -84q-81 0 -135.5 48t-54.5 120q0 76 57.5 121t153.5 45q82 0 135 -30v21q0 48 -38 81.5t-89 33.5
q-77 0 -122 -65l-81 51q67 96 198 96zM194 594h-89v5l103 117h80l103 -117v-5h-89l-50 60h-8z" />
    <glyph glyph-name="atilde" unicode="&#xe3;" horiz-adv-x="510" 
d="M123 150q0 -36 30.5 -60t71.5 -24q58 0 103.5 43t45.5 101q-43 34 -120 34q-56 0 -93.5 -27t-37.5 -67zM242 506q102 0 161 -54.5t59 -149.5v-302h-88v68h-4q-57 -84 -152 -84q-81 0 -135.5 48t-54.5 120q0 76 57.5 121t153.5 45q82 0 135 -30v21q0 48 -38 81.5t-89 33.5
q-77 0 -122 -65l-81 51q67 96 198 96zM316 595q-24 0 -66.5 22.5t-49.5 22.5q-31 0 -33 -35h-76q0 53 32.5 85.5t78.5 32.5q29 0 81 -30q30 -15 35 -15q31 0 33 35h76q0 -53 -32.5 -85.5t-78.5 -32.5z" />
    <glyph glyph-name="adieresis" unicode="&#xe4;" horiz-adv-x="510" 
d="M123 150q0 -36 30.5 -60t71.5 -24q58 0 103.5 43t45.5 101q-43 34 -120 34q-56 0 -93.5 -27t-37.5 -67zM242 506q102 0 161 -54.5t59 -149.5v-302h-88v68h-4q-57 -84 -152 -84q-81 0 -135.5 48t-54.5 120q0 76 57.5 121t153.5 45q82 0 135 -30v21q0 48 -38 81.5t-89 33.5
q-77 0 -122 -65l-81 51q67 96 198 96zM229 658q0 -23 -16.5 -40t-40.5 -17q-22 0 -39.5 17.5t-17.5 39.5q0 24 17 40.5t40 16.5q25 0 41 -16t16 -41zM397 658q0 -23 -16.5 -40t-40.5 -17q-22 0 -39.5 17.5t-17.5 39.5q0 24 17 40.5t40 16.5q25 0 41 -16t16 -41z" />
    <glyph glyph-name="aring" unicode="&#xe5;" horiz-adv-x="510" 
d="M123 150q0 -36 30.5 -60t71.5 -24q58 0 103.5 43t45.5 101q-43 34 -120 34q-56 0 -93.5 -27t-37.5 -67zM242 506q102 0 161 -54.5t59 -149.5v-302h-88v68h-4q-57 -84 -152 -84q-81 0 -135.5 48t-54.5 120q0 76 57.5 121t153.5 45q82 0 135 -30v21q0 48 -38 81.5t-89 33.5
q-77 0 -122 -65l-81 51q67 96 198 96zM153 668q0 22 8 41t22.5 33t33.5 22t40 8t40 -8t33.5 -22.5t22.5 -33.5t8 -40t-8 -40t-22.5 -33.5t-33.5 -22.5t-40 -8t-40 8t-33.5 22.5t-22.5 33.5t-8 40zM213 668q0 -18 13 -31.5t31 -13.5t31 13.5t13 31.5t-13 31t-31 13t-31 -13
t-13 -31z" />
    <glyph glyph-name="ae" unicode="&#xe6;" horiz-adv-x="886" 
d="M477 304h283q-4 51 -41.5 84.5t-100.5 33.5q-52 0 -91 -32.5t-50 -85.5zM626 -16q-65 0 -117.5 29t-84.5 83q-68 -112 -206 -112q-81 0 -135.5 48t-54.5 120q0 76 57.5 121t153.5 45q88 0 139 -30v21q0 48 -37.5 81.5t-88.5 33.5q-81 0 -118 -69l-84 41q57 110 198 110
q61 0 109.5 -26t75.5 -74q67 100 187 100q109 0 173.5 -70.5t64.5 -197.5l-1 -10h-387q2 -71 48.5 -115.5t111.5 -44.5q88 0 138 88l82 -40q-33 -62 -91.5 -97t-132.5 -35zM123 150q0 -36 30.5 -60t71.5 -24q59 0 106 43.5t47 100.5q-20 15 -59 25q-29 9 -65 9
q-56 0 -93.5 -27t-37.5 -67z" />
    <glyph glyph-name="ccedilla" unicode="&#xe7;" horiz-adv-x="522" 
d="M384 -141q0 -40 -29 -68t-72 -28q-31 0 -57 18.5t-37 48.5l52 23q10 -34 42 -34q18 0 29.5 11.5t11.5 28.5q0 18 -11.5 30t-29.5 12q-20 0 -33 -16l-47 22l30 81q-92 17 -149 87q-56 71 -56 170q0 113 71 187q72 74 181 74q75 0 131 -37.5t84 -103.5l-84 -35
q-39 92 -137 92q-63 0 -109 -51q-45 -51 -45 -126t45 -126q46 -51 109 -51q101 0 142 92l82 -35q-26 -64 -81 -101.5t-130 -39.5l-14 -32l20 2q38 0 64.5 -27t26.5 -68z" />
    <glyph glyph-name="egrave" unicode="&#xe8;" horiz-adv-x="536" 
d="M276 -16q-108 0 -178 74t-70 187q0 112 68 186.5t174 74.5q109 0 173.5 -70.5t64.5 -197.5l-1 -10h-385q2 -72 48 -116t110 -44q88 0 138 88l82 -40q-33 -62 -91.5 -97t-132.5 -35zM129 304h281q-4 51 -41.5 84.5t-100.5 33.5q-52 0 -89.5 -32t-49.5 -86zM259 716
l52 -128h-80l-72 128h100z" />
    <glyph glyph-name="eacute" unicode="&#xe9;" horiz-adv-x="536" 
d="M276 -16q-108 0 -178 74t-70 187q0 112 68 186.5t174 74.5q109 0 173.5 -70.5t64.5 -197.5l-1 -10h-385q2 -72 48 -116t110 -44q88 0 138 88l82 -40q-33 -62 -91.5 -97t-132.5 -35zM129 304h281q-4 51 -41.5 84.5t-100.5 33.5q-52 0 -89.5 -32t-49.5 -86zM372 716
l-72 -128h-80l52 128h100z" />
    <glyph glyph-name="ecircumflex" unicode="&#xea;" horiz-adv-x="536" 
d="M276 -16q-108 0 -178 74t-70 187q0 112 68 186.5t174 74.5q109 0 173.5 -70.5t64.5 -197.5l-1 -10h-385q2 -72 48 -116t110 -44q88 0 138 88l82 -40q-33 -62 -91.5 -97t-132.5 -35zM129 304h281q-4 51 -41.5 84.5t-100.5 33.5q-52 0 -89.5 -32t-49.5 -86zM217 584h-89v5
l103 117h80l103 -117v-5h-89l-50 60h-8z" />
    <glyph glyph-name="edieresis" unicode="&#xeb;" horiz-adv-x="536" 
d="M276 -16q-108 0 -178 74t-70 187q0 112 68 186.5t174 74.5q109 0 173.5 -70.5t64.5 -197.5l-1 -10h-385q2 -72 48 -116t110 -44q88 0 138 88l82 -40q-33 -62 -91.5 -97t-132.5 -35zM129 304h281q-4 51 -41.5 84.5t-100.5 33.5q-52 0 -89.5 -32t-49.5 -86zM239 658
q0 -23 -16.5 -40t-40.5 -17q-22 0 -39.5 17.5t-17.5 39.5q0 24 17 40.5t40 16.5q25 0 41 -16t16 -41zM407 658q0 -23 -16.5 -40t-40.5 -17q-22 0 -39.5 17.5t-17.5 39.5q0 24 17 40.5t40 16.5q25 0 41 -16t16 -41z" />
    <glyph glyph-name="igrave" unicode="&#xec;" horiz-adv-x="220" 
d="M156 490v-490h-92v490h92zM100 716l52 -128h-80l-72 128h100z" />
    <glyph glyph-name="iacute" unicode="&#xed;" horiz-adv-x="220" 
d="M156 490v-490h-92v490h92zM220 716l-72 -128h-80l52 128h100z" />
    <glyph glyph-name="icircumflex" unicode="&#xee;" horiz-adv-x="220" 
d="M156 490v-490h-92v490h92zM56 594h-89v5l103 117h80l103 -117v-5h-89l-50 60h-8z" />
    <glyph glyph-name="idieresis" unicode="&#xef;" horiz-adv-x="220" 
d="M99 659q0 -23 -16.5 -40t-40.5 -17q-22 0 -39.5 17.5t-17.5 39.5q0 24 17 40.5t40 16.5q25 0 41 -16t16 -41zM235 659q0 -23 -16.5 -40t-40.5 -17q-22 0 -39.5 17.5t-17.5 39.5q0 24 17 40.5t40 16.5q25 0 41 -16t16 -41zM156 490v-490h-92v490h92z" />
    <glyph glyph-name="eth" unicode="&#xf0;" horiz-adv-x="571" 
d="M531 260q0 -123 -68 -200q-67 -76 -178 -76q-101 0 -173 72q-72 73 -72 176q0 104 70 173t168 69q82 0 126 -47l4 3q-35 79 -95 129l-129 -57l-28 67l86 38q-25 13 -52.5 23t-57.5 17l31 77q99 -27 171 -77l101 45l28 -66l-67 -30q135 -131 135 -336zM287 389
q-66 0 -109 -45q-44 -46 -44 -113q0 -68 43 -114q43 -45 108 -45q64 0 108 45q44 47 44 114t-44 113q-44 45 -106 45z" />
    <glyph glyph-name="ntilde" unicode="&#xf1;" 
d="M56 490h88v-68h4q21 36 64.5 60t90.5 24q90 0 138.5 -51.5t48.5 -146.5v-308h-92v302q-3 120 -121 120q-55 0 -92 -44.5t-37 -106.5v-271h-92v490zM336 595q-24 0 -66.5 22.5t-49.5 22.5q-31 0 -33 -35h-76q0 53 32.5 85.5t78.5 32.5q29 0 81 -30q30 -15 35 -15
q31 0 33 35h76q0 -53 -32.5 -85.5t-78.5 -32.5z" />
    <glyph glyph-name="ograve" unicode="&#xf2;" horiz-adv-x="560" 
d="M28 245q0 113 71 187q72 74 181 74t180 -74q72 -74 72 -187q0 -114 -72 -187q-71 -74 -180 -74t-181 74q-71 74 -71 187zM120 245q0 -79 46 -128t114 -49t114 49t46 128q0 78 -46 127q-47 50 -114 50t-114 -50q-46 -49 -46 -127zM263 716l52 -128h-80l-72 128h100z" />
    <glyph glyph-name="oacute" unicode="&#xf3;" horiz-adv-x="560" 
d="M28 245q0 113 71 187q72 74 181 74t180 -74q72 -74 72 -187q0 -114 -72 -187q-71 -74 -180 -74t-181 74q-71 74 -71 187zM120 245q0 -79 46 -128t114 -49t114 49t46 128q0 78 -46 127q-47 50 -114 50t-114 -50q-46 -49 -46 -127zM388 716l-72 -128h-80l52 128h100z" />
    <glyph glyph-name="ocircumflex" unicode="&#xf4;" horiz-adv-x="560" 
d="M28 245q0 113 71 187q72 74 181 74t180 -74q72 -74 72 -187q0 -114 -72 -187q-71 -74 -180 -74t-181 74q-71 74 -71 187zM120 245q0 -79 46 -128t114 -49t114 49t46 128q0 78 -46 127q-47 50 -114 50t-114 -50q-46 -49 -46 -127zM226 594h-89v5l103 117h80l103 -117v-5
h-89l-50 60h-8z" />
    <glyph glyph-name="otilde" unicode="&#xf5;" horiz-adv-x="560" 
d="M28 245q0 113 71 187q72 74 181 74t180 -74q72 -74 72 -187q0 -114 -72 -187q-71 -74 -180 -74t-181 74q-71 74 -71 187zM120 245q0 -79 46 -128t114 -49t114 49t46 128q0 78 -46 127q-47 50 -114 50t-114 -50q-46 -49 -46 -127zM337 595q-24 0 -66.5 22.5t-49.5 22.5
q-31 0 -33 -35h-76q0 53 32.5 85.5t78.5 32.5q29 0 81 -30q30 -15 35 -15q31 0 33 35h76q0 -53 -32.5 -85.5t-78.5 -32.5z" />
    <glyph glyph-name="odieresis" unicode="&#xf6;" horiz-adv-x="560" 
d="M28 245q0 113 71 187q72 74 181 74t180 -74q72 -74 72 -187q0 -114 -72 -187q-71 -74 -180 -74t-181 74q-71 74 -71 187zM120 245q0 -79 46 -128t114 -49t114 49t46 128q0 78 -46 127q-47 50 -114 50t-114 -50q-46 -49 -46 -127zM253 658q0 -23 -16.5 -40t-40.5 -17
q-22 0 -39.5 17.5t-17.5 39.5q0 24 17 40.5t40 16.5q25 0 41 -16t16 -41zM421 658q0 -23 -16.5 -40t-40.5 -17q-22 0 -39.5 17.5t-17.5 39.5q0 24 17 40.5t40 16.5q25 0 41 -16t16 -41z" />
    <glyph glyph-name="divide" unicode="&#xf7;" horiz-adv-x="550" 
d="M343 454q0 -28 -19.5 -48t-48.5 -20q-28 0 -48 20t-20 48q0 29 20 48.5t48 19.5q29 0 48.5 -19.5t19.5 -48.5zM494 309v-76h-438v76h438zM343 88q0 -28 -19.5 -48t-48.5 -20q-28 0 -48 20t-20 48q0 29 20 48.5t48 19.5q29 0 48.5 -19.5t19.5 -48.5z" />
    <glyph glyph-name="oslash" unicode="&#xf8;" horiz-adv-x="560" 
d="M280 422q-68 0 -114 -49.5t-46 -127.5q0 -77 44 -125l180 288q-30 14 -64 14zM280 68q68 0 114 49.5t46 127.5q0 75 -42 123l-179 -287q30 -13 61 -13zM532 245q0 -113 -71.5 -187t-180.5 -74q-57 0 -107 22l-25 -39l-59 33l27 43q-88 75 -88 202q0 113 71.5 187
t180.5 74q60 0 110 -24l26 42l58 -34l-28 -44q86 -78 86 -201z" />
    <glyph glyph-name="ugrave" unicode="&#xf9;" 
d="M486 0h-88v68h-4q-21 -36 -64.5 -60t-90.5 -24q-90 0 -138.5 51.5t-48.5 146.5v308h92v-302q3 -120 121 -120q55 0 92 44.5t37 106.5v271h92v-490zM265 716l52 -128h-80l-72 128h100z" />
    <glyph glyph-name="uacute" unicode="&#xfa;" 
d="M486 0h-88v68h-4q-21 -36 -64.5 -60t-90.5 -24q-90 0 -138.5 51.5t-48.5 146.5v308h92v-302q3 -120 121 -120q55 0 92 44.5t37 106.5v271h92v-490zM375 716l-72 -128h-80l52 128h100z" />
    <glyph glyph-name="ucircumflex" unicode="&#xfb;" 
d="M486 0h-88v68h-4q-21 -36 -64.5 -60t-90.5 -24q-90 0 -138.5 51.5t-48.5 146.5v308h92v-302q3 -120 121 -120q55 0 92 44.5t37 106.5v271h92v-490zM217 578h-89v5l103 117h80l103 -117v-5h-89l-50 60h-8z" />
    <glyph glyph-name="udieresis" unicode="&#xfc;" 
d="M486 0h-88v68h-4q-21 -36 -64.5 -60t-90.5 -24q-90 0 -138.5 51.5t-48.5 146.5v308h92v-302q3 -120 121 -120q55 0 92 44.5t37 106.5v271h92v-490zM246 659q0 -23 -16.5 -40t-40.5 -17q-22 0 -39.5 17.5t-17.5 39.5q0 24 17 40.5t40 16.5q25 0 41 -16t16 -41zM414 659
q0 -23 -16.5 -40t-40.5 -17q-22 0 -39.5 17.5t-17.5 39.5q0 24 17 40.5t40 16.5q25 0 41 -16t16 -41z" />
    <glyph glyph-name="yacute" unicode="&#xfd;" horiz-adv-x="498" 
d="M362 716l-72 -128h-80l52 128h100zM494 490l-307 -706h-95l114 247l-202 459h100l146 -352h2l142 352h100z" />
    <glyph glyph-name="thorn" unicode="&#xfe;" horiz-adv-x="576" 
d="M300 68q66 0 111 50q45 49 45 127q0 77 -45 127t-111 50q-67 0 -112 -50q-44 -50 -44 -127q0 -78 44 -128q45 -49 112 -49zM315 -16q-54 0 -98.5 23t-68.5 61h-4l4 -68v-216h-92v932h92v-226l-4 -68h4q24 38 68.5 61t98.5 23q97 0 164 -76q69 -77 69 -185
q0 -109 -69 -185q-67 -76 -164 -76z" />
    <glyph glyph-name="ydieresis" unicode="&#xff;" horiz-adv-x="498" 
d="M494 490l-307 -706h-95l114 247l-202 459h100l146 -352h2l142 352h100zM224 659q0 -23 -16.5 -40t-40.5 -17q-22 0 -39.5 17.5t-17.5 39.5q0 24 17 40.5t40 16.5q25 0 41 -16t16 -41zM392 659q0 -23 -16.5 -40t-40.5 -17q-22 0 -39.5 17.5t-17.5 39.5q0 24 17 40.5
t40 16.5q25 0 41 -16t16 -41z" />
    <glyph glyph-name="Amacron" unicode="&#x100;" horiz-adv-x="668" 
d="M332 603l-117 -323h238l-117 323h-4zM114 0h-102l270 716h104l270 -716h-102l-69 194h-301zM474 879v-72h-280v72h280z" />
    <glyph glyph-name="amacron" unicode="&#x101;" horiz-adv-x="510" 
d="M123 150q0 -36 30.5 -60t71.5 -24q58 0 103.5 43t45.5 101q-43 34 -120 34q-56 0 -93.5 -27t-37.5 -67zM242 506q102 0 161 -54.5t59 -149.5v-302h-88v68h-4q-57 -84 -152 -84q-81 0 -135.5 48t-54.5 120q0 76 57.5 121t153.5 45q82 0 135 -30v21q0 48 -38 81.5t-89 33.5
q-77 0 -122 -65l-81 51q67 96 198 96zM401 695v-72h-280v72h280z" />
    <glyph glyph-name="Abreve" unicode="&#x102;" horiz-adv-x="668" 
d="M332 603l-117 -323h238l-117 323h-4zM114 0h-102l270 716h104l270 -716h-102l-69 194h-301zM335 770q-52 0 -90.5 37t-38.5 89h74q0 -25 15.5 -41t39.5 -16q23 0 38.5 16.5t15.5 40.5h73q0 -52 -38 -89t-89 -37z" />
    <glyph glyph-name="abreve" unicode="&#x103;" horiz-adv-x="510" 
d="M123 150q0 -36 30.5 -60t71.5 -24q58 0 103.5 43t45.5 101q-43 34 -120 34q-56 0 -93.5 -27t-37.5 -67zM242 506q102 0 161 -54.5t59 -149.5v-302h-88v68h-4q-57 -84 -152 -84q-81 0 -135.5 48t-54.5 120q0 76 57.5 121t153.5 45q82 0 135 -30v21q0 48 -38 81.5t-89 33.5
q-77 0 -122 -65l-81 51q67 96 198 96zM257 586q-52 0 -90.5 37t-38.5 89h74q0 -25 15.5 -41t39.5 -16q23 0 38.5 16.5t15.5 40.5h73q0 -52 -38 -89t-89 -37z" />
    <glyph glyph-name="Aogonek" unicode="&#x104;" horiz-adv-x="668" 
d="M502 -107q0 55 52 107l-69 194h-301l-70 -194h-102l270 716h104l270 -716q-44 -35 -58 -55.5t-14 -41.5q0 -22 13 -36.5t33 -14.5q17 0 27 5l28 -68q-28 -13 -62 -13q-54 0 -87.5 33t-33.5 84zM332 603l-117 -323h238l-117 323h-4z" />
    <glyph glyph-name="aogonek" unicode="&#x105;" horiz-adv-x="510" 
d="M308 -111q0 66 66 111v68h-4q-57 -84 -152 -84q-81 0 -135.5 48t-54.5 120q0 76 57.5 121t153.5 45q82 0 135 -30v21q0 48 -38 81.5t-89 33.5q-77 0 -122 -65l-81 51q67 96 198 96q102 0 161 -54.5t59 -149.5v-302q-44 -35 -58 -55.5t-14 -41.5q0 -22 12.5 -36.5
t32.5 -14.5q17 0 27 5l28 -68q-28 -13 -61 -13q-54 0 -87.5 32t-33.5 81zM123 150q0 -36 30.5 -60t71.5 -24q58 0 103.5 43t45.5 101q-43 34 -120 34q-56 0 -93.5 -27t-37.5 -67z" />
    <glyph glyph-name="Cacute" unicode="&#x106;" horiz-adv-x="729" 
d="M409 -16q-159 0 -266 107q-106 107 -106 267t106 266q106 108 266 108q162 0 263 -117l-66 -64q-77 93 -197 93q-119 0 -199 -80q-79 -79 -79 -206t79 -206q80 -80 199 -80q125 0 217 105l67 -65q-51 -61 -125 -94.5t-159 -33.5zM513 900l-72 -128h-80l52 128h100z" />
    <glyph glyph-name="cacute" unicode="&#x107;" horiz-adv-x="522" 
d="M280 -16q-109 0 -181 74q-71 76 -71 187q0 113 71 187q72 74 181 74q75 0 131 -37.5t84 -103.5l-84 -35q-39 92 -137 92q-63 0 -109 -51q-45 -51 -45 -126t45 -126q46 -51 109 -51q101 0 142 92l82 -35q-27 -66 -84.5 -103.5t-133.5 -37.5zM372 716l-72 -128h-80l52 128
h100z" />
    <glyph glyph-name="Ccircumflex" unicode="&#x108;" horiz-adv-x="729" 
d="M409 -16q-159 0 -266 107q-106 107 -106 267t106 266q106 108 266 108q162 0 263 -117l-66 -64q-77 93 -197 93q-119 0 -199 -80q-79 -79 -79 -206t79 -206q80 -80 199 -80q125 0 217 105l67 -65q-51 -61 -125 -94.5t-159 -33.5zM354 779h-89v5l103 117h80l103 -117v-5
h-89l-50 60h-8z" />
    <glyph glyph-name="ccircumflex" unicode="&#x109;" horiz-adv-x="522" 
d="M280 -16q-109 0 -181 74q-71 76 -71 187q0 113 71 187q72 74 181 74q75 0 131 -37.5t84 -103.5l-84 -35q-39 92 -137 92q-63 0 -109 -51q-45 -51 -45 -126t45 -126q46 -51 109 -51q101 0 142 92l82 -35q-27 -66 -84.5 -103.5t-133.5 -37.5zM219 594h-89v5l103 117h80
l103 -117v-5h-89l-50 60h-8z" />
    <glyph glyph-name="Cdotaccent" unicode="&#x10a;" horiz-adv-x="729" 
d="M409 -16q-159 0 -266 107q-106 107 -106 267t106 266q106 108 266 108q162 0 263 -117l-66 -64q-77 93 -197 93q-119 0 -199 -80q-79 -79 -79 -206t79 -206q80 -80 199 -80q125 0 217 105l67 -65q-51 -61 -125 -94.5t-159 -33.5zM445 856q0 -21 -15 -36.5t-37 -15.5
q-20 0 -36 16t-16 36q0 22 15.5 37t36.5 15q23 0 37.5 -14.5t14.5 -37.5z" />
    <glyph glyph-name="cdotaccent" unicode="&#x10b;" horiz-adv-x="522" 
d="M280 -16q-109 0 -181 74q-71 76 -71 187q0 113 71 187q72 74 181 74q75 0 131 -37.5t84 -103.5l-84 -35q-39 92 -137 92q-63 0 -109 -51q-45 -51 -45 -126t45 -126q46 -51 109 -51q101 0 142 92l82 -35q-27 -66 -84.5 -103.5t-133.5 -37.5zM330 659q0 -23 -16.5 -40
t-40.5 -17q-22 0 -39.5 17.5t-17.5 39.5q0 24 17 40.5t40 16.5q25 0 41 -16t16 -41z" />
    <glyph glyph-name="Ccaron" unicode="&#x10c;" horiz-adv-x="729" 
d="M409 -16q-159 0 -266 107q-106 107 -106 267t106 266q106 108 266 108q162 0 263 -117l-66 -64q-77 93 -197 93q-119 0 -199 -80q-79 -79 -79 -206t79 -206q80 -80 199 -80q125 0 217 105l67 -65q-51 -61 -125 -94.5t-159 -33.5zM356 778l-103 117v5h89l50 -60h8l50 60
h89v-5l-103 -117h-80z" />
    <glyph glyph-name="ccaron" unicode="&#x10d;" horiz-adv-x="522" 
d="M280 -16q-109 0 -181 74q-71 76 -71 187q0 113 71 187q72 74 181 74q75 0 131 -37.5t84 -103.5l-84 -35q-39 92 -137 92q-63 0 -109 -51q-45 -51 -45 -126t45 -126q46 -51 109 -51q101 0 142 92l82 -35q-27 -66 -84.5 -103.5t-133.5 -37.5zM238 594l-103 117v5h89l50 -60
h8l50 60h89v-5l-103 -117h-80z" />
    <glyph glyph-name="Dcaron" unicode="&#x10e;" horiz-adv-x="691" 
d="M72 0v716h219q164 0 263.5 -99t99.5 -259q0 -161 -99.5 -259.5t-263.5 -98.5h-219zM164 628v-540h127q125 0 197 71.5t72 198.5q0 126 -72 198t-197 72h-127zM273 778l-103 117v5h89l50 -60h8l50 60h89v-5l-103 -117h-80z" />
    <glyph glyph-name="dcaron" unicode="&#x10f;" horiz-adv-x="660" 
d="M276 68q68 0 111 49q45 49 45 128q0 77 -45 127q-44 50 -111 50q-66 0 -111 -50t-45 -127q0 -78 45 -127q45 -50 111 -50zM261 -16q-96 0 -165 76q-68 77 -68 185t68 185q69 76 165 76q54 0 98.5 -23t68.5 -61h4l-4 68v226h92v-716h-88v68h-4q-24 -38 -68.5 -61
t-98.5 -23zM684 716l-36 -210h-64v210h100z" />
    <glyph glyph-name="Dcroat" unicode="&#x110;" horiz-adv-x="691" 
d="M654 358q0 -161 -99.5 -259.5t-263.5 -98.5h-219v336h-80v72h80v308h219q164 0 263.5 -99t99.5 -259zM164 336v-248h127q125 0 197 71.5t72 198.5q0 126 -72 198t-197 72h-127v-220h180v-72h-180z" />
    <glyph glyph-name="dcroat" unicode="&#x111;" horiz-adv-x="576" 
d="M276 68q68 0 111 49q45 49 45 128q0 77 -45 127q-44 50 -111 50q-66 0 -111 -50t-45 -127q0 -78 45 -127q45 -50 111 -50zM432 68h-4q-24 -38 -68.5 -61t-98.5 -23q-96 0 -165 76q-68 77 -68 185t68 185q69 76 165 76q54 0 98.5 -23t68.5 -61h4l-4 68v82h-144v72h144v72
h92v-72h64v-72h-64v-572h-88v68z" />
    <glyph glyph-name="Emacron" unicode="&#x112;" 
d="M490 716v-88h-326v-227h294v-86h-294v-227h326v-88h-418v716h418zM415 879v-72h-280v72h280z" />
    <glyph glyph-name="emacron" unicode="&#x113;" horiz-adv-x="536" 
d="M276 -16q-108 0 -178 74t-70 187q0 112 68 186.5t174 74.5q109 0 173.5 -70.5t64.5 -197.5l-1 -10h-385q2 -72 48 -116t110 -44q88 0 138 88l82 -40q-33 -62 -91.5 -97t-132.5 -35zM129 304h281q-4 51 -41.5 84.5t-100.5 33.5q-52 0 -89.5 -32t-49.5 -86zM412 695v-72
h-280v72h280z" />
    <glyph glyph-name="Ebreve" unicode="&#x114;" 
d="M490 716v-88h-326v-227h294v-86h-294v-227h326v-88h-418v716h418zM282 770q-52 0 -90.5 37t-38.5 89h74q0 -25 15.5 -41t39.5 -16q23 0 38.5 16.5t15.5 40.5h73q0 -52 -38 -89t-89 -37z" />
    <glyph glyph-name="ebreve" unicode="&#x115;" horiz-adv-x="536" 
d="M276 -16q-108 0 -178 74t-70 187q0 112 68 186.5t174 74.5q109 0 173.5 -70.5t64.5 -197.5l-1 -10h-385q2 -72 48 -116t110 -44q88 0 138 88l82 -40q-33 -62 -91.5 -97t-132.5 -35zM129 304h281q-4 51 -41.5 84.5t-100.5 33.5q-52 0 -89.5 -32t-49.5 -86zM271 586
q-52 0 -90.5 37t-38.5 89h74q0 -25 15.5 -41t39.5 -16q23 0 38.5 16.5t15.5 40.5h73q0 -52 -38 -89t-89 -37z" />
    <glyph glyph-name="Edotaccent" unicode="&#x116;" 
d="M490 716v-88h-326v-227h294v-86h-294v-227h326v-88h-418v716h418zM335 856q0 -21 -15 -36.5t-37 -15.5q-20 0 -36 16t-16 36q0 22 15.5 37t36.5 15q23 0 37.5 -14.5t14.5 -37.5z" />
    <glyph glyph-name="edotaccent" unicode="&#x117;" horiz-adv-x="536" 
d="M276 -16q-108 0 -178 74t-70 187q0 112 68 186.5t174 74.5q109 0 173.5 -70.5t64.5 -197.5l-1 -10h-385q2 -72 48 -116t110 -44q88 0 138 88l82 -40q-33 -62 -91.5 -97t-132.5 -35zM129 304h281q-4 51 -41.5 84.5t-100.5 33.5q-52 0 -89.5 -32t-49.5 -86zM329 659
q0 -23 -16.5 -40t-40.5 -17q-22 0 -39.5 17.5t-17.5 39.5q0 24 17 40.5t40 16.5q25 0 41 -16t16 -41z" />
    <glyph glyph-name="Eogonek" unicode="&#x118;" 
d="M336 -111q0 63 62 111h-326v716h418v-88h-326v-227h294v-86h-294v-227h326v-88q-44 -35 -58 -55.5t-14 -41.5q0 -22 12.5 -36.5t32.5 -14.5q17 0 27 5l28 -68q-28 -13 -61 -13q-54 0 -87.5 32t-33.5 81z" />
    <glyph glyph-name="eogonek" unicode="&#x119;" horiz-adv-x="536" 
d="M354 -224q-54 0 -87.5 32t-33.5 81q0 54 53 95q-118 0 -188 74t-70 187q0 112 68 186.5t174 74.5q109 0 173.5 -70.5t64.5 -197.5l-1 -10h-385q2 -72 48 -116t110 -44q88 0 138 88l82 -40q-33 -60 -82 -91q-103 -85 -103 -122q0 -22 12.5 -36.5t32.5 -14.5q17 0 27 5
l28 -68q-28 -13 -61 -13zM129 304h281q-4 51 -41.5 84.5t-100.5 33.5q-52 0 -89.5 -32t-49.5 -86z" />
    <glyph glyph-name="Ecaron" unicode="&#x11a;" 
d="M490 716v-88h-326v-227h294v-86h-294v-227h326v-88h-418v716h418zM241 778l-103 117v5h89l50 -60h8l50 60h89v-5l-103 -117h-80z" />
    <glyph glyph-name="ecaron" unicode="&#x11b;" horiz-adv-x="536" 
d="M276 -16q-108 0 -178 74t-70 187q0 112 68 186.5t174 74.5q109 0 173.5 -70.5t64.5 -197.5l-1 -10h-385q2 -72 48 -116t110 -44q88 0 138 88l82 -40q-33 -62 -91.5 -97t-132.5 -35zM129 304h281q-4 51 -41.5 84.5t-100.5 33.5q-52 0 -89.5 -32t-49.5 -86zM228 594
l-103 117v5h89l50 -60h8l50 60h89v-5l-103 -117h-80z" />
    <glyph glyph-name="Gcircumflex" unicode="&#x11c;" horiz-adv-x="801" 
d="M761 329q0 -150 -89 -239q-100 -106 -263 -106q-156 0 -264 108t-108 266t108 266t264 108q79 0 149 -28t115 -79l-66 -66q-33 40 -85.5 62.5t-112.5 22.5q-117 0 -198 -81q-80 -82 -80 -205t80 -205q81 -81 198 -81q107 0 178 60t82 165h-260v86h347q5 -28 5 -54z
M355 779h-89v5l103 117h80l103 -117v-5h-89l-50 60h-8z" />
    <glyph glyph-name="gcircumflex" unicode="&#x11d;" horiz-adv-x="576" 
d="M276 68q68 0 111 49q45 49 45 128q0 77 -45 127q-44 50 -111 50q-66 0 -111 -50t-45 -127q0 -78 45 -127q45 -50 111 -50zM273 -232q-41 0 -77 10.5t-65.5 29.5t-50.5 45t-32 58l87 36q15 -43 52 -69t86 -26q75 0 117 45t42 124v47h-4q-26 -39 -70.5 -61.5t-96.5 -22.5
q-96 0 -165 75q-68 77 -68 186t68 185q69 76 165 76q52 0 96.5 -22.5t70.5 -61.5h4v68h88v-469q0 -118 -67 -185q-68 -68 -180 -68zM222 594h-89v5l103 117h80l103 -117v-5h-89l-50 60h-8z" />
    <glyph glyph-name="Gbreve" unicode="&#x11e;" horiz-adv-x="801" 
d="M761 329q0 -150 -89 -239q-100 -106 -263 -106q-156 0 -264 108t-108 266t108 266t264 108q79 0 149 -28t115 -79l-66 -66q-33 40 -85.5 62.5t-112.5 22.5q-117 0 -198 -81q-80 -82 -80 -205t80 -205q81 -81 198 -81q107 0 178 60t82 165h-260v86h347q5 -28 5 -54z
M407 770q-52 0 -90.5 37t-38.5 89h74q0 -25 15.5 -41t39.5 -16q23 0 38.5 16.5t15.5 40.5h73q0 -52 -38 -89t-89 -37z" />
    <glyph glyph-name="gbreve" unicode="&#x11f;" horiz-adv-x="576" 
d="M276 68q68 0 111 49q45 49 45 128q0 77 -45 127q-44 50 -111 50q-66 0 -111 -50t-45 -127q0 -78 45 -127q45 -50 111 -50zM273 -232q-41 0 -77 10.5t-65.5 29.5t-50.5 45t-32 58l87 36q15 -43 52 -69t86 -26q75 0 117 45t42 124v47h-4q-26 -39 -70.5 -61.5t-96.5 -22.5
q-96 0 -165 75q-68 77 -68 186t68 185q69 76 165 76q52 0 96.5 -22.5t70.5 -61.5h4v68h88v-469q0 -118 -67 -185q-68 -68 -180 -68zM290 586q-52 0 -90.5 37t-38.5 89h74q0 -25 15.5 -41t39.5 -16q23 0 38.5 16.5t15.5 40.5h73q0 -52 -38 -89t-89 -37z" />
    <glyph glyph-name="Gdotaccent" unicode="&#x120;" horiz-adv-x="801" 
d="M761 329q0 -150 -89 -239q-100 -106 -263 -106q-156 0 -264 108t-108 266t108 266t264 108q79 0 149 -28t115 -79l-66 -66q-33 40 -85.5 62.5t-112.5 22.5q-117 0 -198 -81q-80 -82 -80 -205t80 -205q81 -81 198 -81q107 0 178 60t82 165h-260v86h347q5 -28 5 -54z
M448 856q0 -21 -15 -36.5t-37 -15.5q-20 0 -36 16t-16 36q0 22 15.5 37t36.5 15q23 0 37.5 -14.5t14.5 -37.5z" />
    <glyph glyph-name="gdotaccent" unicode="&#x121;" horiz-adv-x="576" 
d="M276 68q68 0 111 49q45 49 45 128q0 77 -45 127q-44 50 -111 50q-66 0 -111 -50t-45 -127q0 -78 45 -127q45 -50 111 -50zM273 -232q-41 0 -77 10.5t-65.5 29.5t-50.5 45t-32 58l87 36q15 -43 52 -69t86 -26q75 0 117 45t42 124v47h-4q-26 -39 -70.5 -61.5t-96.5 -22.5
q-96 0 -165 75q-68 77 -68 186t68 185q69 76 165 76q52 0 96.5 -22.5t70.5 -61.5h4v68h88v-469q0 -118 -67 -185q-68 -68 -180 -68zM341 659q0 -23 -16.5 -40t-40.5 -17q-22 0 -39.5 17.5t-17.5 39.5q0 24 17 40.5t40 16.5q25 0 41 -16t16 -41z" />
    <glyph glyph-name="uni0122" unicode="&#x122;" horiz-adv-x="801" 
d="M761 329q0 -150 -89 -239q-100 -106 -263 -106q-156 0 -264 108t-108 266t108 266t264 108q79 0 149 -28t115 -79l-66 -66q-33 40 -85.5 62.5t-112.5 22.5q-117 0 -198 -81q-80 -82 -80 -205t80 -205q81 -81 198 -81q107 0 178 60t82 165h-260v86h347q5 -28 5 -54z
M468 -155l-61 -89l-40 28l39 55q-44 9 -44 55q0 23 17.5 40.5t41.5 17.5q26 0 43 -17.5t17 -43.5q0 -24 -13 -46z" />
    <glyph glyph-name="uni0123" unicode="&#x123;" horiz-adv-x="576" 
d="M295 768l40 -28l-39 -55q44 -9 44 -55q0 -23 -17.5 -40.5t-41.5 -17.5q-26 0 -43 17.5t-17 43.5q0 24 13 46zM276 68q68 0 111 49q45 49 45 128q0 77 -45 127q-44 50 -111 50q-66 0 -111 -50t-45 -127q0 -78 45 -127q45 -50 111 -50zM273 -232q-41 0 -77 10.5t-65.5 29.5
t-50.5 45t-32 58l87 36q15 -43 52 -69t86 -26q75 0 117 45t42 124v47h-4q-26 -39 -70.5 -61.5t-96.5 -22.5q-96 0 -165 75q-68 77 -68 186t68 185q69 76 165 76q52 0 96.5 -22.5t70.5 -61.5h4v68h88v-469q0 -118 -67 -185q-68 -68 -180 -68z" />
    <glyph glyph-name="Hcircumflex" unicode="&#x124;" horiz-adv-x="686" 
d="M164 0h-92v716h92v-307h358v307h92v-716h-92v323h-358v-323zM289 778h-89v5l103 117h80l103 -117v-5h-89l-50 60h-8z" />
    <glyph glyph-name="hcircumflex" unicode="&#x125;" 
d="M56 716h92v-226l-4 -68h4q21 36 64.5 60t90.5 24q90 0 138.5 -51.5t48.5 -146.5v-308h-92v290q0 132 -117 132q-56 0 -94.5 -46.5t-38.5 -108.5v-267h-92v716zM228 778h-89v5l103 117h80l103 -117v-5h-89l-50 60h-8z" />
    <glyph glyph-name="Hbar" unicode="&#x126;" horiz-adv-x="686" 
d="M164 506v-97h358v97h-358zM522 323h-358v-323h-92v506h-64v72h64v138h92v-138h358v138h92v-138h64v-72h-64v-506h-92v323z" />
    <glyph glyph-name="hbar" unicode="&#x127;" 
d="M281 422q-56 0 -94.5 -46.5t-38.5 -108.5v-267h-92v572h-64v72h64v72h92v-72h144v-72h-144v-82l-4 -68h4q21 36 64.5 60t90.5 24q90 0 138.5 -51.5t48.5 -146.5v-308h-92v290q0 132 -117 132z" />
    <glyph glyph-name="Itilde" unicode="&#x128;" horiz-adv-x="236" 
d="M164 0h-92v716h92v-716zM175 778q-24 0 -66.5 22.5t-49.5 22.5q-31 0 -33 -35h-76q0 53 32.5 85.5t78.5 32.5q29 0 81 -30q30 -15 35 -15q31 0 33 35h76q0 -53 -32.5 -85.5t-78.5 -32.5z" />
    <glyph glyph-name="itilde" unicode="&#x129;" horiz-adv-x="220" 
d="M156 490v-490h-92v490h92zM167 594q-24 0 -66.5 22.5t-49.5 22.5q-31 0 -33 -35h-76q0 53 32.5 85.5t78.5 32.5q29 0 81 -30q30 -15 35 -15q31 0 33 35h76q0 -53 -32.5 -85.5t-78.5 -32.5z" />
    <glyph glyph-name="Imacron" unicode="&#x12a;" horiz-adv-x="236" 
d="M242 879v-72h-248v72h248zM164 0h-92v716h92v-716z" />
    <glyph glyph-name="imacron" unicode="&#x12b;" horiz-adv-x="220" 
d="M156 490v-490h-92v490h92zM250 695v-72h-280v72h280z" />
    <glyph glyph-name="Ibreve" unicode="&#x12c;" horiz-adv-x="236" 
d="M164 0h-92v716h92v-716zM119 770q-52 0 -90.5 37t-38.5 89h74q0 -25 15.5 -41t39.5 -16q23 0 38.5 16.5t15.5 40.5h73q0 -52 -38 -89t-89 -37z" />
    <glyph glyph-name="ibreve" unicode="&#x12d;" horiz-adv-x="220" 
d="M156 490v-490h-92v490h92zM111 586q-52 0 -90.5 37t-38.5 89h74q0 -25 15.5 -41t39.5 -16q23 0 38.5 16.5t15.5 40.5h73q0 -52 -38 -89t-89 -37z" />
    <glyph glyph-name="Iogonek" unicode="&#x12e;" horiz-adv-x="236" 
d="M10 -111q0 63 62 111v716h92v-716q-44 -35 -58 -55.5t-14 -41.5q0 -22 13 -36.5t33 -14.5q17 0 27 5l28 -68q-28 -13 -62 -13q-54 0 -87.5 32t-33.5 81z" />
    <glyph glyph-name="iogonek" unicode="&#x12f;" horiz-adv-x="220" 
d="M175 659q0 -27 -19 -46t-46 -19t-46 19t-19 46t19 46t46 19t46 -19t19 -46zM64 490h92v-490q-22 -18 -36 -31t-22 -24.5t-11 -21.5t-3 -20q0 -22 12.5 -36.5t32.5 -14.5q15 0 27 5l28 -68q-27 -13 -61 -13q-54 0 -87.5 32t-33.5 81q0 63 62 111v490z" />
    <glyph glyph-name="Idotaccent" unicode="&#x130;" horiz-adv-x="236" 
d="M164 0h-92v716h92v-716zM170 856q0 -21 -15 -36.5t-37 -15.5q-20 0 -36 16t-16 36q0 22 15.5 37t36.5 15q23 0 37.5 -14.5t14.5 -37.5z" />
    <glyph glyph-name="dotlessi" unicode="&#x131;" horiz-adv-x="220" 
d="M156 490v-490h-92v490h92z" />
    <glyph glyph-name="Jcircumflex" unicode="&#x134;" horiz-adv-x="524" 
d="M247 -16q-81 0 -140 44t-83 122l87 36q34 -114 136 -114q56 0 90.5 39.5t34.5 102.5v502h92v-494q0 -111 -58.5 -174.5t-158.5 -63.5zM364 778h-89v5l103 117h80l103 -117v-5h-89l-50 60h-8z" />
    <glyph glyph-name="jcircumflex" unicode="&#x135;" horiz-adv-x="220" 
d="M9 -226q-28 0 -54 10l24 80q16 -6 27 -6q56 0 58 69v563h92v-549q0 -167 -147 -167zM56 594h-89v5l103 117h80l103 -117v-5h-89l-50 60h-8z" />
    <glyph glyph-name="uni0136" unicode="&#x136;" horiz-adv-x="610" 
d="M483 716h119v-4l-266 -307l284 -401v-4h-113l-233 334l-110 -127v-207h-92v716h92v-369h4zM360 -155l-61 -89l-40 28l39 55q-44 9 -44 55q0 23 17.5 40.5t41.5 17.5q26 0 43 -17.5t17 -43.5q0 -24 -13 -46z" />
    <glyph glyph-name="uni0137" unicode="&#x137;" horiz-adv-x="475" 
d="M487 0h-111l-153 231l-75 -74v-157h-92v716h92v-441l212 215h118v-4l-191 -190l200 -292v-4zM290 -155l-61 -89l-40 28l39 55q-44 9 -44 55q0 23 17.5 40.5t41.5 17.5q26 0 43 -17.5t17 -43.5q0 -24 -13 -46z" />
    <glyph glyph-name="kgreenlandic" unicode="&#x138;" horiz-adv-x="475" 
d="M479 0h-114l-213 246h-4v-246h-92v490h92v-220h4l200 220h116v-4l-216 -228l227 -254v-4z" />
    <glyph glyph-name="Lacute" unicode="&#x139;" horiz-adv-x="498" 
d="M474 0h-402v716h92v-628h310v-88zM230 900l-72 -128h-80l52 128h100z" />
    <glyph glyph-name="lacute" unicode="&#x13a;" horiz-adv-x="204" 
d="M148 716v-716h-92v716h92zM214 900l-72 -128h-80l52 128h100z" />
    <glyph glyph-name="uni013B" unicode="&#x13b;" horiz-adv-x="498" 
d="M474 0h-402v716h92v-628h310v-88zM320 -155l-61 -89l-40 28l39 55q-44 9 -44 55q0 23 17.5 40.5t41.5 17.5q26 0 43 -17.5t17 -43.5q0 -24 -13 -46z" />
    <glyph glyph-name="uni013C" unicode="&#x13c;" horiz-adv-x="204" 
d="M148 716v-716h-92v716h92zM149 -155l-61 -89l-40 28l39 55q-44 9 -44 55q0 23 17.5 40.5t41.5 17.5q26 0 43 -17.5t17 -43.5q0 -24 -13 -46z" />
    <glyph glyph-name="Lcaron" unicode="&#x13d;" horiz-adv-x="498" 
d="M474 0h-402v716h92v-628h310v-88zM406 716l-36 -210h-64v210h100z" />
    <glyph glyph-name="lcaron" unicode="&#x13e;" horiz-adv-x="308" 
d="M168 716v-716h-92v716h92zM332 716l-36 -210h-64v210h100z" />
    <glyph glyph-name="Ldot" unicode="&#x13f;" horiz-adv-x="498" 
d="M474 0h-402v716h92v-628h310v-88zM386 344q0 -28 -19.5 -48t-48.5 -20q-28 0 -48 20t-20 48q0 29 20 48.5t48 19.5q29 0 48.5 -19.5t19.5 -48.5z" />
    <glyph glyph-name="Lslash" unicode="&#x141;" horiz-adv-x="574" 
d="M550 88v-88h-402v277l-64 -40l-42 67l106 66v346h92v-282l125 78l42 -68l-167 -104v-252h310z" />
    <glyph glyph-name="lslash" unicode="&#x142;" horiz-adv-x="364" 
d="M224 352v-352h-92v289l-54 -39l-48 63l102 75v328h92v-265l71 52l48 -64z" />
    <glyph glyph-name="Nacute" unicode="&#x143;" horiz-adv-x="696" 
d="M164 0h-92v716h112l348 -557h4l-4 138v419h92v-716h-96l-364 584h-4l4 -138v-446zM472 900l-72 -128h-80l52 128h100z" />
    <glyph glyph-name="nacute" unicode="&#x144;" 
d="M56 490h88v-68h4q21 36 64.5 60t90.5 24q90 0 138.5 -51.5t48.5 -146.5v-308h-92v302q-3 120 -121 120q-55 0 -92 -44.5t-37 -106.5v-271h-92v490zM390 716l-72 -128h-80l52 128h100z" />
    <glyph glyph-name="uni0145" unicode="&#x145;" horiz-adv-x="696" 
d="M164 0h-92v716h112l348 -557h4l-4 138v419h92v-716h-96l-364 584h-4l4 -138v-446zM395 -155l-61 -89l-40 28l39 55q-44 9 -44 55q0 23 17.5 40.5t41.5 17.5q26 0 43 -17.5t17 -43.5q0 -24 -13 -46z" />
    <glyph glyph-name="uni0146" unicode="&#x146;" 
d="M56 490h88v-68h4q21 36 64.5 60t90.5 24q90 0 138.5 -51.5t48.5 -146.5v-308h-92v302q-3 120 -121 120q-55 0 -92 -44.5t-37 -106.5v-271h-92v490zM320 -155l-61 -89l-40 28l39 55q-44 9 -44 55q0 23 17.5 40.5t41.5 17.5q26 0 43 -17.5t17 -43.5q0 -24 -13 -46z" />
    <glyph glyph-name="Ncaron" unicode="&#x147;" horiz-adv-x="696" 
d="M164 0h-92v716h112l348 -557h4l-4 138v419h92v-716h-96l-364 584h-4l4 -138v-446zM313 778l-103 117v5h89l50 -60h8l50 60h89v-5l-103 -117h-80z" />
    <glyph glyph-name="ncaron" unicode="&#x148;" 
d="M56 490h88v-68h4q21 36 64.5 60t90.5 24q90 0 138.5 -51.5t48.5 -146.5v-308h-92v302q-3 120 -121 120q-55 0 -92 -44.5t-37 -106.5v-271h-92v490zM235 594l-103 117v5h89l50 -60h8l50 60h89v-5l-103 -117h-80z" />
    <glyph glyph-name="Eng" unicode="&#x14a;" horiz-adv-x="696" 
d="M477 -226q-28 0 -54 10l24 80q16 -6 27 -6q55 0 58 66v80l-368 580h-4l4 -138v-446h-92v716h112l348 -557h4l-4 138v419h92v-782q0 -78 -38 -119t-109 -41z" />
    <glyph glyph-name="eng" unicode="&#x14b;" 
d="M343 -226q-28 0 -54 10l24 80q16 -6 27 -6q56 0 58 69v367q0 66 -29 97t-92 31q-55 0 -92 -44.5t-37 -106.5v-271h-92v490h88v-68h4q21 36 64.5 60t90.5 24q90 0 138.5 -51.5t48.5 -146.5v-374q0 -78 -38 -119t-109 -41z" />
    <glyph glyph-name="Omacron" unicode="&#x14c;" horiz-adv-x="810" 
d="M773 358q0 -159 -106 -266q-107 -108 -262 -108q-156 0 -262 108q-106 107 -106 266t106 266q106 108 262 108t262 -109q106 -107 106 -265zM131 358q0 -124 78 -205q79 -81 196 -81t195 81q79 80 79 205t-79 205q-78 81 -195 81t-196 -81q-78 -81 -78 -205zM545 879v-72
h-280v72h280z" />
    <glyph glyph-name="omacron" unicode="&#x14d;" horiz-adv-x="560" 
d="M28 245q0 113 71 187q72 74 181 74t180 -74q72 -74 72 -187q0 -114 -72 -187q-71 -74 -180 -74t-181 74q-71 74 -71 187zM120 245q0 -79 46 -128t114 -49t114 49t46 128q0 78 -46 127q-47 50 -114 50t-114 -50q-46 -49 -46 -127zM420 695v-72h-280v72h280z" />
    <glyph glyph-name="Obreve" unicode="&#x14e;" horiz-adv-x="810" 
d="M773 358q0 -159 -106 -266q-107 -108 -262 -108q-156 0 -262 108q-106 107 -106 266t106 266q106 108 262 108t262 -109q106 -107 106 -265zM131 358q0 -124 78 -205q79 -81 196 -81t195 81q79 80 79 205t-79 205q-78 81 -195 81t-196 -81q-78 -81 -78 -205zM406 770
q-52 0 -90.5 37t-38.5 89h74q0 -25 15.5 -41t39.5 -16q23 0 38.5 16.5t15.5 40.5h73q0 -52 -38 -89t-89 -37z" />
    <glyph glyph-name="obreve" unicode="&#x14f;" horiz-adv-x="560" 
d="M28 245q0 113 71 187q72 74 181 74t180 -74q72 -74 72 -187q0 -114 -72 -187q-71 -74 -180 -74t-181 74q-71 74 -71 187zM120 245q0 -79 46 -128t114 -49t114 49t46 128q0 78 -46 127q-47 50 -114 50t-114 -50q-46 -49 -46 -127zM281 586q-52 0 -90.5 37t-38.5 89h74
q0 -25 15.5 -41t39.5 -16q23 0 38.5 16.5t15.5 40.5h73q0 -52 -38 -89t-89 -37z" />
    <glyph glyph-name="Ohungarumlaut" unicode="&#x150;" horiz-adv-x="810" 
d="M773 358q0 -159 -106 -266q-107 -108 -262 -108q-156 0 -262 108q-106 107 -106 266t106 266q106 108 262 108t262 -109q106 -107 106 -265zM131 358q0 -124 78 -205q79 -81 196 -81t195 81q79 80 79 205t-79 205q-78 81 -195 81t-196 -81q-78 -81 -78 -205zM434 900
l-72 -128h-80l52 128h100zM599 900l-72 -128h-80l52 128h100z" />
    <glyph glyph-name="ohungarumlaut" unicode="&#x151;" horiz-adv-x="560" 
d="M28 245q0 113 71 187q72 74 181 74t180 -74q72 -74 72 -187q0 -114 -72 -187q-71 -74 -180 -74t-181 74q-71 74 -71 187zM120 245q0 -79 46 -128t114 -49t114 49t46 128q0 78 -46 127q-47 50 -114 50t-114 -50q-46 -49 -46 -127zM310 716l-72 -128h-80l52 128h100z
M475 716l-72 -128h-80l52 128h100z" />
    <glyph glyph-name="OE" unicode="&#x152;" horiz-adv-x="1149" 
d="M131 358q0 -124 78 -205q79 -81 196 -81t195 81q79 80 79 205t-79 205q-78 81 -195 81t-196 -81q-78 -81 -78 -205zM1097 0h-418v110q-101 -126 -274 -126q-156 0 -262 108q-106 107 -106 266t106 266q106 108 262 108q172 0 274 -127v111h418v-88h-326v-227h294v-86
h-294v-227h326v-88z" />
    <glyph glyph-name="oe" unicode="&#x153;" horiz-adv-x="952" 
d="M692 -16q-138 0 -205 117q-32 -57 -86 -87t-121 -30q-109 0 -181 74q-71 76 -71 187q0 113 71 187q72 74 181 74q67 0 121.5 -30t86.5 -87q31 57 83 87t115 30q54 0 98 -18t75 -52.5t48 -84.5t17 -113l-1 -10h-387q2 -71 48 -116q47 -44 112 -44q89 0 138 88l82 -40
q-33 -63 -91 -97.5t-133 -34.5zM826 304q-4 51 -41.5 84.5t-100.5 33.5q-52 0 -91 -32t-50 -86h283zM120 245q0 -79 46 -128t114 -49t114 49t46 128q0 78 -46 127q-47 50 -114 50t-114 -50q-46 -49 -46 -127z" />
    <glyph glyph-name="Racute" unicode="&#x154;" horiz-adv-x="578" 
d="M164 628v-252h148q56 0 95 36.5t39 90.5q0 50 -36.5 87.5t-91.5 37.5h-154zM164 0h-92v716h244q93 0 158.5 -61.5t65.5 -151.5q0 -74 -48.5 -131.5t-122.5 -73.5l-2 -3l201 -291v-4h-109l-193 290h-102v-290zM386 900l-72 -128h-80l52 128h100z" />
    <glyph glyph-name="racute" unicode="&#x155;" horiz-adv-x="363" 
d="M148 0h-92v490h88v-80h4q14 39 57.5 66.5t85.5 27.5q40 0 68 -12l-28 -89q-17 7 -54 7q-52 0 -90.5 -42t-38.5 -98v-270zM312 716l-72 -128h-80l52 128h100z" />
    <glyph glyph-name="uni0156" unicode="&#x156;" horiz-adv-x="564" 
d="M164 628v-252h148q56 0 95 36.5t39 90.5q0 50 -36.5 87.5t-91.5 37.5h-154zM164 0h-92v716h244q93 0 158.5 -61.5t65.5 -151.5q0 -74 -48.5 -131.5t-122.5 -73.5l-2 -3l201 -291v-4h-109l-193 290h-102v-290zM347 -155l-61 -89l-40 28l39 55q-44 9 -44 55q0 23 17.5 40.5
t41.5 17.5q26 0 43 -17.5t17 -43.5q0 -24 -13 -46z" />
    <glyph glyph-name="uni0157" unicode="&#x157;" horiz-adv-x="363" 
d="M148 0h-92v490h88v-80h4q14 39 57.5 66.5t85.5 27.5q40 0 68 -12l-28 -89q-17 7 -54 7q-52 0 -90.5 -42t-38.5 -98v-270zM149 -155l-61 -89l-40 28l39 55q-44 9 -44 55q0 23 17.5 40.5t41.5 17.5q26 0 43 -17.5t17 -43.5q0 -24 -13 -46z" />
    <glyph glyph-name="Rcaron" unicode="&#x158;" horiz-adv-x="578" 
d="M164 628v-252h148q56 0 95 36.5t39 90.5q0 50 -36.5 87.5t-91.5 37.5h-154zM164 0h-92v716h244q93 0 158.5 -61.5t65.5 -151.5q0 -74 -48.5 -131.5t-122.5 -73.5l-2 -3l201 -291v-4h-109l-193 290h-102v-290zM240 778l-103 117v5h89l50 -60h8l50 60h89v-5l-103 -117h-80z
" />
    <glyph glyph-name="rcaron" unicode="&#x159;" horiz-adv-x="363" 
d="M148 0h-92v490h88v-80h4q14 39 57.5 66.5t85.5 27.5q40 0 68 -12l-28 -89q-17 7 -54 7q-52 0 -90.5 -42t-38.5 -98v-270zM153 594l-103 117v5h89l50 -60h8l50 60h89v-5l-103 -117h-80z" />
    <glyph glyph-name="Sacute" unicode="&#x15a;" horiz-adv-x="553" 
d="M514 191q0 -94 -69 -151q-70 -56 -170 -56q-89 0 -157 52t-94 142l88 36q9 -32 25 -58t37.5 -44.5t47.5 -29t55 -10.5q63 0 103 32.5t40 86.5q0 45 -33 77q-31 31 -116 60q-86 31 -107 42q-114 58 -114 171q0 79 63 135q64 56 157 56q82 0 142 -42q60 -41 80 -103
l-86 -36q-12 40 -47.5 66.5t-86.5 26.5q-54 0 -91 -30q-37 -28 -37 -73q0 -37 29 -64q32 -27 139 -64q109 -37 155.5 -90.5t46.5 -131.5zM378 900l-72 -128h-80l52 128h100z" />
    <glyph glyph-name="sacute" unicode="&#x15b;" horiz-adv-x="455" 
d="M431 136q0 -64 -56 -108t-141 -44q-74 0 -130 38.5t-80 101.5l82 35q18 -44 52.5 -68.5t75.5 -24.5q44 0 73.5 19t29.5 45q0 47 -72 69l-84 21q-143 36 -143 138q0 67 54.5 107.5t139.5 40.5q65 0 117.5 -31t73.5 -83l-82 -34q-14 31 -45.5 48.5t-70.5 17.5
q-36 0 -64.5 -18t-28.5 -44q0 -42 79 -60l74 -19q146 -36 146 -147zM334 716l-72 -128h-80l52 128h100z" />
    <glyph glyph-name="Scircumflex" unicode="&#x15c;" horiz-adv-x="553" 
d="M514 191q0 -94 -69 -151q-70 -56 -170 -56q-89 0 -157 52t-94 142l88 36q9 -32 25 -58t37.5 -44.5t47.5 -29t55 -10.5q63 0 103 32.5t40 86.5q0 45 -33 77q-31 31 -116 60q-86 31 -107 42q-114 58 -114 171q0 79 63 135q64 56 157 56q82 0 142 -42q60 -41 80 -103
l-86 -36q-12 40 -47.5 66.5t-86.5 26.5q-54 0 -91 -30q-37 -28 -37 -73q0 -37 29 -64q32 -27 139 -64q109 -37 155.5 -90.5t46.5 -131.5zM214 779h-89v5l103 117h80l103 -117v-5h-89l-50 60h-8z" />
    <glyph glyph-name="scircumflex" unicode="&#x15d;" horiz-adv-x="455" 
d="M431 136q0 -64 -56 -108t-141 -44q-74 0 -130 38.5t-80 101.5l82 35q18 -44 52.5 -68.5t75.5 -24.5q44 0 73.5 19t29.5 45q0 47 -72 69l-84 21q-143 36 -143 138q0 67 54.5 107.5t139.5 40.5q65 0 117.5 -31t73.5 -83l-82 -34q-14 31 -45.5 48.5t-70.5 17.5
q-36 0 -64.5 -18t-28.5 -44q0 -42 79 -60l74 -19q146 -36 146 -147zM177 594h-89v5l103 117h80l103 -117v-5h-89l-50 60h-8z" />
    <glyph glyph-name="uni015E" unicode="&#x15e;" horiz-adv-x="553" 
d="M390 -141q0 -40 -29 -68t-72 -28q-31 0 -57 18.5t-37 48.5l52 23q10 -34 42 -34q18 0 29.5 11.5t11.5 28.5q0 18 -11.5 30t-29.5 12q-20 0 -33 -16l-47 22l30 80q-78 11 -135.5 61.5t-79.5 129.5l88 36q9 -32 25 -58t37.5 -44.5t47.5 -29t55 -10.5q63 0 103 32.5t40 86.5
q0 45 -33 77q-31 31 -116 60q-86 31 -107 42q-114 58 -114 171q0 79 63 135q64 56 157 56q82 0 142 -42q60 -41 80 -103l-86 -36q-12 40 -47.5 66.5t-86.5 26.5q-54 0 -91 -30q-37 -28 -37 -73q0 -37 29 -64q32 -27 139 -64q109 -37 155.5 -90.5t46.5 -131.5q0 -89 -62 -145
q-61 -55 -159 -61l-14 -33l20 2q38 0 64.5 -27t26.5 -68z" />
    <glyph glyph-name="uni015F" unicode="&#x15f;" horiz-adv-x="455" 
d="M351 -141q0 -40 -29 -68t-72 -28q-31 0 -57 18.5t-37 48.5l52 23q11 -34 42 -34q18 0 29.5 11.5t11.5 28.5q0 18 -11.5 30t-29.5 12q-19 0 -33 -16l-47 22l30 79q-62 9 -108.5 46t-67.5 92l82 35q18 -44 52.5 -68.5t75.5 -24.5q44 0 73.5 19t29.5 45q0 47 -72 69l-84 21
q-143 36 -143 138q0 67 54.5 107.5t139.5 40.5q65 0 117.5 -31t73.5 -83l-82 -34q-14 31 -45.5 48.5t-70.5 17.5q-36 0 -64.5 -18t-28.5 -44q0 -42 79 -60l74 -19q146 -36 146 -147q0 -60 -50 -103t-127 -48l-14 -33l20 2q38 0 64.5 -27t26.5 -68z" />
    <glyph glyph-name="Scaron" unicode="&#x160;" horiz-adv-x="553" 
d="M514 191q0 -94 -69 -151q-70 -56 -170 -56q-89 0 -157 52t-94 142l88 36q9 -32 25 -58t37.5 -44.5t47.5 -29t55 -10.5q63 0 103 32.5t40 86.5q0 45 -33 77q-31 31 -116 60q-86 31 -107 42q-114 58 -114 171q0 79 63 135q64 56 157 56q82 0 142 -42q60 -41 80 -103
l-86 -36q-12 40 -47.5 66.5t-86.5 26.5q-54 0 -91 -30q-37 -28 -37 -73q0 -37 29 -64q32 -27 139 -64q109 -37 155.5 -90.5t46.5 -131.5zM235 778l-103 117v5h89l50 -60h8l50 60h89v-5l-103 -117h-80z" />
    <glyph glyph-name="scaron" unicode="&#x161;" horiz-adv-x="455" 
d="M431 136q0 -64 -56 -108t-141 -44q-74 0 -130 38.5t-80 101.5l82 35q18 -44 52.5 -68.5t75.5 -24.5q44 0 73.5 19t29.5 45q0 47 -72 69l-84 21q-143 36 -143 138q0 67 54.5 107.5t139.5 40.5q65 0 117.5 -31t73.5 -83l-82 -34q-14 31 -45.5 48.5t-70.5 17.5
q-36 0 -64.5 -18t-28.5 -44q0 -42 79 -60l74 -19q146 -36 146 -147zM187 594l-103 117v5h89l50 -60h8l50 60h89v-5l-103 -117h-80z" />
    <glyph glyph-name="uni0162" unicode="&#x162;" horiz-adv-x="540" 
d="M206 -93l35 93h-17v628h-200v88h492v-88h-200v-628h-19l-21 -48l20 2q38 0 64.5 -27t26.5 -68q0 -40 -29 -68t-72 -28q-31 0 -57 18.5t-37 48.5l52 23q11 -34 42 -34q18 0 29.5 11.5t11.5 28.5q0 18 -11.5 30t-29.5 12q-19 0 -33 -16z" />
    <glyph glyph-name="uni0163" unicode="&#x163;" horiz-adv-x="354" 
d="M325 -141q0 -20 -8 -37.5t-21.5 -30.5t-31.5 -20.5t-39 -7.5q-31 0 -57 18.5t-37 48.5l52 23q11 -35 42 -35q18 0 29.5 12t11.5 29q0 18 -11.5 30t-29.5 12q-20 0 -33 -16l-47 22l42 98q-23 10 -37 25q-38 37 -40 102v274h-86v84h86v150h92v-150h120v-84h-120v-244
q0 -49 19 -66.5t43 -17.5q11 0 21.5 2.5t19.5 6.5l29 -82q-36 -13 -93 -13l-6 1l-20 -41l20 2q38 0 64 -27t26 -68z" />
    <glyph glyph-name="Tcaron" unicode="&#x164;" horiz-adv-x="540" 
d="M316 628v-628h-92v628h-200v88h492v-88h-200zM231 778l-103 117v5h89l50 -60h8l50 60h89v-5l-103 -117h-80z" />
    <glyph glyph-name="tcaron" unicode="&#x165;" horiz-adv-x="354" 
d="M358 716l-28 -162h-64v162h92zM250 -8q-60 0 -99.5 37t-40.5 103v274h-86v84h86v150h92v-150h120v-84h-120v-244q0 -49 19 -66.5t43 -17.5q11 0 21.5 2.5t19.5 6.5l29 -82q-36 -13 -84 -13z" />
    <glyph glyph-name="Tbar" unicode="&#x166;" horiz-adv-x="540" 
d="M444 410v-72h-128v-338h-92v338h-128v72h128v218h-200v88h492v-88h-200v-218h128z" />
    <glyph glyph-name="tbar" unicode="&#x167;" horiz-adv-x="354" 
d="M334 5q-36 -13 -84 -13q-29 0 -54 9t-44 26.5t-30 43t-12 58.5v93h-86v84h86v100h-86v84h86v150h92v-150h120v-84h-120v-100h120v-84h-120v-60q0 -49 19 -66.5t43 -17.5q11 0 21.5 2.5t19.5 6.5z" />
    <glyph glyph-name="Utilde" unicode="&#x168;" horiz-adv-x="642" 
d="M321 -16q-119 0 -192 78q-73 77 -73 204v450h92v-454q0 -88 46 -139t127 -51t127 51t46 139v454h92v-450q0 -130 -72 -206t-193 -76zM378 778q-24 0 -66.5 22.5t-49.5 22.5q-31 0 -33 -35h-76q0 53 32.5 85.5t78.5 32.5q29 0 81 -30q30 -15 35 -15q31 0 33 35h76
q0 -53 -32.5 -85.5t-78.5 -32.5z" />
    <glyph glyph-name="utilde" unicode="&#x169;" 
d="M486 0h-88v68h-4q-21 -36 -64.5 -60t-90.5 -24q-90 0 -138.5 51.5t-48.5 146.5v308h92v-302q3 -120 121 -120q55 0 92 44.5t37 106.5v271h92v-490zM332 594q-24 0 -66.5 22.5t-49.5 22.5q-31 0 -33 -35h-76q0 53 32.5 85.5t78.5 32.5q29 0 81 -30q30 -15 35 -15
q31 0 33 35h76q0 -53 -32.5 -85.5t-78.5 -32.5z" />
    <glyph glyph-name="Umacron" unicode="&#x16a;" horiz-adv-x="642" 
d="M321 -16q-119 0 -192 78q-73 77 -73 204v450h92v-454q0 -88 46 -139t127 -51t127 51t46 139v454h92v-450q0 -130 -72 -206t-193 -76zM461 879v-72h-280v72h280z" />
    <glyph glyph-name="umacron" unicode="&#x16b;" 
d="M486 0h-88v68h-4q-21 -36 -64.5 -60t-90.5 -24q-90 0 -138.5 51.5t-48.5 146.5v308h92v-302q3 -120 121 -120q55 0 92 44.5t37 106.5v271h92v-490zM411 695v-72h-280v72h280z" />
    <glyph glyph-name="Ubreve" unicode="&#x16c;" horiz-adv-x="642" 
d="M321 -16q-119 0 -192 78q-73 77 -73 204v450h92v-454q0 -88 46 -139t127 -51t127 51t46 139v454h92v-450q0 -130 -72 -206t-193 -76zM322 770q-52 0 -90.5 37t-38.5 89h74q0 -25 15.5 -41t39.5 -16q23 0 38.5 16.5t15.5 40.5h73q0 -52 -38 -89t-89 -37z" />
    <glyph glyph-name="ubreve" unicode="&#x16d;" 
d="M486 0h-88v68h-4q-21 -36 -64.5 -60t-90.5 -24q-90 0 -138.5 51.5t-48.5 146.5v308h92v-302q3 -120 121 -120q55 0 92 44.5t37 106.5v271h92v-490zM272 570q-52 0 -90.5 37t-38.5 89h74q0 -25 15.5 -41t39.5 -16q23 0 38.5 16.5t15.5 40.5h73q0 -52 -38 -89t-89 -37z" />
    <glyph glyph-name="Uring" unicode="&#x16e;" horiz-adv-x="642" 
d="M321 -16q-119 0 -192 78q-73 77 -73 204v450h92v-454q0 -88 46 -139t127 -51t127 51t46 139v454h92v-450q0 -130 -72 -206t-193 -76zM217 856q0 22 8 41t22.5 33t33.5 22t40 8t40 -8t33.5 -22.5t22.5 -33.5t8 -40t-8 -40t-22.5 -33.5t-33.5 -22.5t-40 -8t-40 8
t-33.5 22.5t-22.5 33.5t-8 40zM277 856q0 -18 13 -31.5t31 -13.5t31 13.5t13 31.5t-13 31t-31 13t-31 -13t-13 -31z" />
    <glyph glyph-name="uring" unicode="&#x16f;" 
d="M486 0h-88v68h-4q-21 -36 -64.5 -60t-90.5 -24q-90 0 -138.5 51.5t-48.5 146.5v308h92v-302q3 -120 121 -120q55 0 92 44.5t37 106.5v271h92v-490zM167 672q0 22 8 41t22.5 33t33.5 22t40 8t40 -8t33.5 -22.5t22.5 -33.5t8 -40t-8 -40t-22.5 -33.5t-33.5 -22.5t-40 -8
t-40 8t-33.5 22.5t-22.5 33.5t-8 40zM227 672q0 -18 13 -31.5t31 -13.5t31 13.5t13 31.5t-13 31t-31 13t-31 -13t-13 -31z" />
    <glyph glyph-name="Uhungarumlaut" unicode="&#x170;" horiz-adv-x="642" 
d="M321 -16q-119 0 -192 78q-73 77 -73 204v450h92v-454q0 -88 46 -139t127 -51t127 51t46 139v454h92v-450q0 -130 -72 -206t-193 -76zM343 900l-72 -128h-80l52 128h100zM508 900l-72 -128h-80l52 128h100z" />
    <glyph glyph-name="uhungarumlaut" unicode="&#x171;" 
d="M486 0h-88v68h-4q-21 -36 -64.5 -60t-90.5 -24q-90 0 -138.5 51.5t-48.5 146.5v308h92v-302q3 -120 121 -120q55 0 92 44.5t37 106.5v271h92v-490zM296 716l-72 -128h-80l52 128h100zM461 716l-72 -128h-80l52 128h100z" />
    <glyph glyph-name="Uogonek" unicode="&#x172;" horiz-adv-x="642" 
d="M288 -111q0 53 52 96l-19 -1q-119 0 -192 78q-73 77 -73 204v450h92v-454q0 -88 46 -139t127 -51t127 51t46 139v454h92v-442q0 -169 -105 -242q-69 -59 -90 -84q-21 -27 -21 -45q0 -22 12.5 -36.5t32.5 -14.5q15 0 27 5l28 -68q-27 -13 -61 -13q-54 0 -87.5 32t-33.5 81
z" />
    <glyph glyph-name="uogonek" unicode="&#x173;" 
d="M332 -111q0 66 66 111v68h-4q-21 -36 -64.5 -60t-90.5 -24q-90 0 -138.5 51.5t-48.5 146.5v308h92v-302q3 -120 121 -120q55 0 92 44.5t37 106.5v271h92v-490q-44 -35 -58 -55.5t-14 -41.5q0 -22 12.5 -36.5t32.5 -14.5q17 0 27 5l28 -68q-28 -13 -61 -13q-54 0 -87.5 32
t-33.5 81z" />
    <glyph glyph-name="Wcircumflex" unicode="&#x174;" horiz-adv-x="922" 
d="M810 716h96l-191 -716h-94l-154 472h-4l-154 -472h-94l-199 716h96l151 -563h4l155 467h86l155 -467h4zM411 778h-89v5l103 117h80l103 -117v-5h-89l-50 60h-8z" />
    <glyph glyph-name="wcircumflex" unicode="&#x175;" horiz-adv-x="754" 
d="M750 490l-158 -490h-94l-122 376l-121 -376h-93l-158 490h96l109 -370h1l121 370h95l121 -370h1l108 370h94zM322 593h-89v5l103 117h80l103 -117v-5h-89l-50 60h-8z" />
    <glyph glyph-name="Ycircumflex" unicode="&#x176;" horiz-adv-x="594" 
d="M345 333v-333h-92v333l-241 383h108l177 -291h4l173 291h108zM245 778h-89v5l103 117h80l103 -117v-5h-89l-50 60h-8z" />
    <glyph glyph-name="ycircumflex" unicode="&#x177;" horiz-adv-x="498" 
d="M494 490l-307 -706h-95l114 247l-202 459h100l146 -352h2l142 352h100zM197 594h-89v5l103 117h80l103 -117v-5h-89l-50 60h-8z" />
    <glyph glyph-name="Ydieresis" unicode="&#x178;" horiz-adv-x="594" 
d="M345 333v-333h-92v333l-241 383h108l177 -291h4l173 291h108zM272 843q0 -23 -16.5 -40t-40.5 -17q-22 0 -39.5 17.5t-17.5 39.5q0 24 17 40.5t40 16.5q25 0 41 -16t16 -41zM440 843q0 -23 -16.5 -40t-40.5 -17q-22 0 -39.5 17.5t-17.5 39.5q0 24 17 40.5t40 16.5
q25 0 41 -16t16 -41z" />
    <glyph glyph-name="Zacute" unicode="&#x179;" horiz-adv-x="564" 
d="M524 0h-492v96l381 532h-365v88h472v-96l-381 -532h385v-88zM388 900l-72 -128h-80l52 128h100z" />
    <glyph glyph-name="zacute" unicode="&#x17a;" horiz-adv-x="460" 
d="M428 0h-396v80l279 326h-271v84h384v-80l-279 -326h283v-84zM348 716l-72 -128h-80l52 128h100z" />
    <glyph glyph-name="Zdotaccent" unicode="&#x17b;" horiz-adv-x="564" 
d="M524 0h-492v96l381 532h-365v88h472v-96l-381 -532h385v-88zM338 856q0 -21 -15 -36.5t-37 -15.5q-20 0 -36 16t-16 36q0 22 15.5 37t36.5 15q23 0 37.5 -14.5t14.5 -37.5z" />
    <glyph glyph-name="zdotaccent" unicode="&#x17c;" horiz-adv-x="460" 
d="M428 0h-396v80l279 326h-271v84h384v-80l-279 -326h283v-84zM293 659q0 -23 -16.5 -40t-40.5 -17q-22 0 -39.5 17.5t-17.5 39.5q0 24 17 40.5t40 16.5q25 0 41 -16t16 -41z" />
    <glyph glyph-name="Zcaron" unicode="&#x17d;" horiz-adv-x="564" 
d="M524 0h-492v96l381 532h-365v88h472v-96l-381 -532h385v-88zM248 778l-103 117v5h89l50 -60h8l50 60h89v-5l-103 -117h-80z" />
    <glyph glyph-name="zcaron" unicode="&#x17e;" horiz-adv-x="460" 
d="M428 0h-396v80l279 326h-271v84h384v-80l-279 -326h283v-84zM198 594l-103 117v5h89l50 -60h8l50 60h89v-5l-103 -117h-80z" />
    <glyph glyph-name="uni0192" unicode="&#x192;" horiz-adv-x="563" 
d="M107 -220q-34 0 -68 14l23 80q20 -10 45 -10q27 0 47 17.5t25 46.5l78 394h-103v84h120l36 182q12 59 57.5 95.5t109.5 36.5q44 0 74 -13l-32 -79q-16 8 -42 8q-68 0 -81 -65l-33 -165h127v-84h-144l-81 -408q-12 -60 -55 -97t-103 -37z" />
    <glyph glyph-name="Aringacute" unicode="&#x1fa;" horiz-adv-x="668" 
d="M294 756q0 -16 12 -28t28 -12q17 0 28.5 12t11.5 28q0 17 -11.5 28.5t-28.5 11.5q-16 0 -28 -11.5t-12 -28.5zM332 603l-117 -323h238l-117 323h-4zM485 194h-301l-70 -194h-102l255 676q-37 33 -37 80q0 33 19 60t50 38l33 78h92l-44 -83q58 -28 58 -93q0 -48 -37 -79
l255 -677h-102z" />
    <glyph glyph-name="aringacute" unicode="&#x1fb;" horiz-adv-x="510" 
d="M358 900l-60 -106h-83l43 106h100zM123 150q0 -18 8 -33.5t22 -26.5t32.5 -17.5t39.5 -6.5q59 0 103 43q46 43 46 101q-43 34 -120 34q-28 0 -52 -7t-41.5 -20t-27.5 -30t-10 -37zM242 506q103 0 161.5 -54t58.5 -150v-302h-88v68h-4q-57 -84 -152 -84q-81 0 -136 48
q-54 48 -54 120q0 38 15 68.5t42.5 52.5t66.5 33.5t87 11.5q82 0 135 -30v21q0 48 -38 81q-37 34 -89 34q-77 0 -122 -65l-81 51q67 96 198 96zM153 672q0 22 8 41t22.5 33t33.5 22t40 8t40 -8t33.5 -22.5t22.5 -33.5t8 -40t-8 -40t-22.5 -33.5t-33.5 -22.5t-40 -8t-40 8
t-33.5 22.5t-22.5 33.5t-8 40zM213 672q0 -18 13 -31.5t31 -13.5t31 13.5t13 31.5t-13 31t-31 13t-31 -13t-13 -31z" />
    <glyph glyph-name="AEacute" unicode="&#x1fc;" horiz-adv-x="960" 
d="M490 628h-4l-206 -348h210v348zM908 0h-418v194h-261l-115 -194h-110l432 716h472v-88h-326v-227h294v-86h-294v-227h326v-88zM779 900l-72 -128h-80l52 128h100z" />
    <glyph glyph-name="aeacute" unicode="&#x1fd;" horiz-adv-x="886" 
d="M477 304h283q-4 51 -41.5 84.5t-100.5 33.5q-52 0 -91 -32.5t-50 -85.5zM626 -16q-65 0 -117.5 29t-84.5 83q-68 -112 -206 -112q-81 0 -135.5 48t-54.5 120q0 76 57.5 121t153.5 45q88 0 139 -30v21q0 48 -37.5 81.5t-88.5 33.5q-81 0 -118 -69l-84 41q57 110 198 110
q61 0 109.5 -26t75.5 -74q67 100 187 100q109 0 173.5 -70.5t64.5 -197.5l-1 -10h-387q2 -71 48.5 -115.5t111.5 -44.5q88 0 138 88l82 -40q-33 -62 -91.5 -97t-132.5 -35zM123 150q0 -36 30.5 -60t71.5 -24q59 0 106 43.5t47 100.5q-20 15 -59 25q-29 9 -65 9
q-56 0 -93.5 -27t-37.5 -67zM545 716l-72 -128h-80l52 128h100z" />
    <glyph glyph-name="Oslashacute" unicode="&#x1fe;" horiz-adv-x="810" 
d="M517 900l-72 -128h-80l52 128h100zM405 644q-117 0 -195.5 -81t-78.5 -205q0 -138 94 -220l299 480q-54 26 -119 26zM405 72q117 0 195.5 81t78.5 205q0 136 -93 219l-299 -479q54 -26 118 -26zM773 358q0 -158 -106 -266t-262 -108q-89 0 -165 38l-37 -59l-63 39l37 59
q-66 52 -103 130t-37 167q0 158 106 266t262 108q88 0 166 -39l38 61l62 -40l-38 -60q67 -53 103.5 -130.5t36.5 -165.5z" />
    <glyph glyph-name="oslashacute" unicode="&#x1ff;" horiz-adv-x="560" 
d="M388 716l-72 -128h-80l52 128h100zM280 422q-68 0 -114 -49.5t-46 -127.5q0 -77 44 -125l180 288q-30 14 -64 14zM280 68q68 0 114 49.5t46 127.5q0 75 -42 123l-179 -287q30 -13 61 -13zM532 245q0 -113 -71.5 -187t-180.5 -74q-57 0 -107 22l-25 -39l-59 33l27 43
q-88 75 -88 202q0 113 71.5 187t180.5 74q60 0 110 -24l26 42l58 -34l-28 -44q86 -78 86 -201z" />
    <glyph glyph-name="uni0218" unicode="&#x218;" horiz-adv-x="553" 
d="M514 191q0 -94 -69 -151q-70 -56 -170 -56q-89 0 -157 52t-94 142l88 36q9 -32 25 -58t37.5 -44.5t47.5 -29t55 -10.5q63 0 103 32.5t40 86.5q0 45 -33 77q-31 31 -116 60q-86 31 -107 42q-114 58 -114 171q0 79 63 135q64 56 157 56q82 0 142 -42q60 -41 80 -103
l-86 -36q-12 40 -47.5 66.5t-86.5 26.5q-54 0 -91 -30q-37 -28 -37 -73q0 -37 29 -64q32 -27 139 -64q109 -37 155.5 -90.5t46.5 -131.5zM337 -155l-61 -89l-40 28l39 55q-44 9 -44 55q0 23 17.5 40.5t41.5 17.5q26 0 43 -17.5t17 -43.5q0 -24 -13 -46z" />
    <glyph glyph-name="uni0219" unicode="&#x219;" horiz-adv-x="455" 
d="M431 136q0 -64 -56 -108t-141 -44q-74 0 -130 38.5t-80 101.5l82 35q18 -44 52.5 -68.5t75.5 -24.5q44 0 73.5 19t29.5 45q0 47 -72 69l-84 21q-143 36 -143 138q0 67 54.5 107.5t139.5 40.5q65 0 117.5 -31t73.5 -83l-82 -34q-14 31 -45.5 48.5t-70.5 17.5
q-36 0 -64.5 -18t-28.5 -44q0 -42 79 -60l74 -19q146 -36 146 -147zM286 -155l-61 -89l-40 28l39 55q-44 9 -44 55q0 23 17.5 40.5t41.5 17.5q26 0 43 -17.5t17 -43.5q0 -24 -13 -46z" />
    <glyph glyph-name="uni021A" unicode="&#x21a;" horiz-adv-x="540" 
d="M316 628v-628h-92v628h-200v88h492v-88h-200zM317 -155l-61 -89l-40 28l39 55q-44 9 -44 55q0 23 17.5 40.5t41.5 17.5q26 0 43 -17.5t17 -43.5q0 -24 -13 -46z" />
    <glyph glyph-name="uni021B" unicode="&#x21b;" horiz-adv-x="354" 
d="M250 -8q-60 0 -99.5 37t-40.5 103v274h-86v84h86v150h92v-150h120v-84h-120v-244q0 -49 19 -66.5t43 -17.5q11 0 21.5 2.5t19.5 6.5l29 -82q-36 -13 -84 -13zM268 -155l-61 -89l-40 28l39 55q-44 9 -44 55q0 23 17.5 40.5t41.5 17.5q26 0 43 -17.5t17 -43.5
q0 -24 -13 -46z" />
    <glyph glyph-name="uni0237" unicode="&#x237;" horiz-adv-x="220" 
d="M9 -226q-28 0 -54 10l24 80q16 -6 27 -6q56 0 58 69v563h92v-549q0 -167 -147 -167z" />
    <glyph glyph-name="circumflex" unicode="&#x2c6;" horiz-adv-x="400" 
d="M146 594h-89v5l103 117h80l103 -117v-5h-89l-50 60h-8z" />
    <glyph glyph-name="caron" unicode="&#x2c7;" horiz-adv-x="400" 
d="M160 594l-103 117v5h89l50 -60h8l50 60h89v-5l-103 -117h-80z" />
    <glyph glyph-name="breve" unicode="&#x2d8;" horiz-adv-x="400" 
d="M201 586q-52 0 -90.5 37t-38.5 89h74q0 -25 15.5 -41t39.5 -16q23 0 38.5 16.5t15.5 40.5h73q0 -52 -38 -89t-89 -37z" />
    <glyph glyph-name="dotaccent" unicode="&#x2d9;" horiz-adv-x="232" 
d="M173 659q0 -23 -16.5 -40t-40.5 -17q-22 0 -39.5 17.5t-17.5 39.5q0 24 17 40.5t40 16.5q25 0 41 -16t16 -41z" />
    <glyph glyph-name="ring" unicode="&#x2da;" horiz-adv-x="400" 
d="M96 672q0 22 8 41t22.5 33t33.5 22t40 8t40 -8t33.5 -22.5t22.5 -33.5t8 -40t-8 -40t-22.5 -33.5t-33.5 -22.5t-40 -8t-40 8t-33.5 22.5t-22.5 33.5t-8 40zM156 672q0 -18 13 -31.5t31 -13.5t31 13.5t13 31.5t-13 31t-31 13t-31 -13t-13 -31z" />
    <glyph glyph-name="tilde" unicode="&#x2dc;" horiz-adv-x="400" 
d="M257 594q-24 0 -66.5 22.5t-49.5 22.5q-31 0 -33 -35h-76q0 53 32.5 85.5t78.5 32.5q29 0 81 -30q30 -15 35 -15q31 0 33 35h76q0 -53 -32.5 -85.5t-78.5 -32.5z" />
    <glyph glyph-name="uni0374" unicode="&#x374;" horiz-adv-x="277" 
d="M120 506h-80l81 210h116z" />
    <glyph glyph-name="uni0375" unicode="&#x375;" horiz-adv-x="277" 
d="M157 122h80l-81 -210h-116z" />
    <glyph glyph-name="uni037E" unicode="&#x37e;" horiz-adv-x="232" 
d="M184 428q0 -28 -19.5 -48t-48.5 -20q-28 0 -48 20t-20 48q0 29 20 48.5t48 19.5q29 0 48.5 -19.5t19.5 -48.5zM87 -93l-43 28l54 84q-21 4 -35.5 21t-14.5 41q0 29 20 48.5t48 19.5q29 0 48.5 -19.5t19.5 -48.5q0 -27 -20 -59z" />
    <glyph glyph-name="tonos" unicode="&#x384;" horiz-adv-x="400" 
d="M209 588h-80l51 128h100z" />
    <glyph glyph-name="dieresistonos" unicode="&#x385;" horiz-adv-x="400" 
d="M232 732v-144h-64v144h64zM136 659q0 -21 -15 -36.5t-37 -15.5q-20 0 -36 16t-16 36q0 22 15.5 37t36.5 15q23 0 37.5 -14.5t14.5 -37.5zM368 659q0 -21 -15 -36.5t-37 -15.5q-20 0 -36 16t-16 36q0 22 15.5 37t36.5 15q23 0 37.5 -14.5t14.5 -37.5z" />
    <glyph glyph-name="Alphatonos" unicode="&#x386;" horiz-adv-x="668" 
d="M332 603l-117 -323h238l-117 323h-4zM114 0h-102l270 716h104l270 -716h-102l-69 194h-301zM209 716l-72 -128h-80l52 128h100z" />
    <glyph glyph-name="anoteleia" unicode="&#x387;" horiz-adv-x="176" 
d="M156 324q0 -28 -19.5 -48t-48.5 -20q-28 0 -48 20t-20 48q0 29 20 48.5t48 19.5q29 0 48.5 -19.5t19.5 -48.5z" />
    <glyph glyph-name="Epsilontonos" unicode="&#x388;" horiz-adv-x="582" 
d="M530 716v-88h-326v-227h294v-86h-294v-227h326v-88h-418v716h418zM72 716l-72 -128h-80l52 128h100z" />
    <glyph glyph-name="Etatonos" unicode="&#x389;" horiz-adv-x="726" 
d="M204 0h-92v716h92v-307h358v307h92v-716h-92v323h-358v-323zM72 716l-72 -128h-80l52 128h100z" />
    <glyph glyph-name="Iotatonos" unicode="&#x38a;" horiz-adv-x="276" 
d="M204 0h-92v716h92v-716zM72 716l-72 -128h-80l52 128h100z" />
    <glyph glyph-name="Omicrontonos" unicode="&#x38c;" horiz-adv-x="773" 
d="M736 358q0 -159 -106 -266q-107 -108 -262 -108q-156 0 -262 108q-106 107 -106 266t106 266q106 108 262 108t262 -109q106 -107 106 -265zM94 358q0 -124 78 -205q79 -81 196 -81t195 81q79 80 79 205t-79 205q-78 81 -195 81t-196 -81q-78 -81 -78 -205zM72 716
l-72 -128h-80l52 128h100z" />
    <glyph glyph-name="Upsilontonos" unicode="&#x38e;" horiz-adv-x="666" 
d="M417 333v-333h-92v333l-241 383h108l177 -291h4l173 291h108zM72 716l-72 -128h-80l52 128h100z" />
    <glyph glyph-name="Omegatonos" unicode="&#x38f;" horiz-adv-x="748" 
d="M72 716l-72 -128h-80l52 128h100zM16 88h155v4q-81 43 -126 119.5t-45 170.5q-2 70 26 134t77 113t113.5 77t135.5 26q71 2 135.5 -26t113 -77t77 -113t26.5 -134q0 -94 -45 -170.5t-126 -119.5v-4h155v-88h-277v128q87 19 143 90t56 164q0 111 -75 186q-75 76 -183 76
t-183 -76q-75 -75 -75 -186q0 -94 55 -164q55 -71 144 -90v-128h-277v88z" />
    <glyph glyph-name="iotadieresistonos" unicode="&#x390;" horiz-adv-x="220" 
d="M156 490v-490h-92v490h92zM142 732v-144h-64v144h64zM46 659q0 -21 -15 -36.5t-37 -15.5q-20 0 -36 16t-16 36q0 22 15.5 37t36.5 15q23 0 37.5 -14.5t14.5 -37.5zM278 659q0 -21 -15 -36.5t-37 -15.5q-20 0 -36 16t-16 36q0 22 15.5 37t36.5 15q23 0 37.5 -14.5
t14.5 -37.5z" />
    <glyph glyph-name="Alpha" unicode="&#x391;" horiz-adv-x="668" 
d="M332 603l-117 -323h238l-117 323h-4zM114 0h-102l270 716h104l270 -716h-102l-69 194h-301z" />
    <glyph glyph-name="Beta" unicode="&#x392;" horiz-adv-x="594" 
d="M72 0v716h259q85 0 146 -56q61 -55 61 -139q0 -106 -97 -149v-4q55 -18 88 -62.5t33 -101.5q0 -88 -64 -146q-62 -58 -153 -58h-273zM164 628v-219h167q49 0 82 33q33 34 33 77q0 42 -32 76q-32 33 -79 33h-171zM164 323v-235h185q50 0 85 35q34 35 34 83q0 47 -35 82
t-88 35h-181z" />
    <glyph glyph-name="Gamma" unicode="&#x393;" horiz-adv-x="498" 
d="M164 0h-92v716h402v-88h-310v-628z" />
    <glyph glyph-name="uni0394" unicode="&#x394;" horiz-adv-x="660" 
d="M332 603h-4l-183 -515h370zM648 0h-636l266 716h104z" />
    <glyph glyph-name="Epsilon" unicode="&#x395;" 
d="M490 716v-88h-326v-227h294v-86h-294v-227h326v-88h-418v716h418z" />
    <glyph glyph-name="Zeta" unicode="&#x396;" horiz-adv-x="564" 
d="M524 0h-492v96l381 532h-365v88h472v-96l-381 -532h385v-88z" />
    <glyph glyph-name="Eta" unicode="&#x397;" horiz-adv-x="686" 
d="M164 0h-92v716h92v-307h358v307h92v-716h-92v323h-358v-323z" />
    <glyph glyph-name="Theta" unicode="&#x398;" horiz-adv-x="824" 
d="M573 402v-88h-322v88h322zM773 358q0 -159 -106 -266q-107 -108 -262 -108q-156 0 -262 108q-106 107 -106 266t106 266q106 108 262 108t262 -109q106 -107 106 -265zM131 358q0 -124 78 -205q79 -81 196 -81t195 81q79 80 79 205t-79 205q-78 81 -195 81t-196 -81
q-78 -81 -78 -205z" />
    <glyph glyph-name="Iota" unicode="&#x399;" horiz-adv-x="236" 
d="M164 0h-92v716h92v-716z" />
    <glyph glyph-name="Kappa" unicode="&#x39a;" horiz-adv-x="610" 
d="M474 716h120v-4l-318 -362l334 -346v-4h-128l-314 336h-4v-336h-92v716h92v-356h4z" />
    <glyph glyph-name="Lambda" unicode="&#x39b;" horiz-adv-x="652" 
d="M114 0h-102l262 716h104l262 -716h-102l-210 603h-4z" />
    <glyph glyph-name="Mu" unicode="&#x39c;" horiz-adv-x="830" 
d="M164 0h-92v716h92l249 -436h4l249 436h92v-716h-92v425l4 120h-4l-224 -393h-54l-224 393h-4l4 -120v-425z" />
    <glyph glyph-name="Nu" unicode="&#x39d;" horiz-adv-x="696" 
d="M164 0h-92v716h112l348 -557h4l-4 138v419h92v-716h-96l-364 584h-4l4 -138v-446z" />
    <glyph glyph-name="Xi" unicode="&#x39e;" horiz-adv-x="490" 
d="M462 716v-88h-434v88h434zM430 402v-88h-370v88h370zM462 88v-88h-434v88h434z" />
    <glyph glyph-name="Omicron" unicode="&#x39f;" horiz-adv-x="810" 
d="M773 358q0 -159 -106 -266q-107 -108 -262 -108q-156 0 -262 108q-106 107 -106 266t106 266q106 108 262 108t262 -109q106 -107 106 -265zM131 358q0 -124 78 -205q79 -81 196 -81t195 81q79 80 79 205t-79 205q-78 81 -195 81t-196 -81q-78 -81 -78 -205z" />
    <glyph glyph-name="Pi" unicode="&#x3a0;" horiz-adv-x="662" 
d="M164 0h-92v716h518v-716h-92v628h-334v-628z" />
    <glyph glyph-name="Rho" unicode="&#x3a1;" horiz-adv-x="564" 
d="M164 290v-290h-92v716h244q93 0 158 -62q66 -62 66 -151q0 -91 -66 -152q-64 -61 -158 -61h-152zM164 628v-250h154q55 0 91 37q37 37 37 88q0 50 -37 87q-36 38 -91 38h-154z" />
    <glyph glyph-name="Sigma" unicode="&#x3a3;" horiz-adv-x="502" 
d="M474 716v-88h-333l224 -262l-224 -278h333v-88h-434v96l214 270l-214 254v96h434z" />
    <glyph glyph-name="Tau" unicode="&#x3a4;" horiz-adv-x="540" 
d="M316 628v-628h-92v628h-200v88h492v-88h-200z" />
    <glyph glyph-name="Upsilon" unicode="&#x3a5;" horiz-adv-x="594" 
d="M345 333v-333h-92v333l-241 383h108l177 -291h4l173 291h108z" />
    <glyph glyph-name="Phi" unicode="&#x3a6;" horiz-adv-x="786" 
d="M439 0h-92v58q-140 13 -225 96q-85 82 -85 204t85 204t225 96v58h92v-58q138 -13 224 -96t86 -204t-86 -204q-85 -82 -224 -96v-58zM439 144q102 12 159 69t57 145t-57 145t-159 69v-428zM347 572q-50 -6 -90 -24t-68 -45.5t-43 -64.5t-15 -80q0 -44 15 -80.5t43 -64
t68 -45t90 -23.5v427z" />
    <glyph glyph-name="Chi" unicode="&#x3a7;" horiz-adv-x="632" 
d="M124 0h-108l240 370l-226 346h110l174 -274h4l174 274h110l-226 -346l240 -370h-108l-190 293h-4z" />
    <glyph glyph-name="Psi" unicode="&#x3a8;" horiz-adv-x="734" 
d="M413 716v-472q82 0 127.5 53t45.5 145v274h92v-270q0 -128 -75 -209t-190 -81v-156h-92v156q-115 0 -190 81t-75 209v270h92v-274q0 -92 45.5 -145t127.5 -53v472h92z" />
    <glyph glyph-name="uni03A9" unicode="&#x3a9;" horiz-adv-x="792" 
d="M60 88h155v4q-81 43 -126 119.5t-45 170.5q-2 70 26 134t77 113t113.5 77t135.5 26q71 2 135.5 -26t113 -77t77 -113t26.5 -134q0 -94 -45 -170.5t-126 -119.5v-4h155v-88h-277v128q87 19 143 90t56 164q0 111 -75 186q-75 76 -183 76t-183 -76q-75 -75 -75 -186
q0 -94 55 -164q55 -71 144 -90v-128h-277v88z" />
    <glyph glyph-name="Iotadieresis" unicode="&#x3aa;" horiz-adv-x="236" 
d="M94 856q0 -21 -15 -36.5t-37 -15.5q-20 0 -36 16t-16 36q0 22 15.5 37t36.5 15q23 0 37.5 -14.5t14.5 -37.5zM246 856q0 -21 -15 -36.5t-37 -15.5q-20 0 -36 16t-16 36q0 22 15.5 37t36.5 15q23 0 37.5 -14.5t14.5 -37.5zM164 0h-92v716h92v-716z" />
    <glyph glyph-name="Upsilondieresis" unicode="&#x3ab;" horiz-adv-x="594" 
d="M345 333v-333h-92v333l-241 383h108l177 -291h4l173 291h108zM272 843q0 -23 -16.5 -40t-40.5 -17q-22 0 -39.5 17.5t-17.5 39.5q0 24 17 40.5t40 16.5q25 0 41 -16t16 -41zM440 843q0 -23 -16.5 -40t-40.5 -17q-22 0 -39.5 17.5t-17.5 39.5q0 24 17 40.5t40 16.5
q25 0 41 -16t16 -41z" />
    <glyph glyph-name="alphatonos" unicode="&#x3ac;" horiz-adv-x="572" 
d="M276 68q68 0 111 49q45 49 45 128q0 77 -45 127q-44 50 -111 50q-66 0 -111 -50t-45 -127q0 -78 45 -127q45 -50 111 -50zM261 -16q-96 0 -165 75q-68 77 -68 186t68 185q69 76 165 76q54 0 98.5 -23t68.5 -61h4v68h88v-490h-88v68h-4q-24 -38 -68.5 -61t-98.5 -23z
M380 716l-72 -128h-80l52 128h100z" />
    <glyph glyph-name="epsilontonos" unicode="&#x3ad;" horiz-adv-x="500" 
d="M245 68q67 0 135 63l62 -61q-83 -86 -197 -86q-48 0 -86.5 10.5t-65.5 30.5t-42 47.5t-15 62.5q0 77 86 115v5q-68 29 -68 104q0 62 55 104q55 43 134 43q107 0 185 -78l-61 -59q-32 30 -59 41.5t-65 11.5q-42 0 -69.5 -20t-27.5 -48q0 -29 21.5 -48.5t53.5 -19.5h83v-74
h-86q-40 0 -64 -20.5t-24 -51.5t32 -51.5t83 -20.5zM360 716l-72 -128h-80l52 128h100z" />
    <glyph glyph-name="etatonos" unicode="&#x3ae;" 
d="M390 716l-72 -128h-80l52 128h100zM56 490h88v-68h4q21 36 64.5 60t90.5 24q89 0 138 -54.5t49 -151.5v-516h-92v503q0 135 -121 135q-55 0 -92 -44.5t-37 -106.5v-271h-92v490z" />
    <glyph glyph-name="iotatonos" unicode="&#x3af;" horiz-adv-x="220" 
d="M156 490v-490h-92v490h92zM220 716l-72 -128h-80l52 128h100z" />
    <glyph glyph-name="upsilondieresistonos" unicode="&#x3b0;" horiz-adv-x="538" 
d="M510 237q0 -116 -67.5 -184.5t-174.5 -68.5q-92 0 -154 65t-62 163v278h92v-259q0 -75 35.5 -119t94.5 -44q61 0 102.5 47.5t41.5 121.5q0 117 -81 253h102q71 -132 71 -253zM285 732v-144h-64v144h64zM189 659q0 -21 -15 -36.5t-37 -15.5q-20 0 -36 16t-16 36
q0 22 15.5 37t36.5 15q23 0 37.5 -14.5t14.5 -37.5zM421 659q0 -21 -15 -36.5t-37 -15.5q-20 0 -36 16t-16 36q0 22 15.5 37t36.5 15q23 0 37.5 -14.5t14.5 -37.5z" />
    <glyph glyph-name="alpha" unicode="&#x3b1;" horiz-adv-x="572" 
d="M276 68q68 0 111 49q45 49 45 128q0 77 -45 127q-44 50 -111 50q-66 0 -111 -50t-45 -127q0 -78 45 -127q45 -50 111 -50zM261 -16q-96 0 -165 75q-68 77 -68 186t68 185q69 76 165 76q54 0 98.5 -23t68.5 -61h4v68h88v-490h-88v68h-4q-24 -38 -68.5 -61t-98.5 -23z" />
    <glyph glyph-name="beta" unicode="&#x3b2;" horiz-adv-x="562" 
d="M297 72q57 0 98 40t41 95q0 54 -43 93.5t-100 39.5h-41v86h29q57 0 90 30t33 82q0 46 -33.5 76t-83.5 30q-57 0 -89 -34.5t-32 -93.5v-306q0 -65 34 -101.5t97 -36.5zM412 389v-4q55 -23 86.5 -70t31.5 -108q0 -95 -66 -159t-163 -64q-90 0 -135 68h-4l4 -68v-200h-94
v732q0 97 58.5 156.5t156.5 59.5q91 0 151 -55t60 -139q0 -105 -86 -149z" />
    <glyph glyph-name="gamma" unicode="&#x3b3;" horiz-adv-x="530" 
d="M310 9v-225h-92v225l-214 481h100l160 -386h2l162 386h98z" />
    <glyph glyph-name="delta" unicode="&#x3b4;" horiz-adv-x="560" 
d="M532 245q0 -112 -72 -187q-71 -74 -180 -74t-181 74q-71 76 -71 187q0 101 60 172q62 71 158 83l-174 144v72h400v-84h-265l228 -180q97 -76 97 -207zM120 245q0 -79 46 -128t114 -49t114 49t46 128q0 78 -46 127q-47 50 -114 50t-114 -50q-46 -49 -46 -127z" />
    <glyph glyph-name="epsilon" unicode="&#x3b5;" horiz-adv-x="482" 
d="M245 68q67 0 135 63l62 -61q-83 -86 -197 -86q-48 0 -86.5 10.5t-65.5 30.5t-42 47.5t-15 62.5q0 77 86 115v5q-68 29 -68 104q0 62 55 104q55 43 134 43q107 0 185 -78l-61 -59q-32 30 -59 41.5t-65 11.5q-42 0 -69.5 -20t-27.5 -48q0 -29 21.5 -48.5t53.5 -19.5h83v-74
h-86q-40 0 -64 -20.5t-24 -51.5t32 -51.5t83 -20.5z" />
    <glyph glyph-name="zeta" unicode="&#x3b6;" horiz-adv-x="472" 
d="M448 -42q0 -27 -10.5 -50.5t-28.5 -40t-43.5 -26t-55.5 -9.5v84q50 0 50 42t-57 42h-118q-75 0 -118 38.5t-43 104.5q0 74 68 124l199 139h-251v84h384v-82l-282 -208q-29 -20 -29 -54q0 -27 20 -44.5t53 -17.5h116q67 0 106.5 -34t39.5 -92z" />
    <glyph glyph-name="eta" unicode="&#x3b7;" 
d="M56 490h88v-68h4q21 36 64.5 60t90.5 24q89 0 138 -54.5t49 -151.5v-516h-92v503q0 135 -121 135q-55 0 -92 -44.5t-37 -106.5v-271h-92v490z" />
    <glyph glyph-name="theta" unicode="&#x3b8;" horiz-adv-x="655" 
d="M44 342q0 156 77 257t198 101t198 -102q77 -101 77 -256q0 -154 -77 -257q-77 -101 -198 -101t-198 101q-77 103 -77 257zM319 612q-36 0 -66 -15.5t-53 -43.5t-38 -68t-21 -89h356q-6 49 -21.5 89t-38.5 68t-53 43.5t-65 15.5zM138 324q4 -111 54 -182q49 -70 127 -70
q77 0 126 70q51 72 55 182h-362z" />
    <glyph glyph-name="iota" unicode="&#x3b9;" horiz-adv-x="220" 
d="M156 490v-490h-92v490h92z" />
    <glyph glyph-name="kappa" unicode="&#x3ba;" horiz-adv-x="475" 
d="M479 0h-114l-213 246h-4v-246h-92v490h92v-220h4l200 220h116v-4l-216 -228l227 -254v-4z" />
    <glyph glyph-name="lambda" unicode="&#x3bb;" horiz-adv-x="498" 
d="M394 0l-142 352h-2l-146 -352h-100l202 459l-114 247h95l307 -706h-100z" />
    <glyph glyph-name="nu" unicode="&#x3bd;" horiz-adv-x="498" 
d="M294 0h-92l-198 490h100l144 -380h2l146 380h98z" />
    <glyph glyph-name="xi" unicode="&#x3be;" horiz-adv-x="516" 
d="M492 -40q0 -57 -38.5 -92.5t-99.5 -35.5v84q50 0 50 42t-57 42h-80q-115 0 -179 55t-64 154q0 119 118 168v4q-94 48 -94 150q0 89 61 144q61 57 158 57q122 0 209 -99l-64 -62q-60 73 -145 73q-27 0 -50 -8.5t-39.5 -23.5t-26 -36t-9.5 -45q0 -52 35 -82.5t92 -30.5h102
v-86h-110q-61 0 -102 -35t-41 -88q0 -57 39.5 -88.5t109.5 -31.5h79q67 0 106.5 -35.5t39.5 -93.5z" />
    <glyph glyph-name="omicron" unicode="&#x3bf;" horiz-adv-x="560" 
d="M28 245q0 113 71 187q72 74 181 74t180 -74q72 -74 72 -187q0 -114 -72 -187q-71 -74 -180 -74t-181 74q-71 74 -71 187zM120 245q0 -79 46 -128t114 -49t114 49t46 128q0 78 -46 127q-47 50 -114 50t-114 -50q-46 -49 -46 -127z" />
    <glyph glyph-name="pi" unicode="&#x3c0;" horiz-adv-x="694" 
d="M600 -8q-71 0 -112.5 42t-41.5 115v257h-210v-406h-92v406h-120v84h634v-84h-120v-250q0 -80 62 -80q20 0 38 8l32 -79q-30 -13 -70 -13z" />
    <glyph glyph-name="rho" unicode="&#x3c1;" horiz-adv-x="576" 
d="M144 244q0 -77 44 -127q45 -49 112 -49q66 0 111 49t45 127q0 76 -45 126t-111 50t-111 -50t-45 -126zM548 244q0 -109 -69 -185q-68 -75 -164 -75q-54 0 -98.5 23t-68.5 61h-4l4 -68v-216h-92v460q0 114 70 187q70 75 176 75q107 0 176 -75q70 -73 70 -187z" />
    <glyph glyph-name="uni03C2" unicode="&#x3c2;" horiz-adv-x="519" 
d="M316 -16q-136 2 -211 71q-77 71 -77 190q0 113 71 187q72 74 181 74q75 0 131 -37.5t84 -103.5l-84 -35q-39 92 -137 92q-63 0 -109 -51q-45 -51 -45 -126q0 -81 51 -129t139 -48h39q67 0 106.5 -34t39.5 -92q0 -27 -10.5 -50.5t-28.5 -40t-43.5 -26t-55.5 -9.5v84
q50 0 50 42t-57 42h-34z" />
    <glyph glyph-name="sigma" unicode="&#x3c3;" horiz-adv-x="592" 
d="M516 237q0 -110 -70 -181q-69 -72 -174 -72t-175 72q-69 72 -69 181t69 181t175 72h308v-84h-70l-68 4v-4q74 -62 74 -169zM120 237q0 -73 44 -122q44 -47 108 -47t108 47q44 49 44 122q0 74 -44 121q-44 48 -108 48q-65 0 -108 -48q-44 -47 -44 -121z" />
    <glyph glyph-name="tau" unicode="&#x3c4;" horiz-adv-x="452" 
d="M428 490v-84h-156v-406h-92v406h-156v84h404z" />
    <glyph glyph-name="upsilon" unicode="&#x3c5;" horiz-adv-x="538" 
d="M510 237q0 -116 -67.5 -184.5t-174.5 -68.5q-92 0 -154 65t-62 163v278h92v-259q0 -75 35.5 -119t94.5 -44q61 0 102.5 47.5t41.5 121.5q0 117 -81 253h102q71 -132 71 -253z" />
    <glyph glyph-name="phi" unicode="&#x3c6;" horiz-adv-x="718" 
d="M403 -13v-203h-92v202q-119 13 -193 86t-74 180q0 79 46 144t132 110l39 -82q-57 -29 -90 -74t-33 -98q0 -75 46 -122t127 -59v289q0 63 38.5 104.5t96.5 41.5q88 0 158 -77.5t70 -176.5q0 -107 -74.5 -179.5t-196.5 -85.5zM450 418q-18 0 -32.5 -15.5t-14.5 -35.5v-296
q83 13 130 60t47 121q0 66 -39 116t-91 50z" />
    <glyph glyph-name="chi" unicode="&#x3c7;" horiz-adv-x="472" 
d="M289 249l175 -249h-108l-121 181l-119 -181h-108l173 249l-169 241h104l121 -173l115 173h108z" />
    <glyph glyph-name="psi" unicode="&#x3c8;" horiz-adv-x="684" 
d="M656 237q0 -113 -76 -183t-184 -70v-200h-92v200q-110 0 -181 69t-71 178v259h92v-259q0 -76 43.5 -119.5t116.5 -43.5v422h92v-422q71 0 119.5 47.5t48.5 121.5q0 136 -69 253h100q61 -112 61 -253z" />
    <glyph glyph-name="omega" unicode="&#x3c9;" horiz-adv-x="776" 
d="M748 237q0 -115 -59 -185q-59 -68 -153 -68t-148 94q-51 -94 -148 -94q-94 0 -153 68q-59 70 -59 185q0 119 69 253h104q-81 -141 -81 -253q0 -78 32 -123.5t86 -45.5q48 0 77 44t29 119v139h88v-139q0 -75 29 -119t77 -44q54 0 86 45.5t32 123.5q0 112 -81 253h104
q69 -134 69 -253z" />
    <glyph glyph-name="iotadieresis" unicode="&#x3ca;" horiz-adv-x="220" 
d="M235 659q0 -23 -16.5 -40t-40.5 -17q-22 0 -39.5 17.5t-17.5 39.5q0 24 17 40.5t40 16.5q25 0 41 -16t16 -41zM99 659q0 -23 -16.5 -40t-40.5 -17q-22 0 -39.5 17.5t-17.5 39.5q0 24 17 40.5t40 16.5q25 0 41 -16t16 -41zM156 490v-490h-92v490h92z" />
    <glyph glyph-name="upsilondieresis" unicode="&#x3cb;" horiz-adv-x="538" 
d="M510 237q0 -116 -67.5 -184.5t-174.5 -68.5q-92 0 -154 65t-62 163v278h92v-259q0 -75 35.5 -119t94.5 -44q61 0 102.5 47.5t41.5 121.5q0 117 -81 253h102q71 -132 71 -253zM221 659q0 -23 -16.5 -40t-40.5 -17q-22 0 -39.5 17.5t-17.5 39.5q0 24 17 40.5t40 16.5
q25 0 41 -16t16 -41zM389 659q0 -23 -16.5 -40t-40.5 -17q-22 0 -39.5 17.5t-17.5 39.5q0 24 17 40.5t40 16.5q25 0 41 -16t16 -41z" />
    <glyph glyph-name="omicrontonos" unicode="&#x3cc;" horiz-adv-x="560" 
d="M28 245q0 113 71 187q72 74 181 74t180 -74q72 -74 72 -187q0 -114 -72 -187q-71 -74 -180 -74t-181 74q-71 74 -71 187zM120 245q0 -79 46 -128t114 -49t114 49t46 128q0 78 -46 127q-47 50 -114 50t-114 -50q-46 -49 -46 -127zM388 716l-72 -128h-80l52 128h100z" />
    <glyph glyph-name="upsilontonos" unicode="&#x3cd;" horiz-adv-x="538" 
d="M510 237q0 -116 -67.5 -184.5t-174.5 -68.5q-92 0 -154 65t-62 163v278h92v-259q0 -75 35.5 -119t94.5 -44q61 0 102.5 47.5t41.5 121.5q0 117 -81 253h102q71 -132 71 -253zM360 716l-72 -128h-80l52 128h100z" />
    <glyph glyph-name="omegatonos" unicode="&#x3ce;" horiz-adv-x="776" 
d="M748 237q0 -115 -59 -185q-59 -68 -153 -68t-148 94q-51 -94 -148 -94q-94 0 -153 68q-59 70 -59 185q0 119 69 253h104q-81 -141 -81 -253q0 -78 32 -123.5t86 -45.5q48 0 77 44t29 119v139h88v-139q0 -75 29 -119t77 -44q54 0 86 45.5t32 123.5q0 112 -81 253h104
q69 -134 69 -253zM502 716l-72 -128h-80l52 128h100z" />
    <glyph glyph-name="uni03D1" unicode="&#x3d1;" horiz-adv-x="624" 
d="M418 568q0 34 -18.5 56t-48.5 22q-29 0 -47 -24.5t-18 -63.5q0 -64 37 -119q36 -54 95 -74v203zM351 732q36 0 65.5 -12.5t50 -35.5t32 -54.5t11.5 -68.5v-199h90v-84h-90v-66q0 -100 -64 -164t-165 -64t-165 64t-64 164v278h92v-248q0 -174 137 -174t137 176v35
q-94 20 -158 100q-64 82 -64 179q0 79 43 126q43 48 112 48z" />
    <glyph glyph-name="uni03D2" unicode="&#x3d2;" horiz-adv-x="596" 
d="M68 724q48 0 77.5 -26t58.5 -89l92 -200h4l92 200q29 63 58.5 89t77.5 26q34 0 64 -15l-27 -83q-10 8 -28 8q-33 0 -62 -54l-131 -263v-317h-92v317l-131 263q-29 54 -62 54q-18 0 -28 -8l-27 83q30 15 64 15z" />
    <glyph glyph-name="uni03D3" unicode="&#x3d3;" horiz-adv-x="677" 
d="M149 724q48 0 77.5 -26t58.5 -89l92 -200h4l92 200q29 63 58.5 89t77.5 26q34 0 64 -15l-27 -83q-10 8 -28 8q-33 0 -62 -54l-131 -263v-317h-92v317l-131 263q-29 54 -62 54q-18 0 -28 -8l-27 83q30 15 64 15zM72 716l-72 -128h-80l52 128h100z" />
    <glyph glyph-name="uni03D4" unicode="&#x3d4;" horiz-adv-x="596" 
d="M68 724q48 0 77.5 -26t58.5 -89l92 -200h4l92 200q29 63 58.5 89t77.5 26q34 0 64 -15l-27 -83q-10 8 -28 8q-33 0 -62 -54l-131 -263v-317h-92v317l-131 263q-29 54 -62 54q-18 0 -28 -8l-27 83q30 15 64 15zM272 843q0 -23 -16.5 -40t-40.5 -17q-22 0 -39.5 17.5
t-17.5 39.5q0 24 17 40.5t40 16.5q25 0 41 -16t16 -41zM440 843q0 -23 -16.5 -40t-40.5 -17q-22 0 -39.5 17.5t-17.5 39.5q0 24 17 40.5t40 16.5q25 0 41 -16t16 -41z" />
    <glyph glyph-name="uni03D6" unicode="&#x3d6;" horiz-adv-x="888" 
d="M594 68q54 0 86 45.5t32 123.5q0 80 -43 169h-450q-43 -89 -43 -169q0 -78 32 -123.5t86 -45.5q48 0 77 44t29 119v87h88v-87q0 -75 29 -119t77 -44zM804 237q0 -115 -59 -185q-59 -68 -153 -68t-148 94q-51 -94 -148 -94q-94 0 -153 68q-59 70 -59 185q0 82 34 169h-78
v84h808v-84h-78q34 -87 34 -169z" />
    <glyph glyph-name="uni0400" unicode="&#x400;" 
d="M490 716v-88h-326v-227h294v-86h-294v-227h326v-88h-418v716h418zM277 900l52 -128h-80l-72 128h100z" />
    <glyph glyph-name="uni0401" unicode="&#x401;" 
d="M490 716v-88h-326v-227h294v-86h-294v-227h326v-88h-418v716h418zM250 843q0 -23 -16.5 -40t-40.5 -17q-22 0 -39.5 17.5t-17.5 39.5q0 24 17 40.5t40 16.5q25 0 41 -16t16 -41zM418 843q0 -23 -16.5 -40t-40.5 -17q-22 0 -39.5 17.5t-17.5 39.5q0 24 17 40.5t40 16.5
q25 0 41 -16t16 -41z" />
    <glyph glyph-name="uni0402" unicode="&#x402;" horiz-adv-x="751" 
d="M470 351q-109 0 -165 -77v-274h-92v628h-189v88h474v-88h-193v-190l-4 -68h4q70 68 182 68q96 0 164 -63.5t68 -159.5q0 -95 -60 -154t-153 -61h-28v88h28q53 0 86 36t33 91q0 59 -43.5 97.5t-111.5 38.5z" />
    <glyph glyph-name="uni0403" unicode="&#x403;" horiz-adv-x="510" 
d="M164 0h-92v716h414v-88h-322v-628zM385 900l-72 -128h-80l52 128h100z" />
    <glyph glyph-name="uni0404" unicode="&#x404;" horiz-adv-x="725" 
d="M689 112q-51 -61 -125 -94.5t-159 -33.5q-158 0 -263 107q-105 106 -105 267q0 160 105 267t263 107q162 0 263 -117l-66 -64q-75 93 -197 93q-109 0 -185 -67q-77 -68 -90 -176h331v-86h-331q13 -108 90 -176q76 -67 185 -67q128 0 218 104z" />
    <glyph glyph-name="uni0405" unicode="&#x405;" horiz-adv-x="553" 
d="M514 191q0 -94 -69 -151q-70 -56 -170 -56q-89 0 -157 52t-94 142l88 36q9 -32 25 -58t37.5 -44.5t47.5 -29t55 -10.5q63 0 103 32.5t40 86.5q0 45 -33 77q-31 31 -116 60q-86 31 -107 42q-114 58 -114 171q0 79 63 135q64 56 157 56q82 0 142 -42q60 -41 80 -103
l-86 -36q-12 40 -47.5 66.5t-86.5 26.5q-54 0 -91 -30q-37 -28 -37 -73q0 -37 29 -64q32 -27 139 -64q109 -37 155.5 -90.5t46.5 -131.5z" />
    <glyph glyph-name="uni0406" unicode="&#x406;" horiz-adv-x="236" 
d="M164 0h-92v716h92v-716z" />
    <glyph glyph-name="uni0407" unicode="&#x407;" horiz-adv-x="236" 
d="M94 856q0 -21 -15 -36.5t-37 -15.5q-20 0 -36 16t-16 36q0 22 15.5 37t36.5 15q23 0 37.5 -14.5t14.5 -37.5zM246 856q0 -21 -15 -36.5t-37 -15.5q-20 0 -36 16t-16 36q0 22 15.5 37t36.5 15q23 0 37.5 -14.5t14.5 -37.5zM164 0h-92v716h92v-716z" />
    <glyph glyph-name="uni0408" unicode="&#x408;" horiz-adv-x="524" 
d="M247 -16q-81 0 -140 44t-83 122l87 36q34 -114 136 -114q56 0 90.5 39.5t34.5 102.5v502h92v-494q0 -111 -58.5 -174.5t-158.5 -63.5z" />
    <glyph glyph-name="uni0409" unicode="&#x409;" horiz-adv-x="1064" 
d="M57 80q38 0 63 25q34 34 36 192v419h478v-302h181q90 0 154 -59q63 -59 63 -148q0 -90 -63 -148q-64 -59 -154 -59h-273v628h-294v-343q0 -75 -10.5 -129t-30.5 -89t-51.5 -53t-73.5 -21l-25 -1l-33 3v90q12 -5 33 -5zM634 326v-238h185q50 0 85 35q34 35 34 84t-34 83
q-35 36 -85 36h-185z" />
    <glyph glyph-name="uni040A" unicode="&#x40a;" horiz-adv-x="1004" 
d="M574 326v-238h185q50 0 85 35q34 35 34 84t-34 83q-35 36 -85 36h-185zM482 0v326h-318v-326h-92v716h92v-302h318v302h92v-302h181q90 0 154 -59q63 -59 63 -148q0 -90 -63 -148q-64 -59 -154 -59h-273z" />
    <glyph glyph-name="uni040B" unicode="&#x40b;" horiz-adv-x="745" 
d="M457 351q-97 0 -152 -77v-274h-92v628h-189v88h474v-88h-193v-190l-4 -68h4q66 68 173 68q92 0 153.5 -60t61.5 -154v-224h-94v202q0 149 -142 149z" />
    <glyph glyph-name="uni040C" unicode="&#x40c;" horiz-adv-x="610" 
d="M474 716h120v-4l-318 -362l334 -346v-4h-128l-314 336h-4v-336h-92v716h92v-356h4zM417 900l-72 -128h-80l52 128h100z" />
    <glyph glyph-name="uni040D" unicode="&#x40d;" horiz-adv-x="688" 
d="M504 716h112v-716h-92v446l4 138h-4l-356 -584h-96v716h92v-419l-4 -138h4zM320 900l52 -128h-80l-72 128h100z" />
    <glyph glyph-name="uni040E" unicode="&#x40e;" horiz-adv-x="602" 
d="M482 716h108l-275 -604q-55 -128 -167 -128q-31 0 -71 16l24 85q24 -13 48 -13q31 0 47.5 12t32.5 46l25 53l-242 533h108l179 -427h4zM302 770q-52 0 -90.5 37t-38.5 89h74q0 -25 15.5 -41t39.5 -16q23 0 38.5 16.5t15.5 40.5h73q0 -52 -38 -89t-89 -37z" />
    <glyph glyph-name="uni040F" unicode="&#x40f;" horiz-adv-x="662" 
d="M590 716v-716h-215v-152h-88v152h-215v716h92v-628h334v628h92z" />
    <glyph glyph-name="uni0410" unicode="&#x410;" horiz-adv-x="668" 
d="M332 603l-117 -323h238l-117 323h-4zM114 0h-102l270 716h104l270 -716h-102l-69 194h-301z" />
    <glyph glyph-name="uni0411" unicode="&#x411;" horiz-adv-x="594" 
d="M164 414h181q90 0 154 -59q63 -59 63 -148q0 -90 -63 -148q-64 -59 -154 -59h-273v716h418v-88h-326v-214zM164 88h185q50 0 85 35q34 35 34 84t-34 83q-35 36 -85 36h-185v-238z" />
    <glyph glyph-name="uni0412" unicode="&#x412;" horiz-adv-x="594" 
d="M72 0v716h259q85 0 146 -56q61 -55 61 -139q0 -106 -97 -149v-4q55 -18 88 -62.5t33 -101.5q0 -88 -64 -146q-62 -58 -153 -58h-273zM164 628v-219h167q49 0 82 33q33 34 33 77q0 42 -32 76q-32 33 -79 33h-171zM164 323v-235h185q50 0 85 35q34 35 34 83q0 47 -35 82
t-88 35h-181z" />
    <glyph glyph-name="uni0413" unicode="&#x413;" horiz-adv-x="498" 
d="M164 0h-92v716h402v-88h-310v-628z" />
    <glyph glyph-name="uni0414" unicode="&#x414;" horiz-adv-x="775" 
d="M291 628v-152q0 -253 -80 -388h352v540h-272zM735 -152h-88v152h-519v-152h-88v240h67q45 46 70 151.5t24 238.5v238h454v-628h80v-240z" />
    <glyph glyph-name="uni0415" unicode="&#x415;" 
d="M490 716v-88h-326v-227h294v-86h-294v-227h326v-88h-418v716h418z" />
    <glyph glyph-name="uni0416" unicode="&#x416;" horiz-adv-x="900" 
d="M496 716v-348h4l274 348h112v-4l-290 -362l302 -346v-4h-120l-278 328h-4v-328h-92v328h-4l-278 -328h-120v4l302 346l-290 362v4h112l274 -348h4v348h92z" />
    <glyph glyph-name="uni0417" unicode="&#x417;" horiz-adv-x="540" 
d="M491 194q0 -90 -67 -150q-66 -60 -164 -60q-77 0 -139 46q-63 48 -85 125l84 35q16 -57 52.5 -87.5t87.5 -30.5q56 0 97 35q40 36 40 87t-42 86q-41 35 -99 35h-59v86h52q55 0 90 30.5t35 79.5q0 45 -33 73t-87 28q-87 0 -119 -89l-85 36q23 63 77 102t127 39
q91 0 153 -54q61 -52 61 -135q0 -99 -92 -147v-4q54 -23 84.5 -67t30.5 -99z" />
    <glyph glyph-name="uni0418" unicode="&#x418;" horiz-adv-x="688" 
d="M504 716h112v-716h-92v446l4 138h-4l-356 -584h-96v716h92v-419l-4 -138h4z" />
    <glyph glyph-name="uni0419" unicode="&#x419;" horiz-adv-x="688" 
d="M341 770q-52 0 -90.5 37t-38.5 89h74q0 -25 15.5 -41t39.5 -16q23 0 38.5 16.5t15.5 40.5h73q0 -52 -38 -89t-89 -37zM504 716h112v-716h-92v446l4 138h-4l-356 -584h-96v716h92v-419l-4 -138h4z" />
    <glyph glyph-name="uni041A" unicode="&#x41a;" horiz-adv-x="610" 
d="M474 716h120v-4l-318 -362l334 -346v-4h-128l-314 336h-4v-336h-92v716h92v-356h4z" />
    <glyph glyph-name="uni041B" unicode="&#x41b;" horiz-adv-x="706" 
d="M57 80q38 0 63 25q34 35 36 192v419h478v-716h-92v628h-294v-343q-1 -151 -41 -218t-125 -74l-25 -1l-33 3v90q10 -5 33 -5z" />
    <glyph glyph-name="uni041C" unicode="&#x41c;" horiz-adv-x="854" 
d="M164 0h-92v716h92l249 -436h4l249 436h92v-716h-92v425l4 120h-4l-224 -393h-54l-224 393h-4l4 -120v-425z" />
    <glyph glyph-name="uni041D" unicode="&#x41d;" horiz-adv-x="686" 
d="M164 0h-92v716h92v-307h358v307h92v-716h-92v323h-358v-323z" />
    <glyph glyph-name="uni041E" unicode="&#x41e;" horiz-adv-x="817" 
d="M773 358q0 -159 -106 -266q-107 -108 -262 -108q-156 0 -262 108q-106 107 -106 266t106 266q106 108 262 108t262 -109q106 -107 106 -265zM131 358q0 -124 78 -205q79 -81 196 -81t195 81q79 80 79 205t-79 205q-78 81 -195 81t-196 -81q-78 -81 -78 -205z" />
    <glyph glyph-name="uni041F" unicode="&#x41f;" horiz-adv-x="662" 
d="M164 0h-92v716h518v-716h-92v628h-334v-628z" />
    <glyph glyph-name="uni0420" unicode="&#x420;" horiz-adv-x="564" 
d="M164 290v-290h-92v716h244q93 0 158 -62q66 -62 66 -151q0 -91 -66 -152q-64 -61 -158 -61h-152zM164 628v-250h154q55 0 91 37q37 37 37 88q0 50 -37 87q-36 38 -91 38h-154z" />
    <glyph glyph-name="uni0421" unicode="&#x421;" horiz-adv-x="729" 
d="M409 -16q-159 0 -266 107q-106 107 -106 267t106 266q106 108 266 108q162 0 263 -117l-66 -64q-77 93 -197 93q-119 0 -199 -80q-79 -79 -79 -206t79 -206q80 -80 199 -80q125 0 217 105l67 -65q-51 -61 -125 -94.5t-159 -33.5z" />
    <glyph glyph-name="uni0422" unicode="&#x422;" horiz-adv-x="546" 
d="M316 628v-628h-92v628h-200v88h492v-88h-200z" />
    <glyph glyph-name="uni0423" unicode="&#x423;" horiz-adv-x="602" 
d="M482 716h108l-275 -604q-55 -128 -167 -128q-31 0 -71 16l24 85q24 -13 48 -13q31 0 47.5 12t32.5 46l25 53l-242 533h108l179 -427h4z" />
    <glyph glyph-name="uni0424" unicode="&#x424;" horiz-adv-x="802" 
d="M447 -48h-92v106q-141 13 -230 96q-88 82 -88 204t88 204q89 83 230 96v106h92v-106q141 -13 230 -96q88 -82 88 -204t-88 -204q-89 -83 -230 -96v-106zM447 144q105 11 164.5 68.5t59.5 145.5t-59.5 145.5t-164.5 68.5v-428zM355 572q-51 -6 -92.5 -23.5t-71 -45.5
t-45 -65t-15.5 -80q0 -44 15.5 -80.5t45 -64.5t71 -45.5t92.5 -23.5v428z" />
    <glyph glyph-name="uni0425" unicode="&#x425;" horiz-adv-x="632" 
d="M124 0h-108l240 370l-226 346h110l174 -274h4l174 274h110l-226 -346l240 -370h-108l-190 293h-4z" />
    <glyph glyph-name="uni0426" unicode="&#x426;" horiz-adv-x="690" 
d="M650 88v-256h-92v168h-486v716h92v-628h310v628h92v-628h84z" />
    <glyph glyph-name="uni0427" unicode="&#x427;" horiz-adv-x="586" 
d="M286 347q100 0 156 77v292h92v-716h-92v322q-70 -62 -173 -62q-100 0 -164.5 59t-64.5 155v242h94v-226q0 -67 40.5 -105t111.5 -38z" />
    <glyph glyph-name="uni0428" unicode="&#x428;" horiz-adv-x="896" 
d="M164 88h238v628h92v-628h238v628h92v-716h-752v716h92v-628z" />
    <glyph glyph-name="uni0429" unicode="&#x429;" horiz-adv-x="948" 
d="M164 88h238v628h92v-628h238v628h92v-628h84v-256h-92v168h-744v716h92v-628z" />
    <glyph glyph-name="uni042A" unicode="&#x42a;" horiz-adv-x="743" 
d="M305 366v-278h173q60 0 99 41q40 41 40 98t-40 97q-39 42 -99 42h-173zM213 0v628h-189v88h281v-262h167q99 0 169 -65q70 -64 70 -162q0 -99 -70 -163q-68 -64 -169 -64h-259z" />
    <glyph glyph-name="uni042B" unicode="&#x42b;" horiz-adv-x="806" 
d="M734 0h-92v716h92v-716zM164 366v-278h173q60 0 99 41q40 41 40 98t-40 97q-39 42 -99 42h-173zM72 0v716h92v-262h167q99 0 169 -65q70 -64 70 -162q0 -99 -70 -163q-68 -64 -169 -64h-259z" />
    <glyph glyph-name="uni042C" unicode="&#x42c;" horiz-adv-x="602" 
d="M164 366v-278h173q60 0 99 41q40 41 40 98t-40 97q-39 42 -99 42h-173zM72 0v716h92v-262h167q99 0 169 -65q70 -64 70 -162q0 -99 -70 -163q-68 -64 -169 -64h-259z" />
    <glyph glyph-name="uni042D" unicode="&#x42d;" horiz-adv-x="725" 
d="M320 -16q-85 0 -159 33.5t-125 94.5l66 64q90 -104 218 -104q108 0 184 67q78 69 91 176h-331v86h331q-13 107 -91 176q-76 67 -184 67q-122 0 -197 -93l-66 64q100 117 263 117q158 0 263 -107t105 -267q0 -161 -105 -267q-105 -107 -263 -107z" />
    <glyph glyph-name="uni042E" unicode="&#x42e;" horiz-adv-x="1071" 
d="M1034 358q0 -159 -106 -266q-107 -108 -262 -108q-148 0 -251 96q-103 97 -115 243h-136v-323h-92v716h92v-307h137q18 139 120 231q104 92 245 92q156 0 262 -109q106 -107 106 -265zM392 358q0 -124 78 -205q79 -81 196 -81t195 81q79 80 79 205t-79 205
q-78 81 -195 81t-196 -81q-78 -81 -78 -205z" />
    <glyph glyph-name="uni042F" unicode="&#x42f;" horiz-adv-x="601" 
d="M283 628q-55 0 -91.5 -37.5t-36.5 -87.5q0 -54 39 -90.5t95 -36.5h148v252h-154zM437 290h-102l-193 -290h-109v4l201 291l-2 3q-74 16 -122.5 73.5t-48.5 131.5q0 90 65.5 151.5t158.5 61.5h244v-716h-92v290z" />
    <glyph glyph-name="uni0430" unicode="&#x430;" horiz-adv-x="512" 
d="M123 150q0 -36 30.5 -60t71.5 -24q58 0 103.5 43t45.5 101q-43 34 -120 34q-56 0 -93.5 -27t-37.5 -67zM242 506q102 0 161 -54.5t59 -149.5v-302h-88v68h-4q-57 -84 -152 -84q-81 0 -135.5 48t-54.5 120q0 76 57.5 121t153.5 45q82 0 135 -30v21q0 48 -38 81.5t-89 33.5
q-77 0 -122 -65l-81 51q67 96 198 96z" />
    <glyph glyph-name="uni0431" unicode="&#x431;" horiz-adv-x="588" 
d="M156 422q26 38 70.5 61t98.5 23q97 0 166 -76q69 -77 69 -185q0 -114 -71 -188q-70 -73 -179 -73q-116 0 -185 83q-69 82 -69 230q0 221 78 311q77 90 214 92q25 0 41.5 1.5t27 5.5t16.5 10.5t9 15.5h92q-13 -64 -54 -91q-40 -26 -127 -26q-178 0 -201 -194h4zM152 245
q0 -72 47 -125q46 -52 111 -52q67 0 112 50q46 49 46 127t-46 127q-45 50 -112 50q-66 0 -113 -50q-45 -50 -45 -127z" />
    <glyph glyph-name="uni0432" unicode="&#x432;" horiz-adv-x="492" 
d="M148 406v-120h147q25 0 44 17.5t19 42.5t-19 42.5t-44 17.5h-147zM374 148q0 26 -20.5 45t-47.5 19h-158v-128h158q28 0 48 18.5t20 45.5zM56 0v490h245q61 0 105 -41t44 -98q0 -68 -64 -98v-4q82 -31 82 -106q0 -60 -45 -102q-46 -41 -108 -41h-259z" />
    <glyph glyph-name="uni0433" unicode="&#x433;" horiz-adv-x="412" 
d="M388 490v-84h-240v-406h-92v490h332z" />
    <glyph glyph-name="uni0434" unicode="&#x434;" horiz-adv-x="640" 
d="M228 406v-79q0 -147 -50 -243h262v322h-212zM612 -152h-88v152h-408v-152h-88v236h56q22 22 38 93t16 148v165h394v-406h80v-236z" />
    <glyph glyph-name="uni0435" unicode="&#x435;" horiz-adv-x="536" 
d="M276 -16q-108 0 -178 74t-70 187q0 112 68 186.5t174 74.5q109 0 173.5 -70.5t64.5 -197.5l-1 -10h-385q2 -72 48 -116t110 -44q88 0 138 88l82 -40q-33 -62 -91.5 -97t-132.5 -35zM129 304h281q-4 51 -41.5 84.5t-100.5 33.5q-52 0 -89.5 -32t-49.5 -86z" />
    <glyph glyph-name="uni0436" unicode="&#x436;" horiz-adv-x="722" 
d="M315 240h-4l-199 -240h-116v4l218 256l-207 226v4h116l188 -214h4v214h92v-214h4l188 214h116v-4l-208 -226l219 -256v-4h-116l-199 240h-4v-240h-92v240z" />
    <glyph glyph-name="uni0437" unicode="&#x437;" horiz-adv-x="482" 
d="M237 68q51 0 83 20.5t32 51.5t-24 51.5t-64 20.5h-86v74h83q32 0 53.5 19.5t21.5 48.5q0 28 -27.5 48t-69.5 20q-38 0 -65 -11.5t-59 -41.5l-61 59q78 78 185 78q78 0 133 -43q56 -42 56 -104q0 -75 -68 -104v-5q86 -38 86 -115q0 -35 -15 -62.5t-42 -47.5t-65.5 -30.5
t-86.5 -10.5q-114 0 -197 86l62 61q67 -63 135 -63z" />
    <glyph glyph-name="uni0438" unicode="&#x438;" horiz-adv-x="546" 
d="M398 490h92v-490h-92v256l4 96h-4l-250 -352h-92v490h92v-256l-4 -96h4z" />
    <glyph glyph-name="uni0439" unicode="&#x439;" horiz-adv-x="546" 
d="M398 490h92v-490h-92v256l4 96h-4l-250 -352h-92v490h92v-256l-4 -96h4zM280 570q-52 0 -90.5 37t-38.5 89h74q0 -25 15.5 -41t39.5 -16q23 0 38.5 16.5t15.5 40.5h73q0 -52 -38 -89t-89 -37z" />
    <glyph glyph-name="uni043A" unicode="&#x43a;" horiz-adv-x="475" 
d="M479 0h-114l-213 246h-4v-246h-92v490h92v-220h4l200 220h116v-4l-216 -228l227 -254v-4z" />
    <glyph glyph-name="uni043B" unicode="&#x43b;" horiz-adv-x="600" 
d="M222 406v-179q0 -235 -133 -235q-24 0 -48 8l2 83q15 -5 32 -5q33 0 45 35.5t12 130.5v246h412v-490h-92v406h-230z" />
    <glyph glyph-name="uni043C" unicode="&#x43c;" horiz-adv-x="657" 
d="M605 490v-490h-92v255l4 96h-4l-153 -287h-64l-152 287h-4l4 -96v-255h-92v490h111l163 -312h3l164 312h112z" />
    <glyph glyph-name="uni043D" unicode="&#x43d;" horiz-adv-x="546" 
d="M490 490v-490h-92v202h-250v-202h-92v490h92v-202h250v202h92z" />
    <glyph glyph-name="uni043E" unicode="&#x43e;" horiz-adv-x="560" 
d="M28 245q0 113 71 187q72 74 181 74t180 -74q72 -74 72 -187q0 -114 -72 -187q-71 -74 -180 -74t-181 74q-71 74 -71 187zM120 245q0 -79 46 -128t114 -49t114 49t46 128q0 78 -46 127q-47 50 -114 50t-114 -50q-46 -49 -46 -127z" />
    <glyph glyph-name="uni043F" unicode="&#x43f;" horiz-adv-x="526" 
d="M148 0h-92v490h414v-490h-92v406h-230v-406z" />
    <glyph glyph-name="uni0440" unicode="&#x440;" horiz-adv-x="572" 
d="M296 68q66 0 111 50q45 49 45 127q0 77 -45 127t-111 50q-67 0 -112 -50q-44 -50 -44 -127q0 -78 44 -128q45 -49 112 -49zM311 -16q-54 0 -98.5 23t-68.5 61h-4l4 -68v-216h-92v706h88v-68h4q24 38 68.5 61t98.5 23q97 0 164 -76q69 -77 69 -185q0 -109 -69 -185
q-67 -76 -164 -76z" />
    <glyph glyph-name="uni0441" unicode="&#x441;" horiz-adv-x="522" 
d="M280 -16q-109 0 -181 74q-71 76 -71 187q0 113 71 187q72 74 181 74q75 0 131 -37.5t84 -103.5l-84 -35q-39 92 -137 92q-63 0 -109 -51q-45 -51 -45 -126t45 -126q46 -51 109 -51q101 0 142 92l82 -35q-27 -66 -84.5 -103.5t-133.5 -37.5z" />
    <glyph glyph-name="uni0442" unicode="&#x442;" horiz-adv-x="428" 
d="M428 490v-84h-156v-406h-92v406h-156v84h404z" />
    <glyph glyph-name="uni0443" unicode="&#x443;" horiz-adv-x="498" 
d="M494 490l-307 -706h-95l114 247l-202 459h100l146 -352h2l142 352h100z" />
    <glyph glyph-name="uni0444" unicode="&#x444;" horiz-adv-x="742" 
d="M417 -216h-92v202q-134 11 -211 80t-77 179t77 179q79 70 211 80v212h92v-212q133 -11 210 -81q78 -69 78 -178q0 -110 -78 -179q-77 -70 -210 -80v-202zM417 72q97 9 148.5 53.5t51.5 119.5t-51.5 119.5t-148.5 53.5v-346zM325 418q-97 -9 -148.5 -53.5t-51.5 -119.5
t51.5 -119.5t148.5 -53.5v346z" />
    <glyph glyph-name="uni0445" unicode="&#x445;" horiz-adv-x="472" 
d="M289 249l175 -249h-108l-121 181l-119 -181h-108l173 249l-169 241h104l121 -173l115 173h108z" />
    <glyph glyph-name="uni0446" unicode="&#x446;" horiz-adv-x="578" 
d="M550 84v-236h-88v152h-406v490h92v-406h230v406h92v-406h80z" />
    <glyph glyph-name="uni0447" unicode="&#x447;" horiz-adv-x="500" 
d="M444 490v-490h-92v186q-44 -28 -129 -28q-83 0 -137 51.5t-54 130.5v150h94v-150q0 -45 30 -71.5t81 -26.5q78 0 115 31v217h92z" />
    <glyph glyph-name="uni0448" unicode="&#x448;" horiz-adv-x="756" 
d="M680 490v-490h-624v490h92v-406h174v406h92v-406h174v406h92z" />
    <glyph glyph-name="uni0449" unicode="&#x449;" horiz-adv-x="808" 
d="M760 84v-236h-88v152h-616v490h92v-406h174v406h92v-406h174v406h92v-406h80z" />
    <glyph glyph-name="uni044A" unicode="&#x44a;" horiz-adv-x="580" 
d="M136 0v406h-112v84h204v-164h153q70 0 123 -48q52 -46 52 -115q0 -68 -52 -116q-53 -47 -123 -47h-245zM228 242v-158h150q34 0 59 23t25 56q0 16 -7 30.5t-18.5 25t-26.5 17t-32 6.5h-150z" />
    <glyph glyph-name="uni044B" unicode="&#x44b;" horiz-adv-x="692" 
d="M56 0v490h92v-164h153q70 0 123 -48q52 -46 52 -115q0 -68 -52 -116q-53 -47 -123 -47h-245zM636 490v-490h-92v490h92zM148 242v-158h150q34 0 59 23t25 56q0 16 -7 30.5t-18.5 25t-26.5 17t-32 6.5h-150z" />
    <glyph glyph-name="uni044C" unicode="&#x44c;" horiz-adv-x="500" 
d="M56 0v490h92v-164h153q70 0 123 -48q52 -46 52 -115q0 -68 -52 -116q-53 -47 -123 -47h-245zM148 242v-158h150q34 0 59 23t25 56q0 16 -7 30.5t-18.5 25t-26.5 17t-32 6.5h-150z" />
    <glyph glyph-name="uni044D" unicode="&#x44d;" horiz-adv-x="518" 
d="M490 245q0 -113 -70 -187t-178 -74q-76 0 -133.5 38t-84.5 103l82 35q38 -92 144 -92q56 0 98 38.5t53 100.5h-215v75h215q-11 63 -53 101.5t-98 38.5q-100 0 -139 -92l-84 35q28 66 84 103.5t131 37.5q109 0 178.5 -73.5t69.5 -187.5z" />
    <glyph glyph-name="uni044E" unicode="&#x44e;" horiz-adv-x="768" 
d="M488 -16q-97 0 -166 60q-70 62 -83 158h-83v-202h-92v490h92v-202h83q13 96 83 157q68 61 166 61q109 0 180 -74q72 -74 72 -187q0 -114 -72 -187q-71 -74 -180 -74zM328 245q0 -79 46 -128t114 -49t114 49t46 128q0 78 -46 127q-47 50 -114 50t-114 -50
q-46 -49 -46 -127z" />
    <glyph glyph-name="uni044F" unicode="&#x44f;" horiz-adv-x="480" 
d="M424 490v-490h-92v172h-96l-131 -172h-105v5l139 173l-2 2q-54 15 -86.5 54t-32.5 93q0 69 52 115q52 48 123 48h231zM332 252v154h-136q-17 0 -32 -6t-26.5 -16.5t-18.5 -24.5t-7 -30q0 -33 25 -55t59 -22h136z" />
    <glyph glyph-name="uni0450" unicode="&#x450;" horiz-adv-x="532" 
d="M276 -16q-108 0 -178 74t-70 187q0 112 68 186.5t174 74.5q109 0 173.5 -70.5t64.5 -197.5l-1 -10h-385q2 -72 48 -116t110 -44q88 0 138 88l82 -40q-33 -62 -91.5 -97t-132.5 -35zM129 304h281q-4 51 -41.5 84.5t-100.5 33.5q-52 0 -89.5 -32t-49.5 -86zM259 716
l52 -128h-80l-72 128h100z" />
    <glyph glyph-name="uni0451" unicode="&#x451;" horiz-adv-x="532" 
d="M276 -16q-108 0 -178 74t-70 187q0 112 68 186.5t174 74.5q109 0 173.5 -70.5t64.5 -197.5l-1 -10h-385q2 -72 48 -116t110 -44q88 0 138 88l82 -40q-33 -62 -91.5 -97t-132.5 -35zM129 304h281q-4 51 -41.5 84.5t-100.5 33.5q-52 0 -89.5 -32t-49.5 -86zM239 659
q0 -23 -16.5 -40t-40.5 -17q-22 0 -39.5 17.5t-17.5 39.5q0 24 17 40.5t40 16.5q25 0 41 -16t16 -41zM407 659q0 -23 -16.5 -40t-40.5 -17q-22 0 -39.5 17.5t-17.5 39.5q0 24 17 40.5t40 16.5q25 0 41 -16t16 -41z" />
    <glyph glyph-name="uni0452" unicode="&#x452;" 
d="M343 -226q-28 0 -54 10l24 80q16 -6 27 -6q56 0 58 69v367q0 128 -117 128q-56 0 -94.5 -46.5t-38.5 -108.5v-267h-92v572h-64v72h64v72h92v-72h144v-72h-144v-82l-4 -68h4q21 36 64.5 60t90.5 24q90 0 138.5 -51.5t48.5 -146.5v-374q0 -78 -38 -119t-109 -41z" />
    <glyph glyph-name="uni0453" unicode="&#x453;" horiz-adv-x="392" 
d="M388 490v-84h-240v-406h-92v490h332zM316 716l-72 -128h-80l52 128h100z" />
    <glyph glyph-name="uni0454" unicode="&#x454;" horiz-adv-x="518" 
d="M412 160l82 -35q-27 -65 -84.5 -103t-133.5 -38q-108 0 -178 74t-70 187q0 114 69.5 187.5t178.5 73.5q75 0 131 -37.5t84 -103.5l-84 -35q-39 92 -139 92q-56 0 -98 -38.5t-53 -101.5h215v-75h-215q11 -62 53 -100.5t98 -38.5q106 0 144 92z" />
    <glyph glyph-name="uni0455" unicode="&#x455;" horiz-adv-x="455" 
d="M431 136q0 -64 -56 -108t-141 -44q-74 0 -130 38.5t-80 101.5l82 35q18 -44 52.5 -68.5t75.5 -24.5q44 0 73.5 19t29.5 45q0 47 -72 69l-84 21q-143 36 -143 138q0 67 54.5 107.5t139.5 40.5q65 0 117.5 -31t73.5 -83l-82 -34q-14 31 -45.5 48.5t-70.5 17.5
q-36 0 -64.5 -18t-28.5 -44q0 -42 79 -60l74 -19q146 -36 146 -147z" />
    <glyph glyph-name="uni0456" unicode="&#x456;" horiz-adv-x="220" 
d="M175 659q0 -27 -19 -46t-46 -19t-46 19t-19 46t19 46t46 19t46 -19t19 -46zM156 490v-490h-92v490h92z" />
    <glyph glyph-name="uni0457" unicode="&#x457;" horiz-adv-x="220" 
d="M235 659q0 -23 -16.5 -40t-40.5 -17q-22 0 -39.5 17.5t-17.5 39.5q0 24 17 40.5t40 16.5q25 0 41 -16t16 -41zM99 659q0 -23 -16.5 -40t-40.5 -17q-22 0 -39.5 17.5t-17.5 39.5q0 24 17 40.5t40 16.5q25 0 41 -16t16 -41zM156 490v-490h-92v490h92z" />
    <glyph glyph-name="uni0458" unicode="&#x458;" horiz-adv-x="220" 
d="M175 659q0 -27 -19 -46t-46 -19t-46 19t-19 46t19 46t46 19t46 -19t19 -46zM9 -226q-30 0 -54 10l24 80q16 -6 27 -6q56 0 58 69v563h92v-549q0 -167 -147 -167z" />
    <glyph glyph-name="uni0459" unicode="&#x459;" horiz-adv-x="888" 
d="M222 406v-179q0 -235 -133 -235q-22 0 -48 8l2 83q17 -5 32 -5q16 0 27 8t18 27.5t9.5 51t2.5 79.5v246h412v-174h151q70 0 119 -46q50 -47 50 -112t-50 -112q-49 -46 -119 -46h-243v406h-230zM770 158q0 30 -23.5 52t-54.5 22h-148v-148h148q32 0 55 21.5t23 52.5z" />
    <glyph glyph-name="uni045A" unicode="&#x45a;" horiz-adv-x="818" 
d="M378 0v232h-230v-232h-92v490h92v-174h230v174h92v-174h155q70 0 119 -46q50 -47 50 -112t-50 -112q-49 -46 -119 -46h-247zM470 84h152q32 0 55 21.5t23 52.5q0 30 -23.5 52t-54.5 22h-152v-148z" />
    <glyph glyph-name="uni045B" unicode="&#x45b;" 
d="M281 422q-56 0 -94.5 -46.5t-38.5 -108.5v-267h-92v572h-64v72h64v72h92v-72h144v-72h-144v-82l-4 -68h4q21 36 64.5 60t90.5 24q90 0 138.5 -51.5t48.5 -146.5v-308h-92v290q0 132 -117 132z" />
    <glyph glyph-name="uni045C" unicode="&#x45c;" horiz-adv-x="475" 
d="M479 0h-114l-213 246h-4v-246h-92v490h92v-220h4l200 220h116v-4l-216 -228l227 -254v-4zM351 716l-72 -128h-80l52 128h100z" />
    <glyph glyph-name="uni045D" unicode="&#x45d;" horiz-adv-x="546" 
d="M398 490h92v-490h-92v256l4 96h-4l-250 -352h-92v490h92v-256l-4 -96h4zM273 716l52 -128h-80l-72 128h100z" />
    <glyph glyph-name="uni045E" unicode="&#x45e;" horiz-adv-x="498" 
d="M494 490l-307 -706h-95l114 247l-202 459h100l146 -352h2l142 352h100zM252 586q-52 0 -90.5 37t-38.5 89h74q0 -25 15.5 -41t39.5 -16q23 0 38.5 16.5t15.5 40.5h73q0 -52 -38 -89t-89 -37z" />
    <glyph glyph-name="uni045F" unicode="&#x45f;" horiz-adv-x="546" 
d="M490 490v-490h-173v-152h-88v152h-173v490h92v-406h250v406h92z" />
    <glyph glyph-name="uni0490" unicode="&#x490;" horiz-adv-x="510" 
d="M486 628h-322v-628h-92v716h326v112h88v-200z" />
    <glyph glyph-name="uni0491" unicode="&#x491;" horiz-adv-x="412" 
d="M388 588v-182h-240v-406h-92v490h244v98h88z" />
    <glyph glyph-name="uni04B0" unicode="&#x4b0;" horiz-adv-x="594" 
d="M520 348v-72h-175v-276h-92v276h-175v72h166l-232 368h108l177 -291h4l173 291h108l-228 -368h166z" />
    <glyph glyph-name="uni04B1" unicode="&#x4b1;" horiz-adv-x="498" 
d="M439 0h-145v-216h-92v216h-145v70h118l-15 33l-156 387h100l145 -390l147 390h98l-172 -420h117v-70z" />
    <glyph glyph-name="Wgrave" unicode="&#x1e80;" horiz-adv-x="922" 
d="M810 716h96l-191 -716h-94l-154 472h-4l-154 -472h-94l-199 716h96l151 -563h4l155 467h86l155 -467h4zM448 900l52 -128h-80l-72 128h100z" />
    <glyph glyph-name="wgrave" unicode="&#x1e81;" horiz-adv-x="754" 
d="M750 490l-158 -490h-94l-122 376l-121 -376h-93l-158 490h96l109 -370h1l121 370h95l121 -370h1l108 370h94zM363 716l52 -128h-80l-72 128h100z" />
    <glyph glyph-name="Wacute" unicode="&#x1e82;" horiz-adv-x="922" 
d="M810 716h96l-191 -716h-94l-154 472h-4l-154 -472h-94l-199 716h96l151 -563h4l155 467h86l155 -467h4zM582 900l-72 -128h-80l52 128h100z" />
    <glyph glyph-name="wacute" unicode="&#x1e83;" horiz-adv-x="754" 
d="M750 490l-158 -490h-94l-122 376l-121 -376h-93l-158 490h96l109 -370h1l121 370h95l121 -370h1l108 370h94zM494 716l-72 -128h-80l52 128h100z" />
    <glyph glyph-name="Wdieresis" unicode="&#x1e84;" horiz-adv-x="922" 
d="M810 716h96l-191 -716h-94l-154 472h-4l-154 -472h-94l-199 716h96l151 -563h4l155 467h86l155 -467h4zM438 843q0 -23 -16.5 -40t-40.5 -17q-22 0 -39.5 17.5t-17.5 39.5q0 24 17 40.5t40 16.5q25 0 41 -16t16 -41zM606 843q0 -23 -16.5 -40t-40.5 -17q-22 0 -39.5 17.5
t-17.5 39.5q0 24 17 40.5t40 16.5q25 0 41 -16t16 -41z" />
    <glyph glyph-name="wdieresis" unicode="&#x1e85;" horiz-adv-x="754" 
d="M750 490l-158 -490h-94l-122 376l-121 -376h-93l-158 490h96l109 -370h1l121 370h95l121 -370h1l108 370h94zM349 659q0 -23 -16.5 -40t-40.5 -17q-22 0 -39.5 17.5t-17.5 39.5q0 24 17 40.5t40 16.5q25 0 41 -16t16 -41zM517 659q0 -23 -16.5 -40t-40.5 -17
q-22 0 -39.5 17.5t-17.5 39.5q0 24 17 40.5t40 16.5q25 0 41 -16t16 -41z" />
    <glyph glyph-name="Ygrave" unicode="&#x1ef2;" horiz-adv-x="594" 
d="M345 333v-333h-92v333l-241 383h108l177 -291h4l173 291h108zM291 900l52 -128h-80l-72 128h100z" />
    <glyph glyph-name="ygrave" unicode="&#x1ef3;" horiz-adv-x="498" 
d="M494 490l-307 -706h-95l114 247l-202 459h100l146 -352h2l142 352h100zM240 716l52 -128h-80l-72 128h100z" />
    <glyph glyph-name="endash" unicode="&#x2013;" horiz-adv-x="592" 
d="M536 272h-480v76h480v-76z" />
    <glyph glyph-name="emdash" unicode="&#x2014;" horiz-adv-x="892" 
d="M836 272h-780v76h780v-76z" />
    <glyph glyph-name="quoteleft" unicode="&#x2018;" horiz-adv-x="232" 
d="M141 732l43 -28l-50 -76q21 -4 35.5 -21t14.5 -41q0 -28 -19.5 -48t-48.5 -20q-29 1 -48.5 21t-19.5 49q0 14 5 29t16 30z" />
    <glyph glyph-name="quoteright" unicode="&#x2019;" horiz-adv-x="232" 
d="M91 498l-43 28l50 76q-21 4 -35.5 21t-14.5 41q0 29 20 48.5t48 19.5q29 0 48.5 -19.5t19.5 -48.5q0 -28 -21 -61z" />
    <glyph glyph-name="quotesinglbase" unicode="&#x201a;" horiz-adv-x="232" 
d="M91 -104l-43 28l50 76q-21 4 -35.5 21t-14.5 41q0 29 20 48.5t48 19.5q29 0 48.5 -19.5t19.5 -48.5q0 -28 -21 -61z" />
    <glyph glyph-name="quotedblleft" unicode="&#x201c;" horiz-adv-x="408" 
d="M141 732l43 -28l-50 -76q21 -4 35.5 -21t14.5 -41q0 -28 -19.5 -48t-48.5 -20q-29 1 -48.5 21t-19.5 49q0 14 5 29t16 30zM317 732l43 -28l-50 -76q21 -4 35.5 -21t14.5 -41q0 -28 -19.5 -48t-48.5 -20q-29 1 -48.5 21t-19.5 49q0 14 5 29t16 30z" />
    <glyph glyph-name="quotedblright" unicode="&#x201d;" horiz-adv-x="408" 
d="M267 498l-43 28l50 76q-21 4 -35.5 21t-14.5 41q0 29 20 48.5t48 19.5q29 0 48.5 -19.5t19.5 -48.5q0 -28 -21 -61zM91 498l-43 28l50 76q-21 4 -35.5 21t-14.5 41q0 29 20 48.5t48 19.5q29 0 48.5 -19.5t19.5 -48.5q0 -28 -21 -61z" />
    <glyph glyph-name="quotedblbase" unicode="&#x201e;" horiz-adv-x="408" 
d="M267 -104l-43 28l50 76q-21 4 -35.5 21t-14.5 41q0 29 20 48.5t48 19.5q29 0 48.5 -19.5t19.5 -48.5q0 -28 -21 -61zM91 -104l-43 28l50 76q-21 4 -35.5 21t-14.5 41q0 29 20 48.5t48 19.5q29 0 48.5 -19.5t19.5 -48.5q0 -28 -21 -61z" />
    <glyph glyph-name="bullet" unicode="&#x2022;" horiz-adv-x="400" 
d="M320 324q0 -49 -35 -84.5t-85 -35.5q-49 0 -84.5 35.5t-35.5 84.5q0 50 35.5 85t84.5 35q50 0 85 -35t35 -85z" />
    <glyph glyph-name="ellipsis" unicode="&#x2026;" horiz-adv-x="704" 
d="M184 62q0 -28 -19.5 -48t-48.5 -20q-28 0 -48 20t-20 48q0 29 20 48.5t48 19.5q29 0 48.5 -19.5t19.5 -48.5zM420 62q0 -28 -19.5 -48t-48.5 -20q-28 0 -48 20t-20 48q0 29 20 48.5t48 19.5q29 0 48.5 -19.5t19.5 -48.5zM656 62q0 -28 -19.5 -48t-48.5 -20q-28 0 -48 20
t-20 48q0 29 20 48.5t48 19.5q29 0 48.5 -19.5t19.5 -48.5z" />
    <glyph glyph-name="guilsinglleft" unicode="&#x2039;" horiz-adv-x="356" 
d="M296 440l-160 -169l160 -169l-54 -50l-202 219l202 219z" />
    <glyph glyph-name="guilsinglright" unicode="&#x203a;" horiz-adv-x="356" 
d="M114 52l-54 50l160 169l-160 169l54 50l202 -219z" />
    <glyph glyph-name="fraction" unicode="&#x2044;" horiz-adv-x="170" 
d="M346 686l-465 -694l-57 37l466 695z" />
    <glyph glyph-name="uni2074" unicode="&#x2074;" horiz-adv-x="345" 
d="M269 422v-72h-70v72h-171v48l174 246h67v-234h48v-60h-48zM195 613l-94 -131h98v131h-4z" />
    <glyph glyph-name="uni20A3" unicode="&#x20a3;" horiz-adv-x="550" 
d="M327 190v-76h-135v-114h-92v114h-76v76h76v494h414v-88h-322v-219h290v-86h-290v-101h135z" />
    <glyph glyph-name="uni20A4" unicode="&#x20a4;" horiz-adv-x="519" 
d="M164 88h178q62 0 85 57l76 -32q-45 -111 -158 -113h-313v80q66 29 91 86h-91v76h106q-2 33 -22 84h-84v76h46q-27 58 -27 100q0 83 58.5 140.5t147.5 57.5q72 0 124.5 -39t73.5 -103l-84 -35q-28 89 -114 89q-50 0 -82 -32t-32 -78q0 -38 27 -100h165v-76h-132
q17 -47 17 -84h115v-76h-127q-14 -42 -47 -75z" />
    <glyph glyph-name="uni20A9" unicode="&#x20a9;" horiz-adv-x="973" 
d="M493 536h-4l-41 -134h84zM235 326l43 -178h3l54 178h-100zM740 0h-91l-95 326h-130l-100 -326h-90l-88 326h-114v76h94l-76 282h100l67 -282h141l86 282h94l82 -282h137l67 282h100l-76 -282h93v-76h-113zM642 326l51 -178h3l43 178h-97z" />
    <glyph glyph-name="uni20AB" unicode="&#x20ab;" horiz-adv-x="568" 
d="M276 68q67 0 107.5 45.5t40.5 123.5t-40.5 123.5t-107.5 45.5q-68 0 -112 -47t-44 -122q0 -76 44 -123q43 -46 112 -46zM424 68h-4q-53 -84 -159 -84q-98 0 -165 72q-68 74 -68 181t68 180q67 73 165 73q106 0 159 -84h4l-4 68v66h-140v72h140v72h92v-72h64v-72h-64v-540
h-88v68zM512 -160h-442v76h442v-76z" />
    <glyph glyph-name="Euro" unicode="&#x20ac;" horiz-adv-x="629" 
d="M563 105l42 -80q-70 -41 -164 -41q-113 0 -200 65t-120 175h-97v76h82l-2 42l2 42h-82v76h97q33 110 120 175t200 65q85 0 149 -41l-44 -75q-48 27 -105 27q-77 0 -136.5 -40t-86.5 -111h223v-76h-241l-2 -42l2 -42h241v-76h-223q27 -71 86.5 -111t136.5 -40q66 0 122 32
z" />
    <glyph glyph-name="uni20AE" unicode="&#x20ae;" horiz-adv-x="526" 
d="M309 184v-184h-92v131l-128 -80v93l128 80v96l-128 -80v94l128 80v182h-193v88h478v-88h-193v-129l128 80v-94l-128 -80v-96l128 81v-94z" />
    <glyph glyph-name="uni20B1" unicode="&#x20b1;" horiz-adv-x="632" 
d="M192 596v-79h263q-29 79 -129 79h-134zM192 441v-79h142q44 0 76 21.5t45 57.5h-263zM192 274v-274h-92v441h-76v76h76v167h232q83 0 145 -46.5t76 -120.5h63v-76h-63q-14 -74 -76 -120.5t-145 -46.5h-140z" />
    <glyph glyph-name="uni20B8" unicode="&#x20b8;" horiz-adv-x="526" 
d="M502 684v-76h-478v76h478zM309 448v-448h-92v448h-193v76h478v-76h-193z" />
    <glyph glyph-name="uni20B9" unicode="&#x20b9;" horiz-adv-x="556" 
d="M498 4v-4h-128l-258 269v94h128q106 0 135 84h-351v77h350q-29 84 -125 84h-225v76h508v-76h-110q39 -39 48 -84h62v-77h-61q-14 -74 -75.5 -122t-142.5 -48h-19l-3 -3l-3 3z" />
    <glyph glyph-name="uni20BA" unicode="&#x20ba;" horiz-adv-x="537" 
d="M152 0v186l-128 -80v93l128 80v96l-128 -80v94l128 80v215h92v-162l128 80v-94l-128 -80v-96l128 81v-94l-128 -80v-151q77 2 128 52t51 121h90q-1 -111 -80 -186t-196 -75h-85z" />
    <glyph glyph-name="uni20BD" unicode="&#x20bd;" horiz-adv-x="580" 
d="M192 596v-234h142q57 0 92 34q36 34 36 83q0 47 -36 82q-37 35 -92 35h-142zM327 190v-76h-135v-114h-92v114h-76v76h76v84h-76v76h76v334h232q95 0 159 -58q65 -59 65 -147t-65 -147q-64 -58 -159 -58h-140v-84h135z" />
    <glyph glyph-name="uni2116" unicode="&#x2116;" horiz-adv-x="1078" 
d="M1046 561q0 -70 -51 -121q-50 -50 -120 -50q-69 0 -121 50q-50 52 -50 121q0 70 50 120q51 51 121 51t120 -51q51 -50 51 -120zM972 561q0 45 -27.5 74.5t-69.5 29.5q-41 0 -69 -30q-28 -29 -28 -74t28 -74q28 -30 69 -30q42 0 69.5 29.5t27.5 74.5zM164 0h-92v716h112
l348 -557h4l-4 138v419h92v-716h-96l-364 584h-4l4 -138v-446zM1015 310v-72h-280v72h280z" />
    <glyph glyph-name="minus" unicode="&#x2212;" horiz-adv-x="550" 
d="M494 309v-76h-438v76h438z" />
    <glyph glyph-name="uni2215" unicode="&#x2215;" horiz-adv-x="437" 
d="M410 716l-297 -716h-86l297 716h86z" />
    <glyph glyph-name="uniF8FF" horiz-adv-x="1000" 
d="M499 290v161h392q4 -17 5.5 -38.5t1.5 -47.5q0 -181 -111 -293q-110 -113 -288 -113q-172 0 -294 121q-122 122 -122 295q0 172 121 293q121 123 295 123q162 0 278 -108l-119 -120q-67 62 -159 62q-100 0 -174 -74q-72 -74 -72 -176q0 -104 72 -177q74 -74 174 -74
q87 0 149 45q62 47 75 121h-224z" />
    <glyph glyph-name="one.numerator" horiz-adv-x="242" 
d="M182 716v-366h-70v285l-64 -26l-24 54l112 53h46z" />
    <glyph glyph-name="two.denominator" horiz-adv-x="304" 
d="M276 64v-64h-250v60l143 144q33 35 33 62q0 19 -15 31.5t-37 12.5q-49 0 -61 -58l-65 27q9 43 44 69t81 26q52 0 88.5 -30.5t36.5 -77.5q0 -44 -51 -98l-105 -104h158z" />
    <glyph glyph-name="two.numerator" horiz-adv-x="304" 
d="M276 414v-64h-250v60l143 144q33 35 33 62q0 19 -15 31.5t-37 12.5q-49 0 -61 -58l-65 27q9 43 44 69t81 26q52 0 88.5 -30.5t36.5 -77.5q0 -44 -51 -98l-105 -104h158z" />
    <glyph glyph-name="three.numerator" horiz-adv-x="323" 
d="M158 342q-51 0 -86.5 26t-47.5 74l65 24q13 -60 69 -60q25 0 43 15.5t18 38.5q0 50 -71 50h-30v60h29q60 0 60 47q0 19 -14.5 31t-35.5 12q-42 0 -58 -43l-62 25q28 82 120 82q54 0 88 -29t34 -77q0 -47 -45 -75q57 -33 57 -84q0 -26 -10 -47t-28 -37t-42.5 -24.5
t-52.5 -8.5z" />
    <glyph glyph-name="four.denominator" horiz-adv-x="345" 
d="M269 72v-72h-70v72h-171v48l174 246h67v-234h48v-60h-48zM195 263l-94 -131h98v131h-4z" />
    <glyph glyph-name="four.numerator" horiz-adv-x="345" 
d="M269 422v-72h-70v72h-171v48l174 246h67v-234h48v-60h-48zM195 613l-94 -131h98v131h-4z" />
    <glyph glyph-name="r.alt" horiz-adv-x="360" 
d="M56 490h88v-80h4q41 94 169 94l19 -2v-96l-41 4q-64 0 -105.5 -39.5t-41.5 -100.5v-270h-92v490z" />
    <glyph glyph-name="uni03BC" 
d="M486 490v-490h-88v68h-4q-50 -84 -151 -84q-53 0 -99 40h-4l4 -56v-184h-92v706h92v-283q0 -139 121 -139q55 0 92 45t37 107v270h92z" />
    <glyph glyph-name="uni2103" horiz-adv-x="973" 
d="M665 -16q-152 0 -254 102q-102 103 -102 256t102 255q102 103 254 103t251 -114l-63 -62q-68 87 -188 87q-115 0 -188 -75q-74 -74 -74 -194q0 -119 74 -195q74 -74 188 -74q121 0 208 99l64 -63q-107 -125 -272 -125zM293 571q0 -54 -39 -91q-38 -38 -91 -38t-93 38
q-38 38 -38 91t38 91q40 38 93 38q54 0 92 -38t38 -91zM163 506q25 0 43.5 19.5t18.5 45.5q1 28 -19 46.5t-45 18.5t-43 -19q-18 -17 -18 -43q0 -13 4.5 -25.5t13 -22t20 -15.5t25.5 -5z" />
    <glyph glyph-name="uni2109" horiz-adv-x="813" 
d="M469 291v-291h-92v684h404v-88h-312v-219h281v-86h-281zM293 571q0 -54 -39 -91q-38 -38 -91 -38t-93 38q-38 38 -38 91t38 91q40 38 93 38q54 0 92 -38t38 -91zM163 506q25 0 43.5 19.5t18.5 45.5q1 28 -19 46.5t-45 18.5t-43 -19q-18 -17 -18 -43q0 -13 4.5 -25.5
t13 -22t20 -15.5t25.5 -5z" />
    <glyph glyph-name="uni2190" horiz-adv-x="1082" 
d="M1026 348v-76h-780v-160l-198 198l198 198v-160h780z" />
    <glyph glyph-name="uni2191" horiz-adv-x="476" 
d="M436 622h-160v-742h-76v742h-160l198 198z" />
    <glyph glyph-name="uni2192" horiz-adv-x="1082" 
d="M836 112v160h-780v76h780v160l198 -198z" />
    <glyph glyph-name="uni2193" horiz-adv-x="476" 
d="M200 792h76v-742h160l-198 -198l-198 198h160v742z" />
    <glyph glyph-name="uni2196" horiz-adv-x="772" 
d="M320 716l-113 -113l565 -565l-54 -54l-565 565l-113 -113v280h280z" />
    <glyph glyph-name="uni2197" horiz-adv-x="772" 
d="M54 -16l-54 54l565 565l-113 113h280v-280l-113 113z" />
    <glyph glyph-name="uni2198" horiz-adv-x="772" 
d="M718 732l54 -54l-565 -565l113 -113h-280v280l113 -113z" />
    <glyph glyph-name="uni2199" horiz-adv-x="772" 
d="M452 0l113 113l-565 565l54 54l565 -565l113 113v-280h-280z" />
    <glyph glyph-name="uni2639" horiz-adv-x="836" 
d="M418 -16q-154 0 -264 110t-110 264t110 264t264 110t264 -110t110 -264t-110 -264t-264 -110zM108 358q0 -128 91 -219t219 -91t219 91t91 219q0 129 -91 219q-90 91 -219 91q-128 0 -219 -91t-91 -219zM605 452q0 -24 -16.5 -40.5t-39.5 -16.5t-39.5 16.5t-16.5 40.5
q0 23 16.5 39t39.5 16t39.5 -16t16.5 -39zM343 452q0 -24 -16.5 -40.5t-39.5 -16.5t-39.5 16.5t-16.5 40.5q0 23 16.5 39t39.5 16t39.5 -16t16.5 -39zM418 301q63 0 112.5 -32t74.5 -87l-67 -31q-16 34 -49 54.5t-71 20.5q-39 0 -71 -20.5t-48 -54.5l-68 31q24 54 75 86.5
t112 32.5z" />
    <glyph glyph-name="uni263A" horiz-adv-x="836" 
d="M418 -16q-154 0 -264 110t-110 264t110 264t264 110t264 -110t110 -264t-110 -264t-264 -110zM108 358q0 -128 91 -219t219 -91t219 91t91 219q0 129 -91 219q-90 91 -219 91q-128 0 -219 -91t-91 -219zM343 452q0 -24 -16.5 -40.5t-39.5 -16.5t-39.5 16.5t-16.5 40.5
q0 23 16.5 39t39.5 16t39.5 -16t16.5 -39zM605 452q0 -24 -16.5 -40.5t-39.5 -16.5t-39.5 16.5t-16.5 40.5q0 23 16.5 39t39.5 16t39.5 -16t16.5 -39zM418 152q-61 0 -112 32.5t-75 86.5l68 31q16 -34 48 -54.5t71 -20.5q38 0 71 20.5t49 54.5l67 -31q-25 -55 -74.5 -87
t-112.5 -32z" />
    <glyph glyph-name="uni2780" horiz-adv-x="836" 
d="M418 -16q-154 0 -264 110t-110 264t110 264t264 110t264 -110t110 -264t-110 -264t-264 -110zM108 358q0 -128 91 -219t219 -91t219 91t91 219q0 129 -91 219q-90 91 -219 91q-128 0 -219 -91t-91 -219zM466 543v-366h-70v285l-64 -26l-24 54l112 53h46z" />
    <glyph glyph-name="uni2781" horiz-adv-x="836" 
d="M418 -16q-154 0 -264 110t-110 264t110 264t264 110t264 -110t110 -264t-110 -264t-264 -110zM108 358q0 -128 91 -219t219 -91t219 91t91 219q0 129 -91 219q-90 91 -219 91q-128 0 -219 -91t-91 -219zM543 241v-64h-250v60l143 144q33 34 33 62q0 19 -15 31.5t-37 12.5
q-49 0 -61 -58l-65 27q9 43 44 69t81 26q53 0 88 -31q37 -30 37 -77q0 -44 -51 -98l-105 -104h158z" />
    <glyph glyph-name="uni2782" horiz-adv-x="836" 
d="M418 -16q-154 0 -264 110t-110 264t110 264t264 110t264 -110t110 -264t-110 -264t-264 -110zM108 358q0 -128 91 -219t219 -91t219 91t91 219q0 129 -91 219q-90 91 -219 91q-128 0 -219 -91t-91 -219zM415 169q-51 0 -86.5 26t-47.5 74l65 24q13 -60 69 -60
q25 0 43 15.5t18 38.5q0 50 -71 50h-30v60h29q60 0 60 47q0 19 -14.5 31t-35.5 12q-42 0 -58 -43l-62 25q28 82 120 82q54 0 88 -29t34 -77q0 -47 -45 -75q57 -33 57 -84q0 -26 -10 -47t-28 -37t-42.5 -24.5t-52.5 -8.5z" />
    <glyph glyph-name="uni2783" horiz-adv-x="836" 
d="M418 -16q-154 0 -264 110t-110 264t110 264t264 110t264 -110t110 -264t-110 -264t-264 -110zM108 358q0 -128 91 -219t219 -91t219 91t91 219q0 129 -91 219q-90 91 -219 91q-128 0 -219 -91t-91 -219zM493 249v-72h-70v72h-171v48l174 246h67v-234h48v-60h-48zM325 309
h98v131h-4z" />
    <glyph glyph-name="uni2784" horiz-adv-x="836" 
d="M418 -16q-154 0 -264 110t-110 264t110 264t264 110t264 -110t110 -264t-110 -264t-264 -110zM108 358q0 -128 91 -219t219 -91t219 91t91 219q0 129 -91 219q-90 91 -219 91q-128 0 -219 -91t-91 -219zM552 296q0 -53 -40 -90q-38 -37 -94 -37q-49 0 -85 24t-48 67
l65 25q13 -52 68 -52q26 0 44 18.5t18 45.5t-18 45.5t-44 18.5q-36 0 -61 -33l-61 25l25 189h209v-60h-150l-12 -81q23 20 59 20q27 0 50 -9.5t39.5 -26t26 -39.5t9.5 -50z" />
    <glyph glyph-name="uni2785" horiz-adv-x="836" 
d="M418 -16q-154 0 -264 110t-110 264t110 264t264 110t264 -110t110 -264t-110 -264t-264 -110zM108 358q0 -128 91 -219t219 -91t219 91t91 219q0 129 -91 219q-90 91 -219 91q-128 0 -219 -91t-91 -219zM547 295q0 -52 -40 -89q-38 -37 -93 -37t-95 37q-39 37 -39 89
q0 51 37 103l116 161l54 -38l-84 -106q5 4 21 4q50 0 86 -37q37 -37 37 -87zM352 296q0 -26 17.5 -44.5t43.5 -18.5t44 18.5t18 44.5t-18 44.5t-44 18.5t-43.5 -18.5t-17.5 -44.5z" />
    <glyph glyph-name="uni2786" horiz-adv-x="836" 
d="M418 -16q-154 0 -264 110t-110 264t110 264t264 110t264 -110t110 -264t-110 -264t-264 -110zM108 358q0 -128 91 -219t219 -91t219 91t91 219q0 129 -91 219q-90 91 -219 91q-128 0 -219 -91t-91 -219zM551 483l-175 -321l-62 33l159 284h-172v64h250v-60z" />
    <glyph glyph-name="uni2787" horiz-adv-x="836" 
d="M418 -16q-154 0 -264 110t-110 264t110 264t264 110t264 -110t110 -264t-110 -264t-264 -110zM108 358q0 -128 91 -219t219 -91t219 91t91 219q0 129 -91 219q-90 91 -219 91q-128 0 -219 -91t-91 -219zM552 283q0 -49 -40 -82q-40 -32 -94 -32t-95 32q-39 33 -39 82
q0 52 51 87q-39 25 -39 72q0 24 9.5 44t26 34.5t38.5 22.5t48 8q51 0 86 -31q36 -32 36 -78q0 -42 -39 -72q51 -35 51 -87zM418 397q20 0 35 13t15 32t-14.5 32t-35.5 13t-35.5 -13t-14.5 -32t14.5 -32t35.5 -13zM418 233q24 0 43 15.5t19 37.5q0 21 -19 36.5t-43 15.5
q-25 0 -43.5 -15t-18.5 -37t18.5 -37.5t43.5 -15.5z" />
    <glyph glyph-name="uni2788" horiz-adv-x="836" 
d="M418 -16q-154 0 -264 110t-110 264t110 264t264 110t264 -110t110 -264t-110 -264t-264 -110zM108 358q0 -128 91 -219t219 -91t219 91t91 219q0 129 -91 219q-90 91 -219 91q-128 0 -219 -91t-91 -219zM282 425q0 50 39 88q41 38 94 38q56 0 94 -37q40 -37 40 -89
q0 -54 -45 -114l-108 -150l-54 38l84 106q-5 -4 -21 -4q-50 0 -87 37q-36 37 -36 87zM477 424q0 26 -17.5 44.5t-43.5 18.5t-44 -18.5t-18 -44.5t18 -44.5t44 -18.5t43.5 18.5t17.5 44.5z" />
    <glyph glyph-name="uni278A" horiz-adv-x="836" 
d="M418 -16q-154 0 -264 110t-110 264t110 264t264 110t264 -110t110 -264t-110 -264t-264 -110zM396 177h70v366h-46l-112 -53l24 -54l64 26v-285z" />
    <glyph glyph-name="uni278B" horiz-adv-x="836" 
d="M418 -16q-154 0 -264 110t-110 264t110 264t264 110t264 -110t110 -264t-110 -264t-264 -110zM293 177h250v64h-158l105 104q51 54 51 98q0 47 -37 77q-35 31 -88 31q-46 0 -81 -26t-44 -69l65 -27q12 58 61 58q22 0 37 -12.5t15 -31.5q0 -28 -33 -62l-143 -144v-60z" />
    <glyph glyph-name="uni278C" horiz-adv-x="836" 
d="M418 -16q-154 0 -264 110t-110 264t110 264t264 110t264 -110t110 -264t-110 -264t-264 -110zM415 165q57 0 95 33t38 84t-57 84q45 28 45 75q0 48 -34 77t-88 29q-92 0 -120 -82l62 -25q16 43 58 43q21 0 35.5 -12t14.5 -31q0 -47 -60 -47h-29v-60h30q71 0 71 -49
q0 -23 -18 -39t-43 -16q-56 0 -69 60l-65 -24q12 -48 47.5 -74t86.5 -26z" />
    <glyph glyph-name="uni278D" horiz-adv-x="836" 
d="M418 -16q-154 0 -264 110t-110 264t110 264t264 110t264 -110t110 -264t-110 -264t-264 -110zM423 177h70v72h48v60h-48v234h-67l-174 -246v-48h171v-72zM423 440v-131h-98l94 131h4z" />
    <glyph glyph-name="uni278E" horiz-adv-x="836" 
d="M418 -16q-154 0 -264 110t-110 264t110 264t264 110t264 -110t110 -264t-110 -264t-264 -110zM418 169q56 0 94 37q40 37 40 90q0 27 -9.5 50t-26 39.5t-39.5 26t-50 9.5q-36 0 -59 -20l12 81h150v60h-209l-25 -189l61 -25q25 33 61 33q26 0 44 -18.5t18 -45.5t-18 -45.5
t-44 -18.5q-55 0 -68 52l-65 -25q12 -43 48 -67t85 -24z" />
    <glyph glyph-name="uni278F" horiz-adv-x="836" 
d="M418 -16q-154 0 -264 110t-110 264t110 264t264 110t264 -110t110 -264t-110 -264t-264 -110zM280 295q0 -52 39 -89q40 -37 95 -37t93 37q40 37 40 89q0 50 -37 87q-36 37 -86 37q-16 0 -21 -4l84 106l-54 38l-116 -161q-37 -52 -37 -103zM475 296q0 -26 -18 -44.5
t-44 -18.5t-43.5 18.5t-17.5 44.5t17.5 44.5t43.5 18.5t44 -18.5t18 -44.5z" />
    <glyph glyph-name="uni2790" horiz-adv-x="836" 
d="M418 -16q-154 0 -264 110t-110 264t110 264t264 110t264 -110t110 -264t-110 -264t-264 -110zM473 479l-159 -284l62 -33l175 321v60h-250v-64h172z" />
    <glyph glyph-name="uni2791" horiz-adv-x="836" 
d="M418 -16q-154 0 -264 110t-110 264t110 264t264 110t264 -110t110 -264t-110 -264t-264 -110zM284 283q0 -49 39 -82q41 -32 95 -32t94 32q40 33 40 82q0 52 -51 87q39 30 39 72q0 46 -36 78q-35 31 -86 31q-52 0 -87 -31q-35 -32 -35 -78q0 -47 39 -72q-51 -35 -51 -87z
M418 397q-21 0 -35.5 13t-14.5 32t14.5 32t35.5 13t35.5 -13t14.5 -32t-15 -32t-35 -13zM480 286q0 -22 -19 -37.5t-43 -15.5q-25 0 -43.5 15.5t-18.5 37.5t18.5 37t43.5 15q24 0 43 -15.5t19 -36.5z" />
    <glyph glyph-name="uni2792" horiz-adv-x="836" 
d="M418 -16q-154 0 -264 110t-110 264t110 264t264 110t264 -110t110 -264t-110 -264t-264 -110zM549 425q0 52 -40 89q-38 37 -94 37q-53 0 -94 -38q-39 -38 -39 -88t36 -87q37 -37 87 -37q14 0 20 3l-83 -105l54 -38l108 150q45 60 45 114zM354 424q0 26 18 44.5t44 18.5
t43.5 -18.5t17.5 -44.5t-17.5 -44.5t-43.5 -18.5t-44 18.5t-18 44.5z" />
    <glyph glyph-name="Google.logo" horiz-adv-x="3284" 
d="M2625 776h116v-776h-116v776zM460 -16q-110 0 -208 56q-98 55 -153 150q-55 94 -55 204q0 109 55 203q56 96 153 151q98 56 208 56q162 0 281 -113l-79 -79q-86 80 -202 80q-124 0 -209 -87q-85 -86 -85 -211t85 -211q85 -87 209 -87q107 0 180 58q75 59 88 165h-268v112
h377q6 -30 6 -70q0 -170 -108 -273q-109 -104 -275 -104zM3059 -16q-112 0 -187 76t-75 188q0 113 71 189q72 75 178 75q39 0 74 -12t64 -34.5t51.5 -53.5t36.5 -68l12 -30l-353 -146q41 -80 128 -80q81 0 130 73l90 -60q-80 -117 -220 -117zM1991 248q0 -111 -77 -188
q-76 -76 -188 -76t-188 76q-77 77 -77 188q0 113 76 188q76 76 189 76q112 0 188 -76q77 -75 77 -188zM1413 248q0 -111 -77 -188q-76 -76 -188 -76t-188 76q-77 77 -77 188q0 113 76 188q76 76 189 76q112 0 188 -76q77 -75 77 -188zM3050 410q-54 0 -98 -44
q-42 -43 -40 -110l236 98q-10 25 -37 40.5t-61 15.5zM2155 247q0 -67 42 -113q43 -46 105 -46q59 0 100 45q41 47 41 114q0 68 -41 115q-40 46 -100 46t-104 -47q-43 -46 -43 -114zM1577 248q0 -68 43 -114t106 -46q62 0 105 46q44 47 44 114q0 70 -43 114q-43 46 -106 46
t-106 -46q-43 -44 -43 -114zM999 248q0 -68 43 -114t106 -46q62 0 105 46q44 47 44 114q0 70 -43 114q-43 46 -106 46t-106 -46q-43 -44 -43 -114zM2294 -253q-40 0 -76 11.5t-66.5 32t-53.5 49t-38 63.5l101 42q18 -42 53 -68t80 -26q141 0 141 166v27h-4q-50 -60 -139 -60
q-101 0 -178 77q-75 78 -75 186q0 109 75 187q76 78 178 78q89 0 139 -59h4v43h110v-474q0 -132 -66.5 -203.5t-184.5 -71.5z" />
    <glyph glyph-name="G.logo" horiz-adv-x="861" 
d="M460 -16q-110 0 -208 56q-98 55 -153 150q-55 94 -55 204q0 109 55 203q56 96 153 151q98 56 208 56q162 0 281 -113l-79 -79q-86 80 -202 80q-124 0 -209 -87q-85 -86 -85 -211t85 -211q85 -87 209 -87q107 0 180 58q75 59 88 165h-268v112h377q6 -30 6 -70
q0 -170 -108 -273q-109 -104 -275 -104z" />
    <glyph glyph-name="o.logo" horiz-adv-x="578" 
d="M552 248q0 -111 -77 -188q-76 -76 -188 -76t-188 76q-77 77 -77 188q0 113 76 188q76 76 189 76q112 0 188 -76q77 -75 77 -188zM138 248q0 -68 43 -114t106 -46q62 0 105 46q44 47 44 114q0 70 -43 114q-43 46 -106 46t-106 -46q-43 -44 -43 -114z" />
    <glyph glyph-name="g.logo" horiz-adv-x="566" 
d="M138 247q0 -67 42.5 -113t104.5 -46q60 0 100.5 45.5t40.5 113.5q0 69 -40.5 115t-100.5 46q-61 0 -104 -46.5t-43 -114.5zM277 -253q-80 0 -142.5 43t-91.5 113l101 42q18 -42 53.5 -68t79.5 -26q141 0 141 166v27h-4q-49 -60 -139 -60q-102 0 -177.5 77.5t-75.5 185.5
q0 109 75.5 187t177.5 78q89 0 139 -59h4v43h110v-474q0 -131 -67 -203t-184 -72z" />
    <glyph glyph-name="l.logo" horiz-adv-x="187" 
d="M42 776h116v-776h-116v776z" />
    <glyph glyph-name="e.logo" horiz-adv-x="514" 
d="M289 -16q-112 0 -187 76t-75 188q0 114 71.5 189t177.5 75q78 0 138 -46.5t88 -121.5l12 -30l-353 -146q40 -80 128 -80q81 0 130 73l90 -60q-79 -117 -220 -117zM280 410q-55 0 -97.5 -44t-40.5 -110l236 98q-10 25 -37 40.5t-61 15.5z" />
    <glyph glyph-name="caron.alt" horiz-adv-x="400" 
d="M250 716l-36 -210h-64v210h100z" />
    <glyph glyph-name="dotaccent.cap" horiz-adv-x="232" 
d="M168 856q0 -21 -15 -36.5t-37 -15.5q-20 0 -36 16t-16 36q0 22 15.5 37t36.5 15q23 0 37.5 -14.5t14.5 -37.5z" />
    <glyph glyph-name="uni00200326" horiz-adv-x="400" 
d="M242 -155l-61 -89l-40 28l39 55q-44 9 -44 55q0 23 17.5 40.5t41.5 17.5q26 0 43 -17.5t17 -43.5q0 -24 -13 -46z" />
    <glyph glyph-name="K.alt" horiz-adv-x="610" 
d="M474 716h120v-4l-318 -362l334 -346v-4h-128l-314 336h-4v-336h-92v716h92v-356h4z" />
    <glyph glyph-name="a.alt" horiz-adv-x="572" 
d="M276 68q68 0 111 49q45 49 45 128q0 77 -45 127q-44 50 -111 50q-66 0 -111 -50t-45 -127q0 -78 45 -127q45 -50 111 -50zM261 -16q-96 0 -165 75q-68 77 -68 186t68 185q69 76 165 76q54 0 98.5 -23t68.5 -61h4v68h88v-490h-88v68h-4q-24 -38 -68.5 -61t-98.5 -23z" />
    <glyph glyph-name="quoteright.alt" horiz-adv-x="277" 
d="M120 506h-80l81 210h116z" />
    </font>
</defs>
</svg>
