<?xml version="1.0" standalone="no"?>
<!DOCTYPE svg PUBLIC "-//W3C//DTD SVG 1.1//EN" "http://www.w3.org/Graphics/SVG/1.1/DTD/svg11.dtd" >
<svg xmlns="http://www.w3.org/2000/svg" xmlns:xlink="http://www.w3.org/1999/xlink" version="1.1">
<metadata>
Created by FontForge 20170731 at Mon Sep  3 21:42:50 2018
 By Aleksey,,,
</metadata>
<defs>
<font id="ProductSans-LightItalic" horiz-adv-x="535" >
  <font-face 
    font-family="Product Sans Light"
    font-weight="300"
    font-style="italic"
    font-stretch="normal"
    units-per-em="1000"
    panose-1="2 11 3 3 3 5 2 9 2 3"
    ascent="800"
    descent="-200"
    x-height="490"
    cap-height="716"
    bbox="-224 -253 3284 958"
    underline-thickness="50"
    underline-position="-275"
    slope="-10"
    unicode-range="U+000D-2215"
  />
<missing-glyph horiz-adv-x="566" 
d="M77 716h412v-716h-412v716zM127 47h312v622h-312v-622z" />
    <glyph glyph-name="f_i" unicode="fi" horiz-adv-x="531" 
d="M327 724q26 0 43.5 -6.5t30.5 -16.5l-28 -53q-9 7 -22.5 12t-29.5 5q-37 0 -65.5 -23t-37.5 -73l-14 -79h284l-86 -490h-64l76 432h-221l-75 -432h-64l75 432h-92l11 58h92l15 85q14 75 61 112t111 37zM486 610q-21 0 -35.5 14.5t-14.5 34.5q0 21 14.5 35.5t35.5 14.5
q20 0 34.5 -14.5t14.5 -35.5q0 -20 -14.5 -34.5t-34.5 -14.5z" />
    <glyph glyph-name="f_l" unicode="fl" horiz-adv-x="526" 
d="M338 0l117 662h-130q-42 0 -70.5 -23t-36.5 -70l-14 -79h128l-11 -58h-128l-75 -432h-64l75 432h-92l11 58h92l15 84q12 69 57 107.5t123 38.5h195l-128 -720h-64z" />
    <glyph glyph-name="f_b" unicode="fb" horiz-adv-x="911" 
d="M584 -16q-31 0 -57.5 9t-47.5 23t-36.5 32.5t-25.5 38.5h-4l-15 -87h-60l117 662h-130q-42 0 -70.5 -23t-36.5 -70l-14 -79h128l-11 -58h-128l-75 -432h-64l75 432h-92l11 58h92l15 84q12 69 57 107.5t123 38.5h195l-45 -247l-16 -68h4q26 41 74 71t118 30q44 0 81 -16
t63.5 -45.5t41.5 -70.5t15 -92q0 -56 -20.5 -109.5t-57.5 -95.5t-89 -67.5t-115 -25.5zM587 42q46 0 85.5 19.5t68 52t44.5 74.5t16 87q0 82 -41.5 127.5t-110.5 45.5q-46 0 -85 -21t-67 -54.5t-44 -76.5t-16 -87q0 -41 12 -72.5t32 -52.5t47.5 -31.5t58.5 -10.5z" />
    <glyph glyph-name="f_f" unicode="ff" horiz-adv-x="631" 
d="M611 724q26 0 43.5 -6.5t30.5 -16.5l-28 -53q-9 7 -22.5 12t-29.5 5q-37 0 -65.5 -23t-37.5 -73l-14 -79h128l-11 -58h-128l-75 -432h-64l75 432h-220l-75 -432h-64l75 432h-92l11 58h92l15 85q14 75 61 112t111 37q26 0 43.5 -6.5t30.5 -16.5l-28 -53q-9 7 -22.5 12
t-29.5 5q-37 0 -65.5 -23t-37.5 -73l-14 -79h220l15 85q14 75 61 112t111 37z" />
    <glyph glyph-name="f_f_b" unicode="ffb" horiz-adv-x="1195" 
d="M868 -16q-31 0 -57.5 9t-47.5 23t-36.5 32.5t-25.5 38.5h-4l-15 -87h-60l117 662h-130q-42 0 -70.5 -23t-36.5 -70l-14 -79h128l-11 -58h-128l-75 -432h-64l75 432h-220l-75 -432h-64l75 432h-92l11 58h92l15 85q14 75 61 112t111 37q26 0 43.5 -6.5t30.5 -16.5l-28 -53
q-9 7 -22.5 12t-29.5 5q-37 0 -65.5 -23t-37.5 -73l-14 -79h220l15 84q12 69 57 107.5t123 38.5h195l-45 -247l-16 -68h4q26 41 74 71t118 30q44 0 81 -16t63.5 -45.5t41.5 -70.5t15 -92q0 -56 -20.5 -109.5t-57.5 -95.5t-89 -67.5t-115 -25.5zM871 42q46 0 85.5 19.5t68 52
t44.5 74.5t16 87q0 82 -41.5 127.5t-110.5 45.5q-46 0 -85 -21t-67 -54.5t-44 -76.5t-16 -87q0 -41 12 -72.5t32 -52.5t47.5 -31.5t58.5 -10.5z" />
    <glyph glyph-name="f_f_h" unicode="ffh" horiz-adv-x="1161" 
d="M770 474l-18 -78h4q31 50 80 80t112 30q40 0 68.5 -12t47.5 -32t28 -47.5t9 -58.5q0 -24 -6 -55l-53 -301h-64l53 300q2 14 3 23t1 19q0 49 -28 77.5t-80 28.5q-35 0 -67.5 -16t-59 -43t-45 -63t-25.5 -77l-44 -249h-64l117 662h-130q-42 0 -70.5 -23t-36.5 -70l-14 -79
h128l-11 -58h-128l-75 -432h-64l75 432h-220l-75 -432h-64l75 432h-92l11 58h92l15 85q14 75 61 112t111 37q26 0 43.5 -6.5t30.5 -16.5l-28 -53q-9 7 -22.5 12t-29.5 5q-37 0 -65.5 -23t-37.5 -73l-14 -79h220l15 84q12 69 57 107.5t123 38.5h195z" />
    <glyph glyph-name="f_f_i" unicode="ffi" horiz-adv-x="815" 
d="M611 724q26 0 43.5 -6.5t30.5 -16.5l-28 -53q-9 7 -22.5 12t-29.5 5q-37 0 -65.5 -23t-37.5 -73l-14 -79h284l-86 -490h-64l75 432h-220l-75 -432h-64l75 432h-220l-75 -432h-64l75 432h-92l11 58h92l15 85q14 75 61 112t111 37q26 0 43.5 -6.5t30.5 -16.5l-28 -53
q-9 7 -22.5 12t-29.5 5q-37 0 -65.5 -23t-37.5 -73l-14 -79h220l15 85q14 75 61 112t111 37zM770 610q-21 0 -35.5 14.5t-14.5 34.5q0 21 14.5 35.5t35.5 14.5q20 0 34.5 -14.5t14.5 -35.5q0 -20 -14.5 -34.5t-34.5 -14.5z" />
    <glyph glyph-name="f_f_j" unicode="ffj" horiz-adv-x="814" 
d="M611 724q26 0 43.5 -6.5t30.5 -16.5l-28 -53q-9 7 -22.5 12t-29.5 5q-37 0 -65.5 -23t-37.5 -73l-14 -79h284l-104 -588q-11 -64 -47 -96t-93 -32q-33 0 -51 10l24 56q13 -8 33 -8q56 0 70 75l94 525h-221l-75 -432h-64l75 432h-220l-75 -432h-64l75 432h-92l11 58h92
l15 85q14 75 61 112t111 37q26 0 43.5 -6.5t30.5 -16.5l-28 -53q-9 7 -22.5 12t-29.5 5q-37 0 -65.5 -23t-37.5 -73l-14 -79h220l15 85q14 75 61 112t111 37zM769 610q-20 0 -34.5 14.5t-14.5 34.5q0 21 14.5 35.5t34.5 14.5q21 0 35.5 -14.5t14.5 -35.5q0 -20 -14.5 -34.5
t-35.5 -14.5z" />
    <glyph glyph-name="f_f_k" unicode="ffk" horiz-adv-x="1095" 
d="M729 243l289 247h84l-1 -4l-217 -184l150 -298l-1 -4h-73l-128 258l-118 -101l-28 -157h-64l117 662h-130q-42 0 -70.5 -23t-36.5 -70l-14 -79h128l-11 -58h-128l-75 -432h-64l75 432h-220l-75 -432h-64l75 432h-92l11 58h92l15 85q14 75 61 112t111 37q26 0 43.5 -6.5
t30.5 -16.5l-28 -53q-9 7 -22.5 12t-29.5 5q-37 0 -65.5 -23t-37.5 -73l-14 -79h220l15 84q12 69 57 107.5t123 38.5h195z" />
    <glyph glyph-name="f_f_l" unicode="ffl" horiz-adv-x="810" 
d="M622 0l117 662h-130q-42 0 -70.5 -23t-36.5 -70l-14 -79h128l-11 -58h-128l-75 -432h-64l75 432h-220l-75 -432h-64l75 432h-92l11 58h92l15 85q14 75 61 112t111 37q26 0 43.5 -6.5t30.5 -16.5l-28 -53q-9 7 -22.5 12t-29.5 5q-37 0 -65.5 -23t-37.5 -73l-14 -79h220
l15 84q12 69 57 107.5t123 38.5h195l-128 -720h-64z" />
    <glyph glyph-name="f_f_t" unicode="fft" horiz-adv-x="908" 
d="M750 -8q-22 0 -41.5 7t-34.5 20.5t-23.5 33t-8.5 45.5q0 8 1 19t5 34l50 281h-221l-75 -432h-64l75 432h-220l-75 -432h-64l75 432h-92l11 58h92l15 85q14 75 61 112t111 37q26 0 43.5 -6.5t30.5 -16.5l-28 -53q-9 7 -22.5 12t-29.5 5q-37 0 -65.5 -23t-37.5 -73l-14 -79
h220l15 85q14 75 61 112t111 37q26 0 43.5 -6.5t30.5 -16.5l-28 -53q-9 7 -22.5 12t-29.5 5q-37 0 -65.5 -23t-37.5 -73l-14 -79h220l27 150h64l-27 -150h122l-10 -58h-122l-52 -292q-2 -8 -3 -15.5t-1 -14.5q0 -25 14.5 -42t43.5 -17q15 0 26 2.5t25 8.5l12 -55
q-20 -8 -37 -11.5t-40 -3.5z" />
    <glyph glyph-name="f_h" unicode="fh" horiz-adv-x="876" 
d="M486 474l-18 -78h4q31 50 80 80t112 30q40 0 68.5 -12t47.5 -32t28 -47.5t9 -58.5q0 -24 -6 -55l-53 -301h-64l53 300q2 14 3 23t1 19q0 49 -28 77.5t-80 28.5q-35 0 -67.5 -16t-59 -43t-45 -63t-25.5 -77l-44 -249h-64l117 662h-130q-42 0 -70.5 -23t-36.5 -70l-14 -79
h128l-11 -58h-128l-75 -432h-64l75 432h-92l11 58h92l15 84q12 69 57 107.5t123 38.5h195z" />
    <glyph glyph-name="f_j" unicode="fj" horiz-adv-x="530" 
d="M118 0h-64l75 432h-92l11 58h92l15 85q14 75 61 112t111 37q26 0 43.5 -6.5t30.5 -16.5l-28 -53q-9 7 -22.5 12t-29.5 5q-37 0 -65.5 -23t-37.5 -73l-14 -79h284l-104 -588q-11 -64 -47 -96t-93 -32q-33 0 -51 10l24 56q13 -8 33 -8q56 0 70 75l94 525h-221zM485 610
q-20 0 -34.5 14.5t-14.5 34.5q0 21 14.5 35.5t34.5 14.5q21 0 35.5 -14.5t14.5 -35.5q0 -20 -14.5 -34.5t-35.5 -14.5z" />
    <glyph glyph-name="f_k" unicode="fk" horiz-adv-x="811" 
d="M445 243l289 247h84l-1 -4l-217 -184l150 -298l-1 -4h-73l-128 258l-118 -101l-28 -157h-64l117 662h-130q-42 0 -70.5 -23t-36.5 -70l-14 -79h128l-11 -58h-128l-75 -432h-64l75 432h-92l11 58h92l15 84q12 69 57 107.5t123 38.5h195z" />
    <glyph glyph-name="f_t" unicode="ft" horiz-adv-x="624" 
d="M327 724q26 0 43.5 -6.5t30.5 -16.5l-28 -53q-9 7 -22.5 12t-29.5 5q-37 0 -65.5 -23t-37.5 -73l-14 -79h220l27 150h64l-27 -150h122l-10 -58h-122l-52 -292q-2 -8 -3 -15.5t-1 -14.5q0 -25 14.5 -42t43.5 -17q15 0 26 2.5t25 8.5l12 -55q-17 -8 -35.5 -11.5t-41.5 -3.5
q-22 0 -41.5 7t-34.5 20.5t-23.5 33t-8.5 45.5q0 8 1 19t5 34l50 281h-221l-75 -432h-64l75 432h-92l11 58h92l15 85q14 75 61 112t111 37z" />
    <glyph glyph-name="r_f" unicode="rf" horiz-adv-x="690" 
d="M128 407h4q23 46 66 71.5t94 25.5q11 0 19.5 -0.5t16.5 -2.5l-12 -64q-16 4 -40 4q-29 0 -56.5 -13t-50 -36t-39 -54.5t-22.5 -67.5l-48 -270h-64l87 490h60zM670 724q26 0 43.5 -6.5t30.5 -16.5l-28 -53q-9 7 -22.5 12t-29.5 5q-37 0 -65.5 -23t-37.5 -73l-14 -79h128
l-11 -58h-128l-75 -432h-64l75 432h-92l11 58h92l15 85q14 75 61 112t111 37z" />
    <glyph glyph-name="r_f_f" unicode="rff" horiz-adv-x="974" 
d="M954 724q26 0 43.5 -6.5t30.5 -16.5l-28 -53q-9 7 -22.5 12t-29.5 5q-37 0 -65.5 -23t-37.5 -73l-14 -79h128l-11 -58h-128l-75 -432h-64l75 432h-220l-75 -432h-64l75 432h-92l11 58h92l15 85q14 75 61 112t111 37q26 0 43.5 -6.5t30.5 -16.5l-28 -53q-9 7 -22.5 12
t-29.5 5q-37 0 -65.5 -23t-37.5 -73l-14 -79h220l15 85q14 75 61 112t111 37zM128 407h4q23 46 66 71.5t94 25.5q11 0 19.5 -0.5t16.5 -2.5l-12 -64q-16 4 -40 4q-29 0 -56.5 -13t-50 -36t-39 -54.5t-22.5 -67.5l-48 -270h-64l87 490h60z" />
    <glyph glyph-name="r_t" unicode="rt" horiz-adv-x="681" 
d="M128 407h4q23 46 66 71.5t94 25.5q11 0 19.5 -0.5t16.5 -2.5l-12 -64q-16 4 -40 4q-29 0 -56.5 -13t-50 -36t-39 -54.5t-22.5 -67.5l-48 -270h-64l87 490h60zM523 -8q-22 0 -41.5 7t-34.5 20.5t-23.5 33t-8.5 45.5q0 8 1 19t5 34l50 281h-89l10 58h89l27 150h64l-27 -150
h122l-10 -58h-122l-52 -292q-2 -8 -3 -15.5t-1 -14.5q0 -25 14.5 -42t43.5 -17q15 0 26 2.5t25 8.5l12 -55q-20 -8 -37 -11.5t-40 -3.5z" />
    <glyph glyph-name="t_f" unicode="tf" horiz-adv-x="629" 
d="M140 140q-2 -8 -3 -15.5t-1 -14.5q0 -25 14.5 -42t43.5 -17q15 0 26 2.5t25 8.5l12 -55q-20 -8 -37 -11.5t-40 -3.5q-22 0 -41.5 7t-34.5 20.5t-23.5 33t-8.5 45.5q0 8 1 19t5 34l50 281h-89l10 58h89l27 150h64l-27 -150h220l15 85q14 75 61 112t111 37q26 0 43.5 -6.5
t30.5 -16.5l-28 -53q-9 7 -22.5 12t-29.5 5q-37 0 -65.5 -23t-37.5 -73l-14 -79h128l-11 -58h-128l-75 -432h-64l75 432h-219z" />
    <glyph glyph-name="t_t" unicode="tt" horiz-adv-x="626" 
d="M468 -8q-22 0 -41.5 7t-34.5 20.5t-23.5 33t-8.5 45.5q0 8 1 19t5 34l50 281h-224l-52 -292q-2 -8 -3 -15.5t-1 -14.5q0 -25 14.5 -42t43.5 -17q15 0 26 2.5t25 8.5l12 -55q-20 -8 -37 -11.5t-40 -3.5q-22 0 -41.5 7t-34.5 20.5t-23.5 33t-8.5 45.5q0 8 1 19t5 34l50 281
h-89l10 58h89l27 150h64l-27 -150h224l27 150h64l-27 -150h122l-10 -58h-122l-52 -292q-2 -8 -3 -15.5t-1 -14.5q0 -25 14.5 -42t43.5 -17q15 0 26 2.5t25 8.5l12 -55q-20 -8 -37 -11.5t-40 -3.5z" />
    <glyph glyph-name=".notdef" horiz-adv-x="566" 
d="M77 716h412v-716h-412v716zM127 47h312v622h-312v-622z" />
    <glyph glyph-name=".null" horiz-adv-x="0" 
 />
    <glyph glyph-name="uni000D" horiz-adv-x="0" 
d="M0 0z" />
    <glyph glyph-name="NULL" horiz-adv-x="0" 
d="M0 0z" />
    <glyph glyph-name="NULL" horiz-adv-x="0" 
d="M0 0z" />
    <glyph glyph-name="nonmarkingreturn" unicode="&#xd;" horiz-adv-x="333" 
 />
    <glyph glyph-name="space" unicode=" " horiz-adv-x="235" 
d="M0 0z" />
    <glyph glyph-name="exclam" unicode="!" horiz-adv-x="205" 
d="M49 -6q-22 0 -37 15t-15 37t15 36.5t37 14.5t36.5 -14.5t14.5 -36.5t-14.5 -37t-36.5 -15zM82 425l52 291h64l-52 -291l-51 -243h-46z" />
    <glyph glyph-name="quotedbl" unicode="&#x22;" horiz-adv-x="281" 
d="M203 510l36 206h58l-36 -206h-58zM74 510l36 206h58l-36 -206h-58z" />
    <glyph glyph-name="numbersign" unicode="#" horiz-adv-x="615" 
d="M110 0l36 213h-125l11 54h124l28 159h-125l11 54h123l36 204h58l-36 -204h158l36 204h58l-36 -204h126l-11 -54h-124l-28 -159h125l-10 -54h-125l-36 -213h-58l36 213h-158l-36 -213h-58zM214 267h158l28 159h-158z" />
    <glyph glyph-name="dollar" unicode="$" horiz-adv-x="525" 
d="M177 -13q-32 5 -62 19t-55 36.5t-42 53.5t-23 69l61 24q8 -57 42.5 -94.5t88.5 -47.5l50 281q-33 15 -61 32.5t-48.5 40t-32.5 50.5t-12 63q0 39 16 72t44.5 57.5t69 39t89.5 16.5l15 85h54l-15 -87q61 -10 98 -48t51 -85l-61 -24q-11 32 -34 59t-65 36l-47 -265
q35 -16 63.5 -34t49 -40.5t31.5 -50t11 -61.5q0 -45 -17 -80.5t-47 -61t-70.5 -40t-87.5 -17.5l-15 -85h-54zM388 179q0 46 -27.5 74.5t-73.5 51.5l-46 -259q30 2 56.5 11t46.5 25.5t32 40.5t12 56zM148 515q0 -42 28 -72t72 -51l43 246q-30 -2 -56 -10.5t-45.5 -23.5
t-30.5 -37.5t-11 -51.5z" />
    <glyph glyph-name="percent" unicode="%" horiz-adv-x="810" 
d="M104 28l561 659l38 -32l-561 -659zM209 358q-31 0 -58 11.5t-46.5 31.5t-30.5 47t-11 59q0 40 14.5 75t40 61.5t61.5 41.5t78 15q32 0 58.5 -11.5t46 -31.5t30 -47t10.5 -58q0 -41 -14.5 -76.5t-40.5 -61.5t-61 -41t-77 -15zM215 407q29 0 53.5 10.5t42.5 29.5t28 44
t10 55q0 22 -7.5 41.5t-21 34t-31 22.5t-38.5 8q-29 0 -54 -11t-43 -29.5t-28 -44t-10 -55.5q0 -47 28 -76t71 -29zM552 -16q-31 0 -58 11.5t-46.5 31.5t-30.5 47t-11 59q0 40 14.5 75t40 61.5t61.5 41.5t78 15q32 0 58.5 -11.5t46 -31.5t30 -47t10.5 -58q0 -41 -14.5 -76.5
t-40.5 -61.5t-61 -41t-77 -15zM558 33q29 0 53.5 10.5t42.5 29.5t28 44t10 55q0 22 -7.5 41.5t-21 34t-31 22.5t-38.5 8q-29 0 -54 -11t-43 -29.5t-28 -44t-10 -55.5q0 -47 28 -76t71 -29z" />
    <glyph glyph-name="ampersand" unicode="&#x26;" horiz-adv-x="604" 
d="M450 110l55 -94l-55 -32l-45 76q-42 -40 -87 -58t-97 -18q-46 0 -85 15.5t-67 43.5t-44 66.5t-16 85.5q0 81 45 143.5t126 105.5l-4 6q-11 20 -21.5 48.5t-10.5 62.5q0 33 12.5 64t36 55t56 38t73.5 14q33 0 58.5 -9.5t45 -26.5t32 -40t19.5 -49l-61 -25q-5 17 -13 33
t-20 28.5t-28.5 20t-38.5 7.5q-45 0 -75.5 -31.5t-30.5 -80.5q0 -23 7.5 -45t21.5 -45l181 -307l93 133l44 -32zM229 43q46 0 81.5 17t65.5 49l-167 285q-28 -14 -53 -33t-44 -43.5t-30.5 -54t-11.5 -64.5q0 -33 11.5 -61.5t32.5 -49.5t50 -33t65 -12z" />
    <glyph glyph-name="quotesingle" unicode="'" horiz-adv-x="152" 
d="M74 510l36 206h58l-36 -206h-58z" />
    <glyph glyph-name="parenleft" unicode="(" horiz-adv-x="315" 
d="M363 744q-54 -50 -98.5 -106.5t-76 -120.5t-49 -135.5t-17.5 -151.5q0 -103 28 -186.5t68 -146.5l-46 -33q-21 30 -41 69.5t-36 86.5t-26 102t-10 117q0 80 19.5 156t55 145t84.5 129.5t109 110.5z" />
    <glyph glyph-name="parenright" unicode=")" horiz-adv-x="315" 
d="M-48 -100q54 50 98.5 106.5t76 120.5t49 135.5t17.5 151.5q0 103 -28 186.5t-68 146.5l47 33q21 -30 41 -69.5t36 -86.5t26 -102t10 -116q0 -80 -19.5 -156t-55 -145.5t-85 -130.5t-109.5 -110z" />
    <glyph glyph-name="asterisk" unicode="*" horiz-adv-x="413" 
d="M107 634l105 -40l8 4l21 118h56l-21 -118l7 -4l109 38l17 -52l-118 -42l-4 -9l55 -99l-51 -33l-55 101h-9l-90 -101l-42 37l94 101l-2 9l-102 38z" />
    <glyph glyph-name="plus" unicode="+" horiz-adv-x="544" 
d="M288 298h186l-10 -54h-185l-33 -185h-54l33 185h-186l10 54h185l33 186h54z" />
    <glyph glyph-name="comma" unicode="," horiz-adv-x="217" 
d="M-20 -80l66 79q-9 4 -19.5 15.5t-10.5 31.5q0 22 15.5 36.5t35.5 14.5q21 0 36.5 -13.5t15.5 -35.5q0 -14 -8.5 -27t-21.5 -29l-81 -95z" />
    <glyph glyph-name="hyphen" unicode="-" horiz-adv-x="429" 
d="M55 337h310l-9 -54h-310z" />
    <glyph glyph-name="period" unicode="." horiz-adv-x="205" 
d="M48 -6q-22 0 -37 15t-15 37t15 36.5t37 14.5t37 -14.5t15 -36.5t-15 -37t-37 -15z" />
    <glyph glyph-name="slash" unicode="/" horiz-adv-x="415" 
d="M-36 0l423 716h63l-424 -716h-62z" />
    <glyph glyph-name="zero" unicode="0" horiz-adv-x="630" 
d="M257 -16q-49 0 -89.5 20.5t-69 58t-44.5 90t-16 117.5q0 79 23.5 156t67 138t105 98.5t138.5 37.5q49 0 89.5 -20.5t69.5 -58t44.5 -90.5t15.5 -117q0 -80 -23.5 -157t-67 -137.5t-105.5 -98t-138 -37.5zM265 45q58 0 105.5 33t82 84t53.5 113t19 120q0 114 -40.5 179
t-121.5 65q-55 0 -102.5 -32.5t-82.5 -83.5t-55 -114.5t-20 -126.5q0 -54 10.5 -97.5t30.5 -74.5t50.5 -48t70.5 -17z" />
    <glyph glyph-name="one" unicode="1" horiz-adv-x="351" 
d="M133 0l106 601l-133 -58l-22 53l193 88h41l-121 -684h-64z" />
    <glyph glyph-name="two" unicode="2" horiz-adv-x="512" 
d="M-19 0l11 65q62 53 118 101q24 21 49 42.5t49 42.5q24 20 44.5 38t35.5 32q28 25 52.5 48t41.5 46t27 48t10 55q0 52 -32.5 86.5t-96.5 34.5q-33 0 -58.5 -11t-44.5 -28t-31 -37t-19 -38l-56 26q9 25 25.5 51.5t43 48t63.5 35.5t85 14q43 0 77.5 -13.5t59 -37t37.5 -54.5
t13 -67q0 -39 -12 -72t-33 -62.5t-49 -56.5t-60 -55q-11 -9 -27 -23q-16 -15 -36 -32t-42 -36q-22 -20 -43 -38q-50 -43 -107 -92h337l-11 -61h-421z" />
    <glyph glyph-name="three" unicode="3" horiz-adv-x="520" 
d="M205 -16q-35 0 -68.5 10.5t-61 31.5t-46.5 53t-25 75l62 24q9 -64 48.5 -98.5t98.5 -34.5q35 0 66.5 11.5t55.5 32t38 49.5t14 64q0 61 -38 95.5t-99 34.5h-58l10 60h57q36 0 65.5 10t50.5 28t32.5 42.5t11.5 54.5q0 51 -33.5 81.5t-88.5 30.5q-30 0 -54 -9t-42 -23.5
t-31 -34t-22 -40.5l-58 28q12 29 31 54.5t45.5 44.5t60.5 30t76 11q41 0 74.5 -12.5t57.5 -34.5t37 -52t13 -65q0 -33 -10.5 -60.5t-28 -49t-40.5 -37t-47 -24.5l-1 -4q40 -17 67.5 -56t27.5 -94q0 -52 -20 -94t-54.5 -71.5t-79.5 -45.5t-94 -16z" />
    <glyph glyph-name="four" unicode="4" horiz-adv-x="579" 
d="M316 0l28 157h-337l8 44l411 483h75l-83 -467h88l-10 -60h-88l-28 -157h-64zM419 587h-4l-312 -370h251z" />
    <glyph glyph-name="five" unicode="5" horiz-adv-x="550" 
d="M215 -16q-37 0 -72 11.5t-63 35t-47 58t-23 79.5l61 22q8 -67 46 -106t102 -39q42 0 78 14.5t61.5 40t40 60t14.5 74.5q0 69 -37.5 108t-103.5 39q-41 0 -78 -18t-65 -49l-64 30l104 340h343l-11 -61h-289l-75 -238l4 -1q29 25 66 40.5t81 15.5q41 0 76 -13.5t60.5 -39
t39.5 -62.5t14 -84q0 -52 -19 -98.5t-53.5 -82t-83 -56t-107.5 -20.5z" />
    <glyph glyph-name="six" unicode="6" horiz-adv-x="548" 
d="M297 434q38 0 72 -14.5t59.5 -41t40.5 -63t15 -80.5q0 -54 -20.5 -100t-55.5 -79.5t-82 -52.5t-100 -19q-46 0 -84.5 16.5t-66.5 44t-43.5 64.5t-15.5 79q0 34 8 64t23 57.5t36.5 55.5t48.5 59l240 276l46 -36l-224 -258l2 -2q22 14 47 22t54 8zM234 45q39 0 72.5 14.5
t58.5 39t39.5 58t14.5 72.5q0 33 -11 60t-31 46.5t-47.5 30t-60.5 10.5q-39 0 -73 -15t-59.5 -40t-40 -59t-14.5 -71q0 -32 12 -59t33 -46.5t48.5 -30t58.5 -10.5z" />
    <glyph glyph-name="seven" unicode="7" horiz-adv-x="516" 
d="M27 21l424 602h-361l13 61h429l-11 -66l-444 -634z" />
    <glyph glyph-name="eight" unicode="8" horiz-adv-x="541" 
d="M213 -16q-45 0 -82.5 14.5t-64.5 39t-41.5 57t-14.5 68.5q0 70 42.5 121t111.5 77l1 4q-12 9 -25 21.5t-23.5 29t-17.5 37t-7 45.5q0 42 17.5 78.5t48.5 64t73 43.5t92 16q40 0 73.5 -11.5t57.5 -33t37.5 -52t13.5 -67.5q0 -33 -10.5 -60t-28 -48.5t-40 -37.5t-46.5 -26
l-1 -4q38 -20 65.5 -59.5t27.5 -90.5q0 -50 -20.5 -91.5t-56 -71.5t-82.5 -46.5t-100 -16.5zM279 389q31 0 60.5 10.5t51.5 28.5t35.5 42.5t13.5 52.5q0 56 -35.5 86t-91.5 30q-30 0 -58 -10t-49.5 -28t-34.5 -43.5t-13 -56.5q0 -26 9.5 -46.5t26 -35t38.5 -22.5t47 -8z
M218 45q37 0 71 11.5t60 32.5t42 51t16 67q0 57 -40.5 90.5t-102.5 33.5q-35 0 -68.5 -11t-60 -32t-43 -51.5t-16.5 -69.5q0 -27 11 -49.5t30 -38.5t45 -25t56 -9z" />
    <glyph glyph-name="nine" unicode="9" horiz-adv-x="548" 
d="M248 250q-39 0 -73 15t-59.5 41t-40.5 62.5t-15 80.5q0 55 20.5 101t55.5 79.5t82 52t100 18.5q46 0 84.5 -16t66.5 -44t43.5 -65t15.5 -79q0 -34 -8 -63.5t-23 -57.5t-36.5 -56t-48.5 -59l-240 -276l-45 37l224 257l-2 2q-22 -14 -47.5 -22t-53.5 -8zM311 639
q-39 0 -73 -14.5t-58.5 -39t-39 -58t-14.5 -72.5q0 -33 11 -60t31 -46.5t47.5 -30t59.5 -10.5q39 0 73.5 15t59.5 40.5t39.5 59t14.5 70.5q0 32 -12 59t-32.5 46.5t-48 30t-58.5 10.5z" />
    <glyph glyph-name="colon" unicode=":" horiz-adv-x="205" 
d="M48 -6q-22 0 -37 15t-15 37t15 36.5t37 14.5t37 -14.5t15 -36.5t-15 -37t-37 -15zM118 393q-22 0 -36.5 15t-14.5 37t14.5 36.5t36.5 14.5t37 -14.5t15 -36.5t-15 -37t-37 -15z" />
    <glyph glyph-name="semicolon" unicode=";" horiz-adv-x="203" 
d="M118 393q-22 0 -36.5 15t-14.5 37t14.5 36.5t36.5 14.5t37 -14.5t15 -36.5t-15 -37t-37 -15zM-36 -70l66 79q-8 4 -18.5 15.5t-10.5 30.5q0 23 15 37.5t36 14.5q20 0 36 -13.5t16 -36.5q0 -14 -9 -27t-22 -28l-81 -96z" />
    <glyph glyph-name="less" unicode="&#x3c;" horiz-adv-x="490" 
d="M40 247l8 48l398 180l-11 -64l-317 -140l-1 -4l268 -142l-11 -58z" />
    <glyph glyph-name="equal" unicode="=" horiz-adv-x="556" 
d="M74 441h437l-9 -54h-437zM41 251h437l-10 -54h-437z" />
    <glyph glyph-name="greater" unicode="&#x3e;" horiz-adv-x="490" 
d="M419 295l-8 -48l-398 -180l11 64l317 141l1 4l-268 141l11 58z" />
    <glyph glyph-name="question" unicode="?" horiz-adv-x="485" 
d="M170 182l8 51q6 33 14 57t22 44t34.5 38.5t51.5 42.5q42 31 73 66.5t31 82.5q0 48 -34.5 77.5t-89.5 29.5q-57 0 -93.5 -31t-52.5 -78l-56 26q10 30 28.5 56t44.5 45.5t60.5 31t78.5 11.5q39 0 72 -12.5t57 -34t37.5 -50.5t13.5 -62q0 -32 -10 -58.5t-27 -50t-41 -45
t-52 -43.5q-23 -18 -39.5 -33t-28 -31.5t-18.5 -36t-11 -45.5l-8 -48h-65zM178 -6q-22 0 -37 15t-15 37t15 36.5t37 14.5t36.5 -14.5t14.5 -36.5t-14.5 -37t-36.5 -15z" />
    <glyph glyph-name="at" unicode="@" horiz-adv-x="869" 
d="M484 690q72 0 134.5 -24.5t108.5 -68t72.5 -104t26.5 -131.5q0 -55 -12 -103.5t-35.5 -84.5t-57 -57t-75.5 -21t-67.5 25t-31.5 60q-30 -42 -71.5 -63.5t-87.5 -21.5q-33 0 -62.5 12.5t-52.5 35.5t-36.5 55.5t-13.5 72.5q0 43 15.5 84.5t44 74.5t70 53t93.5 20
q49 0 82.5 -22t47.5 -50h4l10 58h53l-46 -261q-1 -8 -1.5 -13t-0.5 -11q0 -26 14 -43t43 -17q28 0 50.5 18t38 47.5t23.5 67.5t8 77q0 62 -21.5 114t-60.5 89.5t-93.5 58t-120.5 20.5q-79 0 -148.5 -28t-121 -78.5t-81.5 -119t-30 -149.5q0 -63 21.5 -116t60 -92t90.5 -61
t114 -22q38 0 71.5 7t65.5 23l18 -50q-36 -17 -75 -25t-86 -8q-74 0 -136 26.5t-106.5 72.5t-69 108t-24.5 133q0 91 34.5 170t94.5 137.5t141.5 91.5t174.5 33zM400 150q34 0 63 14t51 38.5t34.5 56.5t12.5 68q0 57 -33.5 90t-86.5 33q-36 0 -65.5 -14.5t-50.5 -39
t-32.5 -56.5t-11.5 -66q0 -59 34.5 -91.5t84.5 -32.5z" />
    <glyph glyph-name="A" unicode="A" horiz-adv-x="653" 
d="M353 716h74l150 -716h-67l-41 207h-332l-115 -207h-73zM456 267l-76 371h-4l-206 -371h286z" />
    <glyph glyph-name="B" unicode="B" horiz-adv-x="587" 
d="M140 716h243q42 0 75 -13.5t56 -36.5t35.5 -53.5t12.5 -65.5q0 -33 -11 -61.5t-29.5 -51t-42.5 -38.5t-49 -25l-1 -4q43 -20 71 -57.5t28 -94.5q0 -44 -19 -83.5t-52 -68.5t-78.5 -46t-99.5 -17h-266zM335 396q32 0 61 10.5t51.5 29t35.5 44.5t13 57q0 52 -31 85t-88 33
h-184l-46 -259h188zM292 61q33 0 64 11t54.5 31.5t37.5 48t14 60.5q0 56 -36 90t-97 34h-192l-49 -275h204z" />
    <glyph glyph-name="C" unicode="C" horiz-adv-x="725" 
d="M644 113q-31 -31 -63 -55t-68.5 -40.5t-78.5 -25t-91 -8.5q-66 0 -122.5 23t-98 65t-65 101.5t-23.5 133.5q0 84 33 161t90.5 135.5t135.5 93.5t169 35q87 0 148.5 -33t97.5 -87l-53 -41q-66 100 -201 100q-74 0 -139 -30t-113 -80.5t-75.5 -116t-27.5 -135.5
q0 -60 19.5 -109t53 -83.5t79 -53t96.5 -18.5q83 0 143.5 31t113.5 84z" />
    <glyph glyph-name="D" unicode="D" horiz-adv-x="685" 
d="M140 716h208q75 0 131.5 -22.5t95 -63t58 -96.5t19.5 -124q0 -80 -28.5 -154t-83 -131t-134 -91t-181.5 -34h-212zM232 61q80 0 145.5 27t112 74t72 109.5t25.5 133.5q0 125 -66 187.5t-184 62.5h-144l-105 -594h144z" />
    <glyph glyph-name="E" unicode="E" horiz-adv-x="537" 
d="M193 655l-47 -267h308l-10 -60h-308l-48 -267h340l-11 -61h-404l127 716h404l-11 -61h-340z" />
    <glyph glyph-name="F" unicode="F" horiz-adv-x="515" 
d="M140 716h404l-11 -61h-340l-48 -275h308l-11 -60h-308l-57 -320h-64z" />
    <glyph glyph-name="G" unicode="G" horiz-adv-x="798" 
d="M417 375h337q0 -10 -1 -22.5t-3 -24.5q-11 -69 -38.5 -125t-68.5 -99q-54 -57 -128 -88.5t-166 -31.5q-63 0 -120.5 23.5t-100.5 66.5t-68.5 104t-25.5 137q0 84 32 159.5t89.5 132.5t137.5 91t175 34q80 0 145 -29t101 -82l-53 -43q-29 44 -83 68.5t-119 24.5
q-75 0 -141 -28t-114.5 -76t-76.5 -112t-28 -136q0 -64 20.5 -115t56 -86t83 -54t100.5 -19q70 0 131 26t106 73q32 34 53.5 77.5t31.5 94.5h-274z" />
    <glyph glyph-name="H" unicode="H" horiz-adv-x="682" 
d="M140 716h64l-57 -320h400l57 320h64l-127 -716h-64l60 336h-400l-60 -336h-64z" />
    <glyph glyph-name="I" unicode="I" horiz-adv-x="218" 
d="M140 716h64l-127 -716h-64z" />
    <glyph glyph-name="J" unicode="J" horiz-adv-x="514" 
d="M179 -16q-75 0 -126.5 43.5t-62.5 123.5l61 23q10 -71 47 -100t89 -29q69 0 114.5 45t59.5 123l89 503h64l-89 -502q-20 -114 -86.5 -172t-159.5 -58z" />
    <glyph glyph-name="K" unicode="K" horiz-adv-x="595" 
d="M632 712l-316 -303l214 -405l-1 -4h-73l-190 360l-150 -143l-39 -217h-64l127 716h64l-69 -396h4l411 396h83z" />
    <glyph glyph-name="L" unicode="L" horiz-adv-x="491" 
d="M140 716h64l-116 -655h324l-11 -61h-388z" />
    <glyph glyph-name="M" unicode="M" horiz-adv-x="825" 
d="M140 716h61l186 -473h4l353 473h67l-127 -716h-63l84 477l26 120h-4l-332 -445h-37l-176 445h-4l-18 -120l-84 -477h-63z" />
    <glyph glyph-name="N" unicode="N" horiz-adv-x="690" 
d="M140 716h77l288 -604h4l21 138l82 466h64l-127 -716h-60l-300 631h-4l-20 -138l-88 -493h-64z" />
    <glyph glyph-name="O" unicode="O" horiz-adv-x="809" 
d="M356 -16q-69 0 -128 24.5t-102 68t-67.5 104.5t-24.5 133q0 84 31.5 160t87 133t132.5 91t169 34q69 0 128 -24.5t102 -68t67.5 -104t24.5 -132.5q0 -84 -31.5 -160t-87.5 -133.5t-133 -91.5t-168 -34zM363 45q73 0 136.5 29.5t110.5 78.5t74 113t27 133q0 61 -20 111.5
t-55.5 86t-84 55t-105.5 19.5q-73 0 -136.5 -29.5t-110 -79t-73.5 -113t-27 -132.5q0 -62 20 -112t55.5 -85.5t84 -55t104.5 -19.5z" />
    <glyph glyph-name="P" unicode="P" horiz-adv-x="557" 
d="M13 0l127 716h227q43 0 78.5 -13t61 -37t39.5 -58t14 -75q0 -54 -19.5 -97t-54.5 -74t-83 -47.5t-105 -16.5h-168l-53 -298h-64zM309 359q40 0 74 11.5t58.5 33t38.5 52.5t14 71q0 31 -10.5 55t-28.5 40t-42 24.5t-51 8.5h-169l-52 -296h168z" />
    <glyph glyph-name="Q" unicode="Q" horiz-adv-x="809" 
d="M356 -16q-69 0 -128 24.5t-102 68t-67.5 104.5t-24.5 133q0 84 31.5 160t87 133t132.5 91t169 34q69 0 128 -24.5t102 -68t67.5 -104t24.5 -132.5q0 -53 -13 -103.5t-37 -95.5t-58 -83t-76 -66l31 -64l-56 -28l-30 60q-41 -19 -86 -29t-95 -10zM363 45q39 0 75.5 9
t70.5 25l-73 148l58 30l70 -145q67 51 107 126.5t40 160.5q0 61 -20 111.5t-55.5 86t-84 55t-105.5 19.5q-73 0 -136.5 -29.5t-110 -79t-73.5 -113t-27 -132.5q0 -62 20 -112t55.5 -85.5t84 -55t104.5 -19.5z" />
    <glyph glyph-name="R" unicode="R" horiz-adv-x="569" 
d="M140 716h229q43 0 78 -14t60 -38.5t39 -58.5t14 -74q0 -46 -16.5 -84.5t-45.5 -68t-67.5 -48.5t-82.5 -27l-3 -3l150 -296l-1 -4h-70l-150 298h-144l-53 -298h-64zM305 358q39 0 73.5 12t60.5 34.5t41 53.5t15 70q0 28 -10 51.5t-28 40.5t-42.5 26t-54.5 9h-167l-52 -297
h164z" />
    <glyph glyph-name="S" unicode="S" horiz-adv-x="542" 
d="M220 -16q-91 0 -149.5 52t-74.5 141l61 25q13 -70 53.5 -113.5t115.5 -43.5q34 0 66.5 11t58 32t41 51t15.5 67q0 50 -35 81.5t-102 56.5l-42 16q-28 10 -54 26t-46 37.5t-32 50t-12 63.5q0 42 18.5 78t50 62t73.5 40.5t89 14.5q51 0 87 -14.5t60 -36t37 -47.5t18 -49
l-62 -23q-5 19 -14 38t-26 35t-42.5 26t-61.5 10q-32 0 -61 -9t-51 -26t-35 -41t-13 -53q0 -50 32.5 -79.5t85.5 -49.5l43 -17q33 -12 62 -29t51.5 -39t35.5 -51t13 -65q0 -50 -19.5 -92t-54 -72t-81 -47t-99.5 -17z" />
    <glyph glyph-name="T" unicode="T" horiz-adv-x="521" 
d="M165 0l116 655h-203l11 61h470l-11 -61h-203l-116 -655h-64z" />
    <glyph glyph-name="U" unicode="U" horiz-adv-x="635" 
d="M254 -16q-46 0 -85 15t-68 43t-45.5 68t-16.5 89q0 15 1.5 34t6.5 51l77 432h64l-79 -447q-4 -21 -5 -34.5t-1 -27.5q0 -35 10 -65t30.5 -51.5t50.5 -33.5t70 -12q47 0 86 16t68.5 44.5t49 67.5t27.5 85l81 458h64l-83 -469q-11 -60 -36 -108.5t-63.5 -83t-89.5 -53
t-114 -18.5z" />
    <glyph glyph-name="V" unicode="V" horiz-adv-x="613" 
d="M76 716h69l108 -616h4l333 616h74l-395 -716h-62z" />
    <glyph glyph-name="W" unicode="W" horiz-adv-x="908" 
d="M632 0h-67l-76 520h-4l-259 -520h-67l-79 716h66l64 -609h4l255 513h66l76 -513h4l271 609h68z" />
    <glyph glyph-name="X" unicode="X" horiz-adv-x="612" 
d="M267 374l-173 342h76l143 -292h4l247 292h81l-296 -347l186 -369h-76l-157 316h-4l-266 -316h-78z" />
    <glyph glyph-name="Y" unicode="Y" horiz-adv-x="579" 
d="M196 0l57 324l-177 392h72l144 -326h4l256 326h78l-313 -392l-57 -324h-64z" />
    <glyph glyph-name="Z" unicode="Z" horiz-adv-x="553" 
d="M-17 69l500 586h-381l11 61h456l-12 -69l-501 -586h401l-11 -61h-475z" />
    <glyph glyph-name="bracketleft" unicode="[" horiz-adv-x="304" 
d="M157 792h193l-9 -53h-135l-143 -810h135l-9 -53h-193z" />
    <glyph glyph-name="backslash" unicode="\" horiz-adv-x="415" 
d="M262 0l-170 716h60l170 -716h-60z" />
    <glyph glyph-name="bracketright" unicode="]" horiz-adv-x="304" 
d="M146 -124h-192l9 53h134l143 810h-135l9 53h193z" />
    <glyph glyph-name="asciicircum" unicode="^" horiz-adv-x="451" 
d="M383 410l-101 242h-4l-183 -242h-73l241 306h52l133 -306h-65z" />
    <glyph glyph-name="underscore" unicode="_" horiz-adv-x="468" 
d="M-71 -162h465l-10 -54h-465z" />
    <glyph glyph-name="grave" unicode="`" horiz-adv-x="390" 
d="M212 592l-46 124h72l29 -124h-55z" />
    <glyph glyph-name="a" unicode="a" horiz-adv-x="506" 
d="M276 506q88 0 136.5 -44.5t48.5 -119.5q0 -11 -1.5 -22.5t-3.5 -24.5l-52 -295h-62l14 85h-4q-30 -45 -78 -73t-108 -28q-36 0 -66 11t-51.5 31t-33.5 47.5t-12 60.5q0 42 18 75t49.5 56t74 35t91.5 12q46 0 85.5 -11t68.5 -27l6 31q1 7 1.5 14.5t0.5 14.5q0 54 -35 84.5
t-94 30.5q-44 0 -82.5 -19t-65.5 -57l-50 35q33 48 87 73t118 25zM179 41q36 0 69.5 14t60.5 38.5t46 56.5t25 68q-17 11 -53 26t-97 15q-31 0 -60 -7.5t-51.5 -22.5t-36 -38t-13.5 -54q0 -23 9 -41t24 -30t35 -18.5t42 -6.5z" />
    <glyph glyph-name="b" unicode="b" horiz-adv-x="569" 
d="M242 -16q-31 0 -57.5 9t-47.5 23t-36.5 32.5t-25.5 38.5h-4l-15 -87h-60l126 716h64l-43 -243l-16 -68h4q26 41 74 71t118 30q44 0 81 -16t63.5 -45.5t41.5 -70.5t15 -92q0 -56 -20.5 -109.5t-57.5 -95.5t-89 -67.5t-115 -25.5zM245 42q46 0 85.5 19.5t68 52t44.5 74.5
t16 87q0 82 -41.5 127.5t-110.5 45.5q-46 0 -85 -21t-67 -54.5t-44 -76.5t-16 -87q0 -41 12 -72.5t32 -52.5t47.5 -31.5t58.5 -10.5z" />
    <glyph glyph-name="c" unicode="c" horiz-adv-x="513" 
d="M216 -16q-47 0 -85 17.5t-66 48t-43 71.5t-15 88q0 61 21.5 115t60 94.5t91.5 64t116 23.5q41 0 73 -11t55.5 -29.5t39.5 -44t25 -54.5l-61 -25q-17 51 -49.5 78.5t-89.5 27.5q-47 0 -86.5 -18.5t-68.5 -51t-45.5 -75t-16.5 -90.5q0 -37 11 -68t31 -54t48 -36t62 -13
q54 0 97.5 27.5t73.5 78.5l52 -24q-41 -71 -95 -105.5t-136 -34.5z" />
    <glyph glyph-name="d" unicode="d" horiz-adv-x="569" 
d="M209 -16q-44 0 -81 15.5t-64 45t-42.5 71t-15.5 93.5q0 55 20.5 108.5t58 95.5t89.5 67.5t114 25.5q33 0 59.5 -8.5t47 -23t35.5 -33t25 -39.5h4l8 68l43 246h64l-126 -716h-60l15 84h-4q-27 -42 -74 -71t-116 -29zM285 448q-47 0 -86 -20t-67.5 -53t-44.5 -75.5
t-16 -87.5q0 -81 42.5 -125.5t109.5 -44.5q46 0 85 20.5t67.5 54.5t44 77t15.5 88q0 40 -11.5 71t-31.5 52t-47.5 32t-59.5 11z" />
    <glyph glyph-name="e" unicode="e" horiz-adv-x="528" 
d="M448 116q-37 -60 -93.5 -96t-133.5 -36q-48 0 -88 16.5t-68 46.5t-43.5 71t-15.5 90q0 55 19.5 108.5t55.5 95.5t87.5 68t115.5 26q50 0 88 -15.5t63.5 -42.5t38 -64t12.5 -80q0 -19 -2 -37.5t-7 -32.5h-403q-2 -9 -2 -17v-18q0 -38 13 -67t34.5 -49t49 -30.5t56.5 -10.5
q61 0 103 29t71 74zM421 288q0 4 1 11v11q0 24 -8 49t-25 44.5t-44 32t-66 12.5q-32 0 -63 -11t-56.5 -31.5t-45 -50.5t-29.5 -67h336z" />
    <glyph glyph-name="f" unicode="f" horiz-adv-x="347" 
d="M327 724q26 0 43.5 -6.5t30.5 -16.5l-28 -53q-9 7 -22.5 12t-29.5 5q-37 0 -65.5 -23t-37.5 -73l-14 -79h128l-11 -58h-128l-75 -432h-64l75 432h-92l11 58h92l15 85q14 75 61 112t111 37z" />
    <glyph glyph-name="g" unicode="g" horiz-adv-x="567" 
d="M193 -232q-45 0 -79 13t-58 33.5t-39 46t-21 50.5l61 23q11 -48 46 -78t95 -30q43 0 78 14t61.5 39.5t43.5 61t25 79.5l11 61h-5q-28 -42 -75 -69.5t-113 -27.5q-42 0 -78 16t-63 45.5t-42.5 71t-15.5 93.5q0 55 20 108t56.5 95t88.5 67.5t116 25.5q33 0 60 -9t47.5 -23
t34.5 -32.5t22 -37.5h4l15 86h62l-85 -484q-11 -61 -36.5 -105.5t-61.5 -74t-81 -44t-94 -14.5zM237 42q46 0 85.5 20.5t67.5 54.5t44 78t16 90q0 40 -11.5 70.5t-31 51t-46 31t-56.5 10.5q-50 0 -90 -20.5t-68 -53.5t-42.5 -75.5t-14.5 -87.5q0 -40 11.5 -71.5t31.5 -53
t47 -33t57 -11.5z" />
    <glyph glyph-name="h" unicode="h" 
d="M144 474l-18 -78h4q31 50 80 80t112 30q40 0 68.5 -12t47.5 -32t28 -47.5t9 -58.5q0 -24 -6 -55l-53 -301h-64l53 300q2 14 3 23t1 19q0 49 -28 77.5t-80 28.5q-35 0 -67.5 -16t-59 -43t-45 -63t-25.5 -77l-44 -249h-64l127 716h64z" />
    <glyph glyph-name="i" unicode="i" horiz-adv-x="195" 
d="M2 0l86 490h64l-86 -490h-64zM150 610q-20 0 -34.5 14.5t-14.5 34.5q0 21 14.5 35.5t34.5 14.5q21 0 35.5 -14.5t14.5 -35.5q0 -20 -14.5 -34.5t-35.5 -14.5z" />
    <glyph glyph-name="j" unicode="j" horiz-adv-x="195" 
d="M-91 -226q-33 0 -51 10l24 56q13 -8 33 -8q56 0 70 75l104 583h64l-104 -588q-11 -64 -47 -96t-93 -32zM150 610q-20 0 -34.5 14.5t-14.5 34.5q0 21 14.5 35.5t34.5 14.5q21 0 35.5 -14.5t14.5 -35.5q0 -20 -14.5 -34.5t-35.5 -14.5z" />
    <glyph glyph-name="k" unicode="k" horiz-adv-x="469" 
d="M104 248l284 242h88l-1 -4l-217 -184l150 -298l-1 -4h-73l-129 257l-117 -100l-28 -157h-64l127 716h64z" />
    <glyph glyph-name="l" unicode="l" horiz-adv-x="183" 
d="M-4 0l127 716h64l-127 -716h-64z" />
    <glyph glyph-name="m" unicode="m" horiz-adv-x="841" 
d="M83 490h60l-17 -92h4q26 47 71 77.5t108 30.5q61 0 95.5 -30.5t42.5 -81.5q27 50 77 81t111 31q39 0 66.5 -11t45.5 -30t26.5 -43.5t8.5 -52.5q0 -16 -1.5 -32.5t-6.5 -40.5l-52 -296h-64l53 300q2 14 3.5 27t1.5 24q0 44 -23 70.5t-77 26.5q-33 0 -62.5 -15t-53 -40
t-39.5 -59t-23 -71l-47 -263h-64l53 298q2 12 3.5 25t1.5 24q0 47 -24.5 74t-74.5 27q-35 0 -65 -16t-53 -43t-39 -61.5t-23 -71.5l-45 -256h-65z" />
    <glyph glyph-name="n" unicode="n" 
d="M126 398h4q28 45 76.5 76.5t115.5 31.5q72 0 112 -42.5t40 -108.5q0 -27 -6 -64l-52 -291h-64l53 297q2 14 3 24t1 21q0 51 -28 78.5t-81 27.5q-36 0 -68 -15t-57.5 -41t-43 -60t-24.5 -73l-46 -259h-65l87 490h60z" />
    <glyph glyph-name="o" unicode="o" horiz-adv-x="554" 
d="M295 506q48 0 88 -17.5t69.5 -48.5t46 -73t16.5 -90q0 -59 -21 -112t-59 -93.5t-91 -64t-117 -23.5q-48 0 -88 17.5t-69.5 48.5t-46 73t-16.5 91q0 59 21 112t59 93t91 63.5t117 23.5zM234 42q48 0 88 19t68.5 51.5t44 74t15.5 86.5q0 38 -13 70t-35 55.5t-51.5 36.5
t-62.5 13q-48 0 -88 -19t-68.5 -51t-44 -73.5t-15.5 -86.5q0 -38 13 -70t35 -55.5t51.5 -37t62.5 -13.5z" />
    <glyph glyph-name="p" unicode="p" horiz-adv-x="565" 
d="M334 506q45 0 82 -15.5t63.5 -44t41.5 -70.5t15 -94q0 -58 -20.5 -111.5t-58 -95t-89.5 -66.5t-114 -25q-61 0 -104 31t-62 73h-4l-8 -68l-43 -236h-64l125 706h60l-14 -83h4q27 40 75 69.5t115 29.5zM259 42q48 0 87 20t66.5 53t43 75t15.5 87q0 83 -41.5 127t-110.5 44
q-46 0 -84.5 -20.5t-66.5 -54t-43.5 -77.5t-15.5 -90q0 -39 11.5 -69.5t32 -51.5t47.5 -32t59 -11z" />
    <glyph glyph-name="q" unicode="q" horiz-adv-x="565" 
d="M346 -221l42 239l16 68h-4q-26 -42 -74.5 -72t-117.5 -30q-44 0 -81 16t-63.5 45.5t-41.5 71t-15 92.5q0 56 20.5 109.5t57.5 95t89 67t115 25.5q31 0 57.5 -8.5t47.5 -23t36.5 -33t24.5 -38.5h4l16 87h59l-124 -711h-64zM285 448q-47 0 -86 -19.5t-67 -51.5t-44 -74.5
t-16 -87.5q0 -82 41 -127.5t110 -45.5q46 0 85 21t67 55t44 77t16 87q0 41 -12 72t-32 52t-47.5 31.5t-58.5 10.5z" />
    <glyph glyph-name="r" unicode="r" horiz-adv-x="335" 
d="M-4 0l87 490h60l-15 -86h4q23 45 66 72.5t92 27.5q23 0 35.5 -3t26.5 -10l-28 -60q-12 5 -23.5 7.5t-28.5 2.5q-27 0 -53.5 -12.5t-49 -35t-38.5 -54t-23 -68.5l-48 -271h-64z" />
    <glyph glyph-name="s" unicode="s" horiz-adv-x="448" 
d="M181 -16q-41 0 -73.5 11t-56.5 30.5t-40 45t-23 54.5l61 24q12 -51 48.5 -79.5t90.5 -28.5q26 0 50 6t42 18t28.5 29t10.5 39q0 32 -21 52.5t-75 34.5l-55 15q-23 6 -44.5 17t-38.5 26.5t-27.5 36t-10.5 46.5q0 33 15 60t41.5 45.5t61.5 29t75 10.5q67 0 114 -30t65 -85
l-61 -24q-11 37 -42.5 59.5t-79.5 22.5q-53 0 -88 -21.5t-35 -61.5q0 -29 22 -47.5t61 -29.5l62 -18q61 -18 94.5 -48t33.5 -83q0 -36 -15.5 -65t-43.5 -49t-65.5 -31t-80.5 -11z" />
    <glyph glyph-name="t" unicode="t" horiz-adv-x="338" 
d="M180 -8q-22 0 -41.5 7t-34.5 20.5t-23.5 33t-8.5 45.5q0 8 1 19t5 34l50 281h-89l10 58h89l27 150h64l-27 -150h122l-10 -58h-122l-52 -292q-2 -8 -3 -15.5t-1 -14.5q0 -25 14.5 -42t43.5 -17q15 0 26 2.5t25 8.5l12 -55q-20 -8 -37 -11.5t-40 -3.5z" />
    <glyph glyph-name="u" unicode="u" 
d="M370 92h-4q-28 -45 -76 -76.5t-115 -31.5q-36 0 -64.5 11.5t-48 31.5t-30 47.5t-10.5 60.5q0 14 1.5 29t5.5 35l51 291h64l-52 -297q-2 -13 -3.5 -23.5t-1.5 -21.5q0 -50 28 -78t82 -28q36 0 68 15t57.5 41t43 60.5t24.5 73.5l46 258h64l-86 -490h-60z" />
    <glyph glyph-name="v" unicode="v" horiz-adv-x="481" 
d="M28 490h67l91 -418h2l242 418h70l-289 -490h-70z" />
    <glyph glyph-name="w" unicode="w" horiz-adv-x="732" 
d="M440 0l-65 414l-210 -414h-63l-75 490h64l56 -403h1l205 403h69l64 -401h1l199 401h65l-248 -490h-63z" />
    <glyph glyph-name="x" unicode="x" horiz-adv-x="447" 
d="M302 0l-106 202l-173 -202h-79l221 252l-126 238h73l98 -191l166 191h79l-215 -242l134 -248h-72z" />
    <glyph glyph-name="y" unicode="y" horiz-adv-x="478" 
d="M11 -216l159 254l-125 452h68l101 -378h2l226 378h72l-434 -706h-69z" />
    <glyph glyph-name="z" unicode="z" horiz-adv-x="450" 
d="M-20 54l363 378h-288l10 58h370l-9 -54l-364 -378h301l-11 -58h-381z" />
    <glyph glyph-name="braceleft" unicode="{" horiz-adv-x="309" 
d="M172 -124q-61 0 -95 33t-34 85q0 12 0.5 21t2.5 19l34 189q1 6 1.5 12t0.5 11q0 60 -62 60l10 56q35 0 58 21t31 66l33 187q14 74 57.5 115t121.5 41h24l-9 -53h-21q-47 0 -76.5 -28t-38.5 -80l-34 -186q-8 -48 -28 -73t-52 -36l-1 -4q47 -17 47 -75q0 -17 -4 -33
l-34 -190q-3 -17 -3 -29q0 -37 22 -56.5t62 -19.5h18l-9 -53h-22z" />
    <glyph glyph-name="bar" unicode="|" horiz-adv-x="212" 
d="M157 792h58l-161 -912h-58z" />
    <glyph glyph-name="braceright" unicode="}" horiz-adv-x="309" 
d="M136 792q61 0 95 -33t34 -85q0 -20 -3 -39l-34 -190q-1 -6 -1.5 -11.5t-0.5 -11.5q0 -29 15.5 -44.5t46.5 -15.5l-10 -56q-35 0 -58 -21t-31 -65l-33 -187q-14 -75 -57.5 -116t-122.5 -41h-23l9 53h20q48 0 77.5 28t38.5 80l34 187q8 48 28 72.5t52 35.5l1 4
q-47 18 -47 75q0 8 1 16.5t3 17.5l34 189q3 18 3 29q0 37 -22 56.5t-62 19.5h-18l9 53h22z" />
    <glyph glyph-name="asciitilde" unicode="~" horiz-adv-x="518" 
d="M350 242q-30 0 -56.5 11.5t-51.5 25.5t-50 25.5t-51 11.5q-31 0 -50 -19.5t-25 -44.5h-52q8 57 42.5 90t89.5 33q30 0 56.5 -11.5t52.5 -25.5q25 -15 49.5 -26.5t51.5 -11.5q31 0 50 19.5t25 44.5h52q-9 -57 -42.5 -89.5t-90.5 -32.5z" />
    <glyph glyph-name="uni00A0" unicode="&#xa0;" horiz-adv-x="220" 
d="M0 0z" />
    <glyph glyph-name="exclamdown" unicode="&#xa1;" horiz-adv-x="205" 
d="M123 506q22 0 37 -14.5t15 -36.5t-15 -37t-37 -15t-36.5 15t-14.5 37t14.5 36.5t36.5 14.5zM90 75l-52 -291h-64l52 291l51 243h46z" />
    <glyph glyph-name="cent" unicode="&#xa2;" horiz-adv-x="511" 
d="M198 85q-40 6 -72.5 25.5t-55 49t-35 67t-12.5 80.5q0 58 20 109.5t55.5 91t84 64t106.5 28.5l15 84h54l-15 -85q66 -8 104.5 -45.5t55.5 -89.5l-60 -24q-14 43 -40.5 69t-69.5 33l-71 -401q93 12 148 106l52 -25q-39 -66 -88 -100t-122 -38l-15 -84h-54zM88 311
q0 -32 8.5 -60.5t24 -50.5t38 -36.5t49.5 -20.5l71 399q-42 -5 -77 -25t-60.5 -51t-39.5 -70.5t-14 -84.5z" />
    <glyph glyph-name="sterling" unicode="&#xa3;" horiz-adv-x="508" 
d="M401 537q-5 19 -14 37.5t-23.5 32.5t-35.5 23t-51 9q-35 0 -63 -12t-48 -33t-30.5 -48.5t-10.5 -58.5q0 -24 5 -46.5t12 -44t16 -42.5q8 -21 14 -42h147l-9 -55h-129q1 -5 1 -7v-4q0 -57 -28 -101.5t-71 -79.5l3 -4h202q45 0 68.5 17.5t40.5 48.5l49 -22q-25 -53 -63 -79
t-104 -26h-307l9 52q61 32 98.5 81t37.5 102v11t-1 11h-97l9 55h75q-13 41 -28 83q-15 41 -15 93q0 43 15.5 81.5t44.5 67.5t70.5 46t94.5 17q41 0 71.5 -11.5t52.5 -31t35.5 -44.5t20.5 -52z" />
    <glyph glyph-name="currency" unicode="&#xa4;" horiz-adv-x="592" 
d="M296 106q-38 0 -72.5 12.5t-60.5 35.5l-59 -56l-40 40l60 59q-20 27 -30.5 59.5t-10.5 68.5t10.5 69t30.5 60l-60 59l40 40l59 -57q26 23 60.5 35.5t72.5 12.5t72.5 -12.5t61.5 -35.5l58 57l40 -40l-59 -59q19 -27 29.5 -59.5t10.5 -69.5q0 -36 -10.5 -68.5t-29.5 -59.5
l59 -59l-40 -40l-58 56q-27 -23 -61.5 -35.5t-72.5 -12.5zM296 163q32 0 60 13t48.5 35t32.5 51.5t12 62.5t-12 62.5t-32.5 51.5t-48.5 35t-60 13t-60 -13t-48.5 -35t-32.5 -51.5t-12 -62.5t12 -62.5t32.5 -51.5t48.5 -35t60 -13z" />
    <glyph glyph-name="yen" unicode="&#xa5;" horiz-adv-x="548" 
d="M301 318l-16 -87h165l-10 -54h-164l-32 -177h-64l32 177h-169l10 54h168l16 87h-169l10 54h134l-142 312h70l135 -308h4l238 308h76l-249 -312h131l-10 -54h-164z" />
    <glyph glyph-name="brokenbar" unicode="&#xa6;" horiz-adv-x="212" 
d="M87 376l67 380h58l-67 -380h-58zM-1 -120l73 412h58l-73 -412h-58z" />
    <glyph glyph-name="section" unicode="&#xa7;" horiz-adv-x="524" 
d="M186 -232q-41 0 -76.5 13t-62 37t-43.5 57t-21 74l61 23q4 -31 15 -57t29.5 -45t44.5 -30t61 -11q32 0 62 9.5t52.5 28t36 45t13.5 59.5q0 52 -36 80.5t-104 50.5q-76 24 -118 66t-42 102q0 26 9.5 49.5t26 43.5t38.5 35.5t47 26.5q-13 9 -26 22t-23.5 29.5t-17 36.5
t-6.5 43q0 36 15.5 68t43.5 56t68 38t88 14q45 0 78.5 -13t56.5 -33t36.5 -46t19.5 -51l-63 -25q-4 19 -12.5 38t-24.5 34.5t-39.5 25t-57.5 9.5q-27 0 -53 -7.5t-46 -22t-32 -34.5t-12 -45q0 -47 36.5 -75t92.5 -48q83 -31 130 -72.5t47 -105.5q0 -58 -32.5 -97.5
t-77.5 -64.5q26 -22 41 -52t15 -68q0 -45 -18 -83.5t-49.5 -67t-75.5 -44.5t-95 -16zM242 162q21 -7 39 -14t36 -16q17 9 33.5 20t30 25.5t22 32.5t8.5 39q0 45 -38 77.5t-108 58.5l-21 8q-22 -6 -43 -17t-38 -26.5t-27.5 -34.5t-10.5 -42q0 -40 30 -66t87 -45z" />
    <glyph glyph-name="dieresis" unicode="&#xa8;" horiz-adv-x="369" 
d="M314 615q-18 0 -31.5 13t-13.5 31q0 20 13.5 32.5t31.5 12.5q19 0 31.5 -12.5t12.5 -32.5q0 -18 -12.5 -31t-31.5 -13zM160 615q-18 0 -31.5 13t-13.5 31q0 20 13.5 32.5t31.5 12.5q19 0 31.5 -12.5t12.5 -32.5q0 -18 -12.5 -31t-31.5 -13z" />
    <glyph glyph-name="copyright" unicode="&#xa9;" horiz-adv-x="537" 
d="M269 272q-48 0 -89.5 18t-73 49.5t-49.5 73t-18 89.5q0 47 18 89t49.5 73.5t73 49.5t89.5 18q47 0 89 -18t73.5 -49.5t49.5 -73.5t18 -89q0 -48 -18 -89.5t-49.5 -73t-73.5 -49.5t-89 -18zM269 311q39 0 74 15t61 41.5t41 61t15 73.5q0 40 -15 74.5t-41 60.5t-61 41
t-74 15t-74 -15t-61 -41t-41 -60.5t-15 -74.5q0 -39 15 -73.5t41 -61t61 -41.5t74 -15zM273 383q-25 0 -46.5 9.5t-37.5 25.5t-25 38t-9 46q0 25 9 46.5t25 37.5t37.5 25.5t46.5 9.5q30 0 49.5 -10.5t35.5 -27.5l-27 -25q-11 12 -24 19t-34 7q-31 0 -55 -22.5t-24 -59.5
q0 -36 24 -59t55 -23q23 0 38 9t26 24l28 -23q-16 -21 -38 -34t-54 -13z" />
    <glyph glyph-name="ordfeminine" unicode="&#xaa;" horiz-adv-x="462" 
d="M197 272q-33 0 -60.5 10t-47 27.5t-30 42t-10.5 53.5q0 37 17 67t45 51t64.5 32t76.5 11q43 0 77 -10t59 -25l3 20q2 8 2 14v11q0 45 -29.5 73t-78.5 28q-42 0 -75 -15.5t-53 -46.5l-47 28q24 40 68.5 64.5t109.5 24.5q36 0 66.5 -10.5t52.5 -30t34.5 -47t12.5 -61.5
q0 -9 -1 -19t-3 -19l-46 -259h-60l14 75h-4q-26 -41 -67.5 -65t-89.5 -24zM209 326q30 0 58 12t51 33t39 49t22 60q-14 9 -44.5 23t-82.5 14q-25 0 -49.5 -6.5t-44.5 -20t-32.5 -33.5t-12.5 -48q0 -20 8 -35.5t21.5 -26t31 -16t35.5 -5.5z" />
    <glyph glyph-name="guillemotleft" unicode="&#xab;" horiz-adv-x="540" 
d="M225 95l-43 -35l-157 211l231 211l35 -38l-193 -177zM425 95l-43 -35l-157 211l231 211l35 -38l-193 -177z" />
    <glyph glyph-name="logicalnot" unicode="&#xac;" horiz-adv-x="557" 
d="M51 374h420l-47 -269h-54l38 215h-366z" />
    <glyph glyph-name="uni00AD" unicode="&#xad;" horiz-adv-x="429" 
d="M55 337h310l-9 -54h-310z" />
    <glyph glyph-name="registered" unicode="&#xae;" horiz-adv-x="537" 
d="M269 272q-48 0 -89.5 18t-73 49.5t-49.5 73t-18 89.5q0 47 18 89t49.5 73.5t73 49.5t89.5 18q47 0 89 -18t73.5 -49.5t49.5 -73.5t18 -89q0 -48 -18 -89.5t-49.5 -73t-73.5 -49.5t-89 -18zM269 311q39 0 74 15t61 41.5t41 61t15 73.5q0 40 -15 74.5t-41 60.5t-61 41
t-74 15t-74 -15t-61 -41t-41 -60.5t-15 -74.5q0 -39 15 -73.5t41 -61t61 -41.5t74 -15zM194 389v226h92q29 0 51.5 -19.5t22.5 -50.5q0 -25 -15 -42.5t-36 -23.5l-2 -2l60 -86v-2h-44l-58 86h-32v-86h-39zM282 511q15 0 27 8.5t12 25.5q0 15 -11 24t-27 9h-50v-67h49z" />
    <glyph glyph-name="macron" unicode="&#xaf;" horiz-adv-x="396" 
d="M112 633l9 52h268l-9 -52h-268z" />
    <glyph glyph-name="degree" unicode="&#xb0;" horiz-adv-x="326" 
d="M184 442q-24 0 -45 8.5t-36.5 24t-24.5 36t-9 44.5q0 30 10.5 56.5t30 46t46.5 31t60 11.5q24 0 45 -8.5t36.5 -23.5t24.5 -36t9 -45q0 -30 -10.5 -56.5t-30 -46t-46.5 -31t-60 -11.5zM189 489q18 0 34.5 7.5t29 20t20 29.5t7.5 37q0 31 -19.5 50.5t-49.5 19.5
q-18 0 -34.5 -7t-29 -20t-20 -30t-7.5 -36q0 -32 19.5 -51.5t49.5 -19.5z" />
    <glyph glyph-name="plusminus" unicode="&#xb1;" horiz-adv-x="544" 
d="M299 361h186l-10 -54h-185l-28 -158h-54l28 158h-186l10 54h185l28 159h54zM-4 0l10 54h425l-10 -54h-425z" />
    <glyph glyph-name="twosuperior" unicode="&#xb2;" horiz-adv-x="296" 
d="M18 350l9 45q41 36 75 65q15 12 29 25q14 12 26 22t21 17q8 7 11 10q21 17 41.5 39t20.5 51q0 25 -17 39t-43 14q-27 0 -48 -16t-35 -51l-43 18q14 47 50 71.5t80 24.5q48 0 78 -26.5t30 -68.5q0 -38 -20.5 -66t-55.5 -57q-9 -8 -30 -25q-21 -18 -43 -37q-26 -22 -55 -47
h167l-9 -47h-239z" />
    <glyph glyph-name="threesuperior" unicode="&#xb3;" horiz-adv-x="319" 
d="M156 342q-20 0 -39.5 6t-36 18t-28 30.5t-15.5 43.5l47 17q18 -68 78 -68q34 0 58.5 19t24.5 51q0 29 -19.5 44t-50.5 15h-33l8 45h33q32 0 55 17t23 48q0 23 -16 36t-41 13q-32 0 -49 -15t-28 -35l-42 18q14 36 47 57.5t78 21.5q47 0 75.5 -25t28.5 -63
q0 -34 -20.5 -59.5t-48.5 -35.5q22 -10 37 -29.5t15 -48.5q0 -26 -10.5 -48.5t-29.5 -38.5t-45 -25t-56 -9z" />
    <glyph glyph-name="acute" unicode="&#xb4;" horiz-adv-x="390" 
d="M201 592l73 124h76l-89 -124h-60z" />
    <glyph glyph-name="mu" unicode="&#xb5;" 
d="M354 0l16 92h-4q-28 -45 -76 -76.5t-115 -31.5q-38 0 -66.5 17t-42.5 41h-4l-8 -72l-34 -186h-64l124 706h64l-52 -297q-2 -13 -3.5 -23.5t-1.5 -21.5q0 -50 28 -78t82 -28q36 0 68 15t57.5 41t43 60.5t24.5 73.5l46 258h64l-86 -490h-60z" />
    <glyph glyph-name="paragraph" unicode="&#xb6;" horiz-adv-x="602" 
d="M294 -216v512h-44q-45 0 -85.5 14.5t-71 41.5t-49 66t-18.5 88t18.5 88t49 66t71 41.5t85.5 14.5h266v-932h-60v871h-102v-871h-60z" />
    <glyph glyph-name="periodcentered" unicode="&#xb7;" horiz-adv-x="145" 
d="M70 273q-22 0 -37 14.5t-15 36.5t15 37t37 15t36.5 -15t14.5 -37t-14.5 -36.5t-36.5 -14.5z" />
    <glyph glyph-name="cedilla" unicode="&#xb8;" horiz-adv-x="412" 
d="M90 -237q-34 0 -58.5 19.5t-31.5 47.5l45 18q3 -17 15.5 -29t32.5 -12q23 0 40.5 15.5t17.5 43.5q0 20 -12 32.5t-32 12.5q-14 0 -24.5 -5.5t-19.5 -14.5l-33 17l50 92h46l-32 -54q5 3 12 5.5t18 2.5q33 0 54.5 -24.5t21.5 -62.5q0 -43 -29.5 -73.5t-80.5 -30.5z" />
    <glyph glyph-name="onesuperior" unicode="&#xb9;" horiz-adv-x="230" 
d="M113 350l53 301l-70 -30l-18 42l123 53h28l-65 -366h-51z" />
    <glyph glyph-name="ordmasculine" unicode="&#xba;" horiz-adv-x="513" 
d="M247 272q-41 0 -75.5 14.5t-60 40.5t-39.5 62t-14 79q0 53 18.5 101t52.5 84t80.5 57.5t103.5 21.5q42 0 76.5 -14.5t59.5 -40t39 -61.5t14 -79q0 -55 -19.5 -103.5t-54 -84.5t-81 -56.5t-100.5 -20.5zM253 328q38 0 72 15.5t59.5 42.5t40 64.5t14.5 81.5
q0 32 -10.5 58.5t-28.5 45.5t-42.5 29.5t-52.5 10.5q-39 0 -72.5 -16t-58.5 -43.5t-39 -64.5t-14 -79q0 -32 10 -59t27.5 -46t41.5 -29.5t53 -10.5z" />
    <glyph glyph-name="guillemotright" unicode="&#xbb;" horiz-adv-x="540" 
d="M82 448l43 34l157 -211l-231 -211l-35 39l193 176zM282 448l43 34l157 -211l-231 -211l-35 39l193 176z" />
    <glyph glyph-name="onequarter" unicode="&#xbc;" horiz-adv-x="723" 
d="M496 0l14 80h-173l6 33l225 253h44l-43 -241h52l-9 -45h-51l-14 -80h-51zM518 125l26 149h-4l-132 -149h110zM55 29l590 691l39 -32l-589 -692zM139 350l53 301l-70 -30l-18 42l123 53h28l-65 -366h-51z" />
    <glyph glyph-name="onehalf" unicode="&#xbd;" horiz-adv-x="769" 
d="M438 0l8 45q42 36 76 65q15 12 29 25q14 12 26 22t21 17q8 7 11 10q21 17 41.5 39t20.5 51q0 25 -17 39t-43 14q-27 0 -48 -16t-35 -51l-43 18q14 47 50 71.5t80 24.5q48 0 78 -26.5t30 -68.5q0 -38 -20.5 -66t-55.5 -57q-9 -8 -30 -25q-21 -18 -43 -37q-26 -22 -55 -47
h167l-9 -47h-239zM53 29l590 691l39 -32l-589 -692zM139 350l53 301l-70 -30l-18 42l123 53h28l-65 -366h-51z" />
    <glyph glyph-name="threequarters" unicode="&#xbe;" horiz-adv-x="823" 
d="M186 342q-20 0 -39.5 6t-36 18t-28 30.5t-15.5 43.5l47 17q18 -68 78 -68q34 0 58.5 19t24.5 51q0 29 -19.5 44t-50.5 15h-33l8 45h33q32 0 55 17t23 48q0 23 -16 36t-41 13q-32 0 -49 -15t-28 -35l-42 18q14 36 47 57.5t78 21.5q47 0 75.5 -25t28.5 -63
q0 -34 -20.5 -59.5t-48.5 -35.5q22 -10 37 -29.5t15 -48.5q0 -26 -10.5 -48.5t-29.5 -38.5t-45 -25t-56 -9zM589 0l14 80h-173l6 33l225 253h44l-43 -241h52l-9 -45h-51l-14 -80h-51zM611 125l26 149h-4l-132 -149h110zM126 29l590 691l39 -32l-589 -692z" />
    <glyph glyph-name="questiondown" unicode="&#xbf;" horiz-adv-x="473" 
d="M289 318l-8 -51q-6 -33 -14 -57t-22 -43.5t-34.5 -38.5t-51.5 -42q-42 -32 -73 -67.5t-31 -82.5q0 -48 34.5 -77.5t89.5 -29.5q57 0 93.5 31t52.5 78l56 -26q-11 -30 -29 -56t-44 -45.5t-61 -31t-78 -11.5q-39 0 -72 12.5t-57 34t-37.5 50.5t-13.5 62q0 31 10 58t27 50.5
t41 45.5t52 43q23 18 39.5 33.5t28 32t18.5 36t11 45.5l8 47h65zM281 506q22 0 37 -14.5t15 -36.5t-15 -37t-37 -15t-36.5 15t-14.5 37t14.5 36.5t36.5 14.5z" />
    <glyph glyph-name="Agrave" unicode="&#xc0;" horiz-adv-x="653" 
d="M353 716h74l150 -716h-67l-41 207h-332l-115 -207h-73zM456 267l-76 371h-4l-206 -371h286zM363 776l-46 124h72l29 -124h-55z" />
    <glyph glyph-name="Aacute" unicode="&#xc1;" horiz-adv-x="653" 
d="M353 716h74l150 -716h-67l-41 207h-332l-115 -207h-73zM456 267l-76 371h-4l-206 -371h286zM372 776l73 124h76l-89 -124h-60z" />
    <glyph glyph-name="Acircumflex" unicode="&#xc2;" horiz-adv-x="653" 
d="M353 716h74l150 -716h-67l-41 207h-332l-115 -207h-73zM456 267l-76 371h-4l-206 -371h286zM259 786l121 114h59l80 -114l-1 -5h-60l-50 72h-8l-73 -72h-69z" />
    <glyph glyph-name="Atilde" unicode="&#xc3;" horiz-adv-x="653" 
d="M353 716h74l150 -716h-67l-41 207h-332l-115 -207h-73zM456 267l-76 371h-4l-206 -371h286zM463 786q-20 0 -36.5 8.5t-31.5 18.5t-30 18.5t-33 8.5q-41 0 -50 -44h-54q7 53 36 77.5t69 24.5q20 0 36.5 -8.5t32.5 -17.5q15 -10 30 -18.5t33 -8.5q40 0 49 43h54
q-7 -52 -35.5 -77t-69.5 -25z" />
    <glyph glyph-name="Adieresis" unicode="&#xc4;" horiz-adv-x="653" 
d="M353 716h74l150 -716h-67l-41 207h-332l-115 -207h-73zM456 267l-76 371h-4l-206 -371h286zM479 799q-18 0 -31.5 13t-13.5 31q0 20 13.5 32.5t31.5 12.5q19 0 31.5 -12.5t12.5 -32.5q0 -18 -12.5 -31t-31.5 -13zM325 799q-18 0 -31.5 13t-13.5 31q0 20 13.5 32.5
t31.5 12.5q19 0 31.5 -12.5t12.5 -32.5q0 -18 -12.5 -31t-31.5 -13z" />
    <glyph glyph-name="Aring" unicode="&#xc5;" horiz-adv-x="653" 
d="M329 674q-18 14 -29 35.5t-11 46.5q0 43 29.5 72.5t72.5 29.5t72.5 -29.5t29.5 -72.5q0 -30 -15.5 -54t-40.5 -37l140 -665h-67l-41 207h-332l-115 -207h-73zM456 267l-74 363h-10l-202 -363h286zM391 702q22 0 37.5 15.5t15.5 38.5t-15.5 38.5t-37.5 15.5t-37.5 -15.5
t-15.5 -38.5t15.5 -38.5t37.5 -15.5z" />
    <glyph glyph-name="AE" unicode="&#xc6;" horiz-adv-x="936" 
d="M-59 0l555 716h448l-11 -61h-340l-48 -267h308l-10 -60h-308l-47 -267h340l-11 -61h-404l36 207h-271l-160 -207h-77zM224 267h236l69 388h-4z" />
    <glyph glyph-name="Ccedilla" unicode="&#xc7;" horiz-adv-x="725" 
d="M314 -237q-34 0 -58.5 19.5t-30.5 47.5l45 18q3 -17 15.5 -29t32.5 -12q23 0 40.5 15.5t17.5 43.5q0 20 -12.5 32.5t-32.5 12.5q-25 0 -43 -20l-33 17l42 79q-57 7 -105 33t-83.5 67.5t-55 97t-19.5 122.5q0 84 33 161t90.5 135.5t135.5 93.5t169 35q87 0 148.5 -33
t97.5 -87l-53 -41q-66 100 -201 100q-74 0 -139 -30t-113 -80.5t-75.5 -116t-27.5 -135.5q0 -60 19.5 -109t53 -83.5t79 -53t96.5 -18.5q83 0 143.5 31t113.5 84l40 -47q-31 -31 -63 -55t-69 -40.5t-79 -25t-92 -8.5l-23 -38q5 3 12 5.5t18 2.5q34 0 55.5 -24.5t21.5 -62.5
q0 -43 -30 -73.5t-81 -30.5z" />
    <glyph glyph-name="Egrave" unicode="&#xc8;" horiz-adv-x="537" 
d="M193 655l-47 -267h308l-10 -60h-308l-48 -267h340l-11 -61h-404l127 716h404l-11 -61h-340zM319 776l-46 124h72l29 -124h-55z" />
    <glyph glyph-name="Eacute" unicode="&#xc9;" horiz-adv-x="537" 
d="M307 776l73 124h76l-89 -124h-60zM193 655l-47 -267h308l-10 -60h-308l-48 -267h340l-11 -61h-404l127 716h404l-11 -61h-340z" />
    <glyph glyph-name="Ecircumflex" unicode="&#xca;" horiz-adv-x="537" 
d="M210 786l121 114h59l80 -114l-1 -5h-60l-50 72h-8l-73 -72h-69zM193 655l-47 -267h308l-10 -60h-308l-48 -267h340l-11 -61h-404l127 716h404l-11 -61h-340z" />
    <glyph glyph-name="Edieresis" unicode="&#xcb;" horiz-adv-x="537" 
d="M422 799q-18 0 -31.5 13t-13.5 31q0 20 13.5 32.5t31.5 12.5q19 0 31.5 -12.5t12.5 -32.5q0 -18 -12.5 -31t-31.5 -13zM268 799q-18 0 -31.5 13t-13.5 31q0 20 13.5 32.5t31.5 12.5q19 0 31.5 -12.5t12.5 -32.5q0 -18 -12.5 -31t-31.5 -13zM193 655l-47 -267h308l-10 -60
h-308l-48 -267h340l-11 -61h-404l127 716h404l-11 -61h-340z" />
    <glyph glyph-name="Igrave" unicode="&#xcc;" horiz-adv-x="218" 
d="M140 716h64l-127 -716h-64zM159 776l-46 124h72l29 -124h-55z" />
    <glyph glyph-name="Iacute" unicode="&#xcd;" horiz-adv-x="218" 
d="M140 716h64l-127 -716h-64zM148 776l73 124h76l-89 -124h-60z" />
    <glyph glyph-name="Icircumflex" unicode="&#xce;" horiz-adv-x="218" 
d="M140 716h64l-127 -716h-64zM46 786l121 114h59l80 -114l-1 -5h-60l-50 72h-8l-73 -72h-69z" />
    <glyph glyph-name="Idieresis" unicode="&#xcf;" horiz-adv-x="218" 
d="M127 799q-18 0 -31 13.5t-13 31.5q0 19 13 31.5t31 12.5q20 0 32.5 -12.5t12.5 -31.5q0 -18 -12.5 -31.5t-32.5 -13.5zM251 799q-18 0 -31 13.5t-13 31.5q0 19 13 31.5t31 12.5q20 0 32.5 -12.5t12.5 -31.5q0 -18 -12.5 -31.5t-32.5 -13.5zM140 716h64l-127 -716h-64z
" />
    <glyph glyph-name="Eth" unicode="&#xd0;" horiz-adv-x="743" 
d="M130 331h-75l9 53h76l59 332h208q74 0 131 -22.5t95.5 -63t58 -96.5t19.5 -124q0 -80 -28.5 -154t-83.5 -131t-134.5 -91t-181.5 -34h-211zM291 61q80 0 145 27t111.5 74t72 109.5t25.5 133.5q0 125 -65.5 187.5t-183.5 62.5h-144l-48 -271h212l-9 -53h-213l-47 -270h144
z" />
    <glyph glyph-name="Ntilde" unicode="&#xd1;" horiz-adv-x="690" 
d="M140 716h77l288 -604h4l21 138l82 466h64l-127 -716h-60l-300 631h-4l-20 -138l-88 -493h-64zM516 786q-20 0 -36.5 8.5t-31.5 18.5t-30 18.5t-33 8.5q-41 0 -50 -44h-54q7 53 36 77.5t69 24.5q20 0 36.5 -8.5t32.5 -17.5q15 -10 30 -18.5t33 -8.5q40 0 49 43h54
q-7 -52 -35.5 -77t-69.5 -25z" />
    <glyph glyph-name="Ograve" unicode="&#xd2;" horiz-adv-x="809" 
d="M356 -16q-69 0 -128 24.5t-102 68t-67.5 104.5t-24.5 133q0 84 31.5 160t87 133t132.5 91t169 34q69 0 128 -24.5t102 -68t67.5 -104t24.5 -132.5q0 -84 -31.5 -160t-87.5 -133.5t-133 -91.5t-168 -34zM363 45q73 0 136.5 29.5t110.5 78.5t74 113t27 133q0 61 -20 111.5
t-55.5 86t-84 55t-105.5 19.5q-73 0 -136.5 -29.5t-110 -79t-73.5 -113t-27 -132.5q0 -62 20 -112t55.5 -85.5t84 -55t104.5 -19.5zM433 776l-46 124h72l29 -124h-55z" />
    <glyph glyph-name="Oacute" unicode="&#xd3;" horiz-adv-x="809" 
d="M435 776l73 124h76l-89 -124h-60zM356 -16q-69 0 -128 24.5t-102 68t-67.5 104.5t-24.5 133q0 84 31.5 160t87 133t132.5 91t169 34q69 0 128 -24.5t102 -68t67.5 -104t24.5 -132.5q0 -84 -31.5 -160t-87.5 -133.5t-133 -91.5t-168 -34zM363 45q73 0 136.5 29.5
t110.5 78.5t74 113t27 133q0 61 -20 111.5t-55.5 86t-84 55t-105.5 19.5q-73 0 -136.5 -29.5t-110 -79t-73.5 -113t-27 -132.5q0 -62 20 -112t55.5 -85.5t84 -55t104.5 -19.5z" />
    <glyph glyph-name="Ocircumflex" unicode="&#xd4;" horiz-adv-x="809" 
d="M341 787l121 114h59l80 -114l-1 -5h-60l-50 72h-8l-73 -72h-69zM356 -16q-69 0 -128 24.5t-102 68t-67.5 104.5t-24.5 133q0 84 31.5 160t87 133t132.5 91t169 34q69 0 128 -24.5t102 -68t67.5 -104t24.5 -132.5q0 -84 -31.5 -160t-87.5 -133.5t-133 -91.5t-168 -34z
M363 45q73 0 136.5 29.5t110.5 78.5t74 113t27 133q0 61 -20 111.5t-55.5 86t-84 55t-105.5 19.5q-73 0 -136.5 -29.5t-110 -79t-73.5 -113t-27 -132.5q0 -62 20 -112t55.5 -85.5t84 -55t104.5 -19.5z" />
    <glyph glyph-name="Otilde" unicode="&#xd5;" horiz-adv-x="809" 
d="M356 -16q-69 0 -128 24.5t-102 68t-67.5 104.5t-24.5 133q0 84 31.5 160t87 133t132.5 91t169 34q69 0 128 -24.5t102 -68t67.5 -104t24.5 -132.5q0 -84 -31.5 -160t-87.5 -133.5t-133 -91.5t-168 -34zM363 45q73 0 136.5 29.5t110.5 78.5t74 113t27 133q0 61 -20 111.5
t-55.5 86t-84 55t-105.5 19.5q-73 0 -136.5 -29.5t-110 -79t-73.5 -113t-27 -132.5q0 -62 20 -112t55.5 -85.5t84 -55t104.5 -19.5zM540 786q-20 0 -36.5 8.5t-31.5 18.5t-30 18.5t-33 8.5q-41 0 -50 -44h-54q7 53 36 77.5t69 24.5q20 0 36.5 -8.5t32.5 -17.5
q15 -10 30 -18.5t33 -8.5q40 0 49 43h54q-7 -52 -35.5 -77t-69.5 -25z" />
    <glyph glyph-name="Odieresis" unicode="&#xd6;" horiz-adv-x="809" 
d="M552 799q-18 0 -31.5 13t-13.5 31q0 20 13.5 32.5t31.5 12.5q19 0 31.5 -12.5t12.5 -32.5q0 -18 -12.5 -31t-31.5 -13zM398 799q-18 0 -31.5 13t-13.5 31q0 20 13.5 32.5t31.5 12.5q19 0 31.5 -12.5t12.5 -32.5q0 -18 -12.5 -31t-31.5 -13zM356 -16q-69 0 -128 24.5
t-102 68t-67.5 104.5t-24.5 133q0 84 31.5 160t87 133t132.5 91t169 34q69 0 128 -24.5t102 -68t67.5 -104t24.5 -132.5q0 -84 -31.5 -160t-87.5 -133.5t-133 -91.5t-168 -34zM363 45q73 0 136.5 29.5t110.5 78.5t74 113t27 133q0 61 -20 111.5t-55.5 86t-84 55t-105.5 19.5
q-73 0 -136.5 -29.5t-110 -79t-73.5 -113t-27 -132.5q0 -62 20 -112t55.5 -85.5t84 -55t104.5 -19.5z" />
    <glyph glyph-name="multiply" unicode="&#xd7;" horiz-adv-x="522" 
d="M207 274l-130 154l41 35l131 -155l188 157l34 -41l-188 -156l131 -153l-41 -35l-131 153l-188 -156l-34 41z" />
    <glyph glyph-name="Oslash" unicode="&#xd8;" horiz-adv-x="809" 
d="M82 1l52 66q-48 44 -74 106.5t-26 140.5q0 84 31.5 160t87 133t132.5 91t169 34q49 0 93.5 -12.5t81.5 -35.5l53 67l45 -35l-53 -66q48 -45 75 -107.5t27 -139.5q0 -84 -31.5 -160t-87.5 -133.5t-133 -91.5t-168 -34q-51 0 -95 12.5t-81 35.5l-52 -66zM363 45
q73 0 136.5 29.5t110.5 78.5t74 113t27 133q0 63 -21 113.5t-57 85.5l-412 -515q30 -18 65 -28t77 -10zM99 317q0 -63 20.5 -113.5t55.5 -85.5l413 516q-62 37 -142 37q-73 0 -136.5 -29.5t-110 -79t-73.5 -113t-27 -132.5z" />
    <glyph glyph-name="Ugrave" unicode="&#xd9;" horiz-adv-x="635" 
d="M254 -16q-46 0 -85 15t-68 43t-45.5 68t-16.5 89q0 15 1.5 34t6.5 51l77 432h64l-79 -447q-4 -21 -5 -34.5t-1 -27.5q0 -35 10 -65t30.5 -51.5t50.5 -33.5t70 -12q47 0 86 16t68.5 44.5t49 67.5t27.5 85l81 458h64l-83 -469q-11 -60 -36 -108.5t-63.5 -83t-89.5 -53
t-114 -18.5zM362 776l-46 124h72l29 -124h-55z" />
    <glyph glyph-name="Uacute" unicode="&#xda;" horiz-adv-x="635" 
d="M349 776l73 124h76l-89 -124h-60zM254 -16q-46 0 -85 15t-68 43t-45.5 68t-16.5 89q0 15 1.5 34t6.5 51l77 432h64l-79 -447q-4 -21 -5 -34.5t-1 -27.5q0 -35 10 -65t30.5 -51.5t50.5 -33.5t70 -12q47 0 86 16t68.5 44.5t49 67.5t27.5 85l81 458h64l-83 -469
q-11 -60 -36 -108.5t-63.5 -83t-89.5 -53t-114 -18.5z" />
    <glyph glyph-name="Ucircumflex" unicode="&#xdb;" horiz-adv-x="635" 
d="M249 786l121 114h59l80 -114l-1 -5h-60l-50 72h-8l-73 -72h-69zM254 -16q-46 0 -85 15t-68 43t-45.5 68t-16.5 89q0 15 1.5 34t6.5 51l77 432h64l-79 -447q-4 -21 -5 -34.5t-1 -27.5q0 -35 10 -65t30.5 -51.5t50.5 -33.5t70 -12q47 0 86 16t68.5 44.5t49 67.5t27.5 85
l81 458h64l-83 -469q-11 -60 -36 -108.5t-63.5 -83t-89.5 -53t-114 -18.5z" />
    <glyph glyph-name="Udieresis" unicode="&#xdc;" horiz-adv-x="635" 
d="M465 799q-18 0 -31.5 13t-13.5 31q0 20 13.5 32.5t31.5 12.5q19 0 31.5 -12.5t12.5 -32.5q0 -18 -12.5 -31t-31.5 -13zM311 799q-18 0 -31.5 13t-13.5 31q0 20 13.5 32.5t31.5 12.5q19 0 31.5 -12.5t12.5 -32.5q0 -18 -12.5 -31t-31.5 -13zM254 -16q-46 0 -85 15t-68 43
t-45.5 68t-16.5 89q0 15 1.5 34t6.5 51l77 432h64l-79 -447q-4 -21 -5 -34.5t-1 -27.5q0 -35 10 -65t30.5 -51.5t50.5 -33.5t70 -12q47 0 86 16t68.5 44.5t49 67.5t27.5 85l81 458h64l-83 -469q-11 -60 -36 -108.5t-63.5 -83t-89.5 -53t-114 -18.5z" />
    <glyph glyph-name="Yacute" unicode="&#xdd;" horiz-adv-x="579" 
d="M196 0l57 324l-177 392h72l144 -326h4l256 326h78l-313 -392l-57 -324h-64zM316 776l73 124h76l-89 -124h-60z" />
    <glyph glyph-name="Thorn" unicode="&#xde;" horiz-adv-x="557" 
d="M13 0l127 716h64l-22 -126h163q43 0 78.5 -13t61 -37t39.5 -58t14 -75q0 -54 -19.5 -97t-54.5 -74t-83 -47.5t-105 -16.5h-168l-31 -172h-64zM287 233q40 0 74 11.5t58.5 33t38.5 52.5t14 71q0 31 -10.5 55t-28.5 40t-42 24.5t-51 8.5h-169l-52 -296h168z" />
    <glyph glyph-name="germandbls" unicode="&#xdf;" horiz-adv-x="549" 
d="M104 516q8 47 26.5 87t48 68.5t69 44.5t89.5 16q42 0 75.5 -13t57 -35.5t36.5 -53t13 -65.5q0 -32 -10 -59.5t-27.5 -50.5t-41.5 -40t-52 -27l-1 -4q42 -17 72.5 -58t30.5 -103q0 -50 -19.5 -92t-53 -73t-80 -48.5t-100.5 -17.5q-21 0 -37.5 1.5t-31.5 4.5l10 61
q31 -7 65 -7q37 0 70 11.5t58 33.5t39 52.5t14 68.5q0 58 -36.5 97t-112.5 39h-36l11 59h32q32 0 62.5 10t54.5 28.5t39 46t15 62.5q0 52 -34.5 82t-88.5 30q-61 0 -104.5 -41t-56.5 -116l-91 -515h-65z" />
    <glyph glyph-name="agrave" unicode="&#xe0;" horiz-adv-x="506" 
d="M276 506q88 0 136.5 -44.5t48.5 -119.5q0 -11 -1.5 -22.5t-3.5 -24.5l-52 -295h-62l14 85h-4q-30 -45 -78 -73t-108 -28q-36 0 -66 11t-51.5 31t-33.5 47.5t-12 60.5q0 42 18 75t49.5 56t74 35t91.5 12q46 0 85.5 -11t68.5 -27l6 31q1 7 1.5 14.5t0.5 14.5q0 54 -35 84.5
t-94 30.5q-44 0 -82.5 -19t-65.5 -57l-50 35q33 48 87 73t118 25zM179 41q36 0 69.5 14t60.5 38.5t46 56.5t25 68q-17 11 -53 26t-97 15q-31 0 -60 -7.5t-51.5 -22.5t-36 -38t-13.5 -54q0 -23 9 -41t24 -30t35 -18.5t42 -6.5zM273 592l-46 124h72l29 -124h-55z" />
    <glyph glyph-name="aacute" unicode="&#xe1;" horiz-adv-x="506" 
d="M276 506q88 0 136.5 -44.5t48.5 -119.5q0 -11 -1.5 -22.5t-3.5 -24.5l-52 -295h-62l14 85h-4q-30 -45 -78 -73t-108 -28q-36 0 -66 11t-51.5 31t-33.5 47.5t-12 60.5q0 42 18 75t49.5 56t74 35t91.5 12q46 0 85.5 -11t68.5 -27l6 31q1 7 1.5 14.5t0.5 14.5q0 54 -35 84.5
t-94 30.5q-44 0 -82.5 -19t-65.5 -57l-50 35q33 48 87 73t118 25zM179 41q36 0 69.5 14t60.5 38.5t46 56.5t25 68q-17 11 -53 26t-97 15q-31 0 -60 -7.5t-51.5 -22.5t-36 -38t-13.5 -54q0 -23 9 -41t24 -30t35 -18.5t42 -6.5zM255 592l73 124h76l-89 -124h-60z" />
    <glyph glyph-name="acircumflex" unicode="&#xe2;" horiz-adv-x="506" 
d="M276 506q88 0 136.5 -44.5t48.5 -119.5q0 -11 -1.5 -22.5t-3.5 -24.5l-52 -295h-62l14 85h-4q-30 -45 -78 -73t-108 -28q-36 0 -66 11t-51.5 31t-33.5 47.5t-12 60.5q0 42 18 75t49.5 56t74 35t91.5 12q46 0 85.5 -11t68.5 -27l6 31q1 7 1.5 14.5t0.5 14.5q0 54 -35 84.5
t-94 30.5q-44 0 -82.5 -19t-65.5 -57l-50 35q33 48 87 73t118 25zM179 41q36 0 69.5 14t60.5 38.5t46 56.5t25 68q-17 11 -53 26t-97 15q-31 0 -60 -7.5t-51.5 -22.5t-36 -38t-13.5 -54q0 -23 9 -41t24 -30t35 -18.5t42 -6.5zM159 602l121 114h59l80 -114l-1 -5h-60l-50 72
h-8l-73 -72h-69z" />
    <glyph glyph-name="atilde" unicode="&#xe3;" horiz-adv-x="506" 
d="M276 506q88 0 136.5 -44.5t48.5 -119.5q0 -11 -1.5 -22.5t-3.5 -24.5l-52 -295h-62l14 85h-4q-30 -45 -78 -73t-108 -28q-36 0 -66 11t-51.5 31t-33.5 47.5t-12 60.5q0 42 18 75t49.5 56t74 35t91.5 12q46 0 85.5 -11t68.5 -27l6 31q1 7 1.5 14.5t0.5 14.5q0 54 -35 84.5
t-94 30.5q-44 0 -82.5 -19t-65.5 -57l-50 35q33 48 87 73t118 25zM179 41q36 0 69.5 14t60.5 38.5t46 56.5t25 68q-17 11 -53 26t-97 15q-31 0 -60 -7.5t-51.5 -22.5t-36 -38t-13.5 -54q0 -23 9 -41t24 -30t35 -18.5t42 -6.5zM373 603q-20 0 -36.5 8.5t-31.5 18.5t-30 18.5
t-33 8.5q-41 0 -50 -44h-54q7 53 36 77.5t69 24.5q20 0 36.5 -8.5t32.5 -17.5q15 -10 30 -18.5t33 -8.5q40 0 49 43h54q-7 -52 -35.5 -77t-69.5 -25z" />
    <glyph glyph-name="adieresis" unicode="&#xe4;" horiz-adv-x="506" 
d="M276 506q88 0 136.5 -44.5t48.5 -119.5q0 -11 -1.5 -22.5t-3.5 -24.5l-52 -295h-62l14 85h-4q-30 -45 -78 -73t-108 -28q-36 0 -66 11t-51.5 31t-33.5 47.5t-12 60.5q0 42 18 75t49.5 56t74 35t91.5 12q46 0 85.5 -11t68.5 -27l6 31q1 7 1.5 14.5t0.5 14.5q0 54 -35 84.5
t-94 30.5q-44 0 -82.5 -19t-65.5 -57l-50 35q33 48 87 73t118 25zM179 41q36 0 69.5 14t60.5 38.5t46 56.5t25 68q-17 11 -53 26t-97 15q-31 0 -60 -7.5t-51.5 -22.5t-36 -38t-13.5 -54q0 -23 9 -41t24 -30t35 -18.5t42 -6.5zM383 615q-18 0 -31.5 13t-13.5 31
q0 20 13.5 32.5t31.5 12.5q19 0 31.5 -12.5t12.5 -32.5q0 -18 -12.5 -31t-31.5 -13zM229 615q-18 0 -31.5 13t-13.5 31q0 20 13.5 32.5t31.5 12.5q19 0 31.5 -12.5t12.5 -32.5q0 -18 -12.5 -31t-31.5 -13z" />
    <glyph glyph-name="aring" unicode="&#xe5;" horiz-adv-x="506" 
d="M276 506q88 0 136.5 -44.5t48.5 -119.5q0 -11 -1.5 -22.5t-3.5 -24.5l-52 -295h-62l14 85h-4q-30 -45 -78 -73t-108 -28q-36 0 -66 11t-51.5 31t-33.5 47.5t-12 60.5q0 42 18 75t49.5 56t74 35t91.5 12q46 0 85.5 -11t68.5 -27l6 31q1 7 1.5 14.5t0.5 14.5q0 54 -35 84.5
t-94 30.5q-44 0 -82.5 -19t-65.5 -57l-50 35q33 48 87 73t118 25zM179 41q36 0 69.5 14t60.5 38.5t46 56.5t25 68q-17 11 -53 26t-97 15q-31 0 -60 -7.5t-51.5 -22.5t-36 -38t-13.5 -54q0 -23 9 -41t24 -30t35 -18.5t42 -6.5zM305 567q-21 0 -40 8t-32.5 22t-21.5 32.5
t-8 39.5q0 43 29.5 72.5t72.5 29.5q21 0 39.5 -8t32.5 -21.5t22 -32.5t8 -40t-8 -39.5t-22 -32.5t-32.5 -22t-39.5 -8zM305 613q23 0 39 16t16 40t-16 40t-39 16t-39 -16t-16 -40t16 -40t39 -16z" />
    <glyph glyph-name="ae" unicode="&#xe6;" horiz-adv-x="903" 
d="M822 116q-36 -61 -93 -96.5t-135 -35.5q-38 0 -70 11t-57 30t-42.5 44.5t-26.5 54.5q-38 -66 -98 -103t-132 -37q-37 0 -67.5 11t-52 31t-33.5 47.5t-12 60.5q0 42 18 75t49.5 56t74 35t91.5 12q46 0 85.5 -11t68.5 -27l6 31q1 6 2 14.5t1 15.5q0 54 -34.5 84t-91.5 30
q-46 0 -87 -21t-62 -58l-54 29q32 50 84.5 78.5t123.5 28.5q67 0 109.5 -31t59.5 -80q37 49 91 80t123 31q48 0 85 -15.5t62.5 -42.5t38.5 -64t13 -80q0 -36 -8 -70h-403q-2 -7 -2.5 -16.5t-0.5 -18.5q0 -38 13 -67t34 -49t48.5 -30.5t56.5 -10.5q66 0 105.5 28t70.5 74z
M179 41q36 0 69.5 14t60.5 38.5t46 56.5t25 68q-17 11 -53 26t-97 15q-31 0 -60 -7.5t-51.5 -22.5t-36 -38t-13.5 -54q0 -23 9 -41t24 -30t35 -18.5t42 -6.5zM795 288q1 4 1 11v11q0 22 -6.5 46.5t-22.5 44.5t-43.5 33.5t-69.5 13.5q-32 0 -62 -10.5t-55.5 -31t-45 -50
t-30.5 -68.5h334z" />
    <glyph glyph-name="ccedilla" unicode="&#xe7;" horiz-adv-x="513" 
d="M183 -237q-34 0 -58.5 19.5t-31.5 47.5l45 18q3 -17 15.5 -29t32.5 -12q23 0 40.5 15.5t17.5 43.5q0 20 -12 32.5t-32 12.5q-14 0 -24.5 -5.5t-19.5 -14.5l-33 17l44 81q-36 8 -65.5 28t-50.5 49t-32.5 65.5t-11.5 77.5q0 61 21.5 115t60 94.5t91.5 64t116 23.5
q41 0 73 -11t55.5 -29.5t39.5 -44t25 -54.5l-61 -25q-17 51 -49.5 78.5t-89.5 27.5q-47 0 -86.5 -18.5t-68.5 -51t-45.5 -75t-16.5 -90.5q0 -37 11 -68t31 -54t48 -36t62 -13q54 0 97.5 27.5t73.5 78.5l52 -24q-41 -71 -94.5 -105.5t-134.5 -34.5h-9l-22 -38q5 3 12 5.5
t18 2.5q33 0 54.5 -24.5t21.5 -62.5q0 -43 -29.5 -73.5t-80.5 -30.5z" />
    <glyph glyph-name="egrave" unicode="&#xe8;" horiz-adv-x="528" 
d="M448 116q-37 -60 -93.5 -96t-133.5 -36q-48 0 -88 16.5t-68 46.5t-43.5 71t-15.5 90q0 55 19.5 108.5t55.5 95.5t87.5 68t115.5 26q50 0 88 -15.5t63.5 -42.5t38 -64t12.5 -80q0 -19 -2 -37.5t-7 -32.5h-403q-2 -9 -2 -17v-18q0 -38 13 -67t34.5 -49t49 -30.5t56.5 -10.5
q61 0 103 29t71 74zM421 288q0 4 1 11v11q0 24 -8 49t-25 44.5t-44 32t-66 12.5q-32 0 -63 -11t-56.5 -31.5t-45 -50.5t-29.5 -67h336zM280 592l-46 124h72l29 -124h-55z" />
    <glyph glyph-name="eacute" unicode="&#xe9;" horiz-adv-x="528" 
d="M268 592l73 124h76l-89 -124h-60zM448 116q-37 -60 -93.5 -96t-133.5 -36q-48 0 -88 16.5t-68 46.5t-43.5 71t-15.5 90q0 55 19.5 108.5t55.5 95.5t87.5 68t115.5 26q50 0 88 -15.5t63.5 -42.5t38 -64t12.5 -80q0 -19 -2 -37.5t-7 -32.5h-403q-2 -9 -2 -17v-18
q0 -38 13 -67t34.5 -49t49 -30.5t56.5 -10.5q61 0 103 29t71 74zM421 288q0 4 1 11v11q0 24 -8 49t-25 44.5t-44 32t-66 12.5q-32 0 -63 -11t-56.5 -31.5t-45 -50.5t-29.5 -67h336z" />
    <glyph glyph-name="ecircumflex" unicode="&#xea;" horiz-adv-x="528" 
d="M180 593l121 114h59l80 -114l-1 -5h-60l-50 72h-8l-73 -72h-69zM448 116q-37 -60 -93.5 -96t-133.5 -36q-48 0 -88 16.5t-68 46.5t-43.5 71t-15.5 90q0 55 19.5 108.5t55.5 95.5t87.5 68t115.5 26q50 0 88 -15.5t63.5 -42.5t38 -64t12.5 -80q0 -19 -2 -37.5t-7 -32.5
h-403q-2 -9 -2 -17v-18q0 -38 13 -67t34.5 -49t49 -30.5t56.5 -10.5q61 0 103 29t71 74zM421 288q0 4 1 11v11q0 24 -8 49t-25 44.5t-44 32t-66 12.5q-32 0 -63 -11t-56.5 -31.5t-45 -50.5t-29.5 -67h336z" />
    <glyph glyph-name="edieresis" unicode="&#xeb;" horiz-adv-x="528" 
d="M392 615q-18 0 -31.5 13t-13.5 31q0 20 13.5 32.5t31.5 12.5q19 0 31.5 -12.5t12.5 -32.5q0 -18 -12.5 -31t-31.5 -13zM238 615q-18 0 -31.5 13t-13.5 31q0 20 13.5 32.5t31.5 12.5q19 0 31.5 -12.5t12.5 -32.5q0 -18 -12.5 -31t-31.5 -13zM448 116q-37 -60 -93.5 -96
t-133.5 -36q-48 0 -88 16.5t-68 46.5t-43.5 71t-15.5 90q0 55 19.5 108.5t55.5 95.5t87.5 68t115.5 26q50 0 88 -15.5t63.5 -42.5t38 -64t12.5 -80q0 -19 -2 -37.5t-7 -32.5h-403q-2 -9 -2 -17v-18q0 -38 13 -67t34.5 -49t49 -30.5t56.5 -10.5q61 0 103 29t71 74zM421 288
q0 4 1 11v11q0 24 -8 49t-25 44.5t-44 32t-66 12.5q-32 0 -63 -11t-56.5 -31.5t-45 -50.5t-29.5 -67h336z" />
    <glyph glyph-name="igrave" unicode="&#xec;" horiz-adv-x="195" 
d="M2 0l86 490h64l-86 -490h-64zM113 592l-46 124h72l29 -124h-55z" />
    <glyph glyph-name="iacute" unicode="&#xed;" horiz-adv-x="195" 
d="M107 592l73 124h76l-89 -124h-60zM2 0l86 490h64l-86 -490h-64z" />
    <glyph glyph-name="icircumflex" unicode="&#xee;" horiz-adv-x="195" 
d="M9 602l121 114h59l80 -114l-1 -5h-60l-50 72h-8l-73 -72h-69zM2 0l86 490h64l-86 -490h-64z" />
    <glyph glyph-name="idieresis" unicode="&#xef;" horiz-adv-x="195" 
d="M86 615q-18 0 -31 13t-13 31q0 20 13 32.5t31 12.5q20 0 32.5 -12.5t12.5 -32.5q0 -18 -12.5 -31t-32.5 -13zM210 615q-18 0 -31 13t-13 31q0 20 13 32.5t31 12.5q20 0 32.5 -12.5t12.5 -32.5q0 -18 -12.5 -31t-32.5 -13zM2 0l86 490h64l-86 -490h-64z" />
    <glyph glyph-name="eth" unicode="&#xf0;" horiz-adv-x="568" 
d="M447 403q-8 53 -29.5 96.5t-53.5 77.5l-151 -62l-19 47l128 52q-26 20 -55.5 33.5t-61.5 21.5l22 55q90 -24 159 -84l109 45l18 -46l-90 -37q45 -53 69.5 -121t24.5 -150q0 -74 -18.5 -137.5t-54 -110t-87.5 -73t-119 -26.5q-47 0 -87.5 16.5t-70 46t-46.5 69t-17 85.5
q0 54 20.5 103t57 87t87 60.5t109.5 22.5q30 0 53.5 -7t42.5 -17.5t32.5 -24t22.5 -25.5zM245 44q41 0 77 16.5t62.5 45.5t41.5 68.5t15 84.5q0 70 -41 113.5t-110 43.5q-44 0 -81.5 -16.5t-66 -45t-44.5 -67t-16 -83.5q0 -35 12 -64.5t34 -50.5t52 -33t65 -12z" />
    <glyph glyph-name="ntilde" unicode="&#xf1;" 
d="M126 398h4q28 45 76.5 76.5t115.5 31.5q72 0 112 -42.5t40 -108.5q0 -27 -6 -64l-52 -291h-64l53 297q2 14 3 24t1 21q0 51 -28 78.5t-81 27.5q-36 0 -68 -15t-57.5 -41t-43 -60t-24.5 -73l-46 -259h-65l87 490h60zM392 603q-20 0 -36.5 8.5t-31.5 18.5t-30 18.5t-33 8.5
q-41 0 -50 -44h-54q7 53 36 77.5t69 24.5q20 0 36.5 -8.5t32.5 -17.5q15 -10 30 -18.5t33 -8.5q40 0 49 43h54q-7 -52 -35.5 -77t-69.5 -25z" />
    <glyph glyph-name="ograve" unicode="&#xf2;" horiz-adv-x="554" 
d="M295 506q48 0 88 -17.5t69.5 -48.5t46 -73t16.5 -90q0 -59 -21 -112t-59 -93.5t-91 -64t-117 -23.5q-48 0 -88 17.5t-69.5 48.5t-46 73t-16.5 91q0 59 21 112t59 93t91 63.5t117 23.5zM234 42q48 0 88 19t68.5 51.5t44 74t15.5 86.5q0 38 -13 70t-35 55.5t-51.5 36.5
t-62.5 13q-48 0 -88 -19t-68.5 -51t-44 -73.5t-15.5 -86.5q0 -38 13 -70t35 -55.5t51.5 -37t62.5 -13.5zM283 592l-46 124h72l29 -124h-55z" />
    <glyph glyph-name="oacute" unicode="&#xf3;" horiz-adv-x="554" 
d="M284 592l73 124h76l-89 -124h-60zM295 506q48 0 88 -17.5t69.5 -48.5t46 -73t16.5 -90q0 -59 -21 -112t-59 -93.5t-91 -64t-117 -23.5q-48 0 -88 17.5t-69.5 48.5t-46 73t-16.5 91q0 59 21 112t59 93t91 63.5t117 23.5zM234 42q48 0 88 19t68.5 51.5t44 74t15.5 86.5
q0 38 -13 70t-35 55.5t-51.5 36.5t-62.5 13q-48 0 -88 -19t-68.5 -51t-44 -73.5t-15.5 -86.5q0 -38 13 -70t35 -55.5t51.5 -37t62.5 -13.5z" />
    <glyph glyph-name="ocircumflex" unicode="&#xf4;" horiz-adv-x="554" 
d="M188 602l121 114h59l80 -114l-1 -5h-60l-50 72h-8l-73 -72h-69zM295 506q48 0 88 -17.5t69.5 -48.5t46 -73t16.5 -90q0 -59 -21 -112t-59 -93.5t-91 -64t-117 -23.5q-48 0 -88 17.5t-69.5 48.5t-46 73t-16.5 91q0 59 21 112t59 93t91 63.5t117 23.5zM234 42q48 0 88 19
t68.5 51.5t44 74t15.5 86.5q0 38 -13 70t-35 55.5t-51.5 36.5t-62.5 13q-48 0 -88 -19t-68.5 -51t-44 -73.5t-15.5 -86.5q0 -38 13 -70t35 -55.5t51.5 -37t62.5 -13.5z" />
    <glyph glyph-name="otilde" unicode="&#xf5;" horiz-adv-x="554" 
d="M295 506q48 0 88 -17.5t69.5 -48.5t46 -73t16.5 -90q0 -59 -21 -112t-59 -93.5t-91 -64t-117 -23.5q-48 0 -88 17.5t-69.5 48.5t-46 73t-16.5 91q0 59 21 112t59 93t91 63.5t117 23.5zM234 42q48 0 88 19t68.5 51.5t44 74t15.5 86.5q0 38 -13 70t-35 55.5t-51.5 36.5
t-62.5 13q-48 0 -88 -19t-68.5 -51t-44 -73.5t-15.5 -86.5q0 -38 13 -70t35 -55.5t51.5 -37t62.5 -13.5zM394 603q-20 0 -36.5 8.5t-31.5 18.5t-30 18.5t-33 8.5q-41 0 -50 -44h-54q7 53 36 77.5t69 24.5q20 0 36.5 -8.5t32.5 -17.5q15 -10 30 -18.5t33 -8.5q40 0 49 43h54
q-7 -52 -35.5 -77t-69.5 -25z" />
    <glyph glyph-name="odieresis" unicode="&#xf6;" horiz-adv-x="554" 
d="M407 615q-18 0 -31.5 13t-13.5 31q0 20 13.5 32.5t31.5 12.5q19 0 31.5 -12.5t12.5 -32.5q0 -18 -12.5 -31t-31.5 -13zM253 615q-18 0 -31.5 13t-13.5 31q0 20 13.5 32.5t31.5 12.5q19 0 31.5 -12.5t12.5 -32.5q0 -18 -12.5 -31t-31.5 -13zM295 506q48 0 88 -17.5
t69.5 -48.5t46 -73t16.5 -90q0 -59 -21 -112t-59 -93.5t-91 -64t-117 -23.5q-48 0 -88 17.5t-69.5 48.5t-46 73t-16.5 91q0 59 21 112t59 93t91 63.5t117 23.5zM234 42q48 0 88 19t68.5 51.5t44 74t15.5 86.5q0 38 -13 70t-35 55.5t-51.5 36.5t-62.5 13q-48 0 -88 -19
t-68.5 -51t-44 -73.5t-15.5 -86.5q0 -38 13 -70t35 -55.5t51.5 -37t62.5 -13.5z" />
    <glyph glyph-name="divide" unicode="&#xf7;" horiz-adv-x="544" 
d="M39 244l10 54h425l-10 -54h-425zM221 20q-22 0 -36.5 15t-14.5 37t14.5 36.5t36.5 14.5t37 -14.5t15 -36.5t-15 -37t-37 -15zM291 419q-22 0 -36.5 15t-14.5 37t14.5 36.5t36.5 14.5t37 -14.5t15 -36.5t-15 -37t-37 -15z" />
    <glyph glyph-name="oslash" unicode="&#xf8;" horiz-adv-x="554" 
d="M295 506q68 0 121 -36l43 54l41 -33l-44 -55q28 -31 43.5 -71.5t15.5 -87.5q0 -59 -21 -112t-59 -93.5t-91 -64t-117 -23.5q-60 0 -110 28l-35 -43l-43 32l35 44q-32 31 -49.5 74.5t-17.5 94.5q0 59 21 112t59 93t91 63.5t117 23.5zM72 218q0 -37 12 -68t32 -54l260 325
q-19 13 -41.5 20t-46.5 7q-48 0 -88 -19t-68.5 -51t-44 -73.5t-15.5 -86.5zM234 42q48 0 88 19t68.5 51.5t44 74t15.5 86.5q0 64 -36 111l-257 -322q35 -20 77 -20z" />
    <glyph glyph-name="ugrave" unicode="&#xf9;" 
d="M370 92h-4q-28 -45 -76 -76.5t-115 -31.5q-36 0 -64.5 11.5t-48 31.5t-30 47.5t-10.5 60.5q0 14 1.5 29t5.5 35l51 291h64l-52 -297q-2 -13 -3.5 -23.5t-1.5 -21.5q0 -50 28 -78t82 -28q36 0 68 15t57.5 41t43 60.5t24.5 73.5l46 258h64l-86 -490h-60zM286 592l-46 124
h72l29 -124h-55z" />
    <glyph glyph-name="uacute" unicode="&#xfa;" 
d="M270 592l73 124h76l-89 -124h-60zM370 92h-4q-28 -45 -76 -76.5t-115 -31.5q-36 0 -64.5 11.5t-48 31.5t-30 47.5t-10.5 60.5q0 14 1.5 29t5.5 35l51 291h64l-52 -297q-2 -13 -3.5 -23.5t-1.5 -21.5q0 -50 28 -78t82 -28q36 0 68 15t57.5 41t43 60.5t24.5 73.5l46 258h64
l-86 -490h-60z" />
    <glyph glyph-name="ucircumflex" unicode="&#xfb;" 
d="M180 587l121 114h59l80 -114l-1 -5h-60l-50 72h-8l-73 -72h-69zM370 92h-4q-28 -45 -76 -76.5t-115 -31.5q-36 0 -64.5 11.5t-48 31.5t-30 47.5t-10.5 60.5q0 14 1.5 29t5.5 35l51 291h64l-52 -297q-2 -13 -3.5 -23.5t-1.5 -21.5q0 -50 28 -78t82 -28q36 0 68 15t57.5 41
t43 60.5t24.5 73.5l46 258h64l-86 -490h-60z" />
    <glyph glyph-name="udieresis" unicode="&#xfc;" 
d="M399 615q-18 0 -31.5 13t-13.5 31q0 20 13.5 32.5t31.5 12.5q19 0 31.5 -12.5t12.5 -32.5q0 -18 -12.5 -31t-31.5 -13zM245 615q-18 0 -31.5 13t-13.5 31q0 20 13.5 32.5t31.5 12.5q19 0 31.5 -12.5t12.5 -32.5q0 -18 -12.5 -31t-31.5 -13zM370 92h-4q-28 -45 -76 -76.5
t-115 -31.5q-36 0 -64.5 11.5t-48 31.5t-30 47.5t-10.5 60.5q0 14 1.5 29t5.5 35l51 291h64l-52 -297q-2 -13 -3.5 -23.5t-1.5 -21.5q0 -50 28 -78t82 -28q36 0 68 15t57.5 41t43 60.5t24.5 73.5l46 258h64l-86 -490h-60z" />
    <glyph glyph-name="yacute" unicode="&#xfd;" horiz-adv-x="478" 
d="M11 -216l159 254l-125 452h68l101 -378h2l226 378h72l-434 -706h-69zM251 592l73 124h76l-89 -124h-60z" />
    <glyph glyph-name="thorn" unicode="&#xfe;" horiz-adv-x="569" 
d="M342 506q45 0 82 -15.5t63.5 -44t41.5 -70.5t15 -94q0 -58 -21 -111.5t-58.5 -95t-89 -66.5t-113.5 -25t-104.5 31t-62.5 73h-4l-8 -68l-43 -241h-64l166 937h64l-43 -240l-16 -69h4q28 40 75.5 69.5t115.5 29.5zM267 42q48 0 87 20t66.5 53t43 75t15.5 87
q0 83 -41.5 127t-110.5 44q-46 0 -85 -20.5t-67 -54t-43.5 -77.5t-15.5 -90q0 -39 11.5 -69.5t32 -51.5t48 -32t59.5 -11z" />
    <glyph glyph-name="ydieresis" unicode="&#xff;" horiz-adv-x="478" 
d="M11 -216l159 254l-125 452h68l101 -378h2l226 378h72l-434 -706h-69zM370 615q-18 0 -31.5 13t-13.5 31q0 20 13.5 32.5t31.5 12.5q19 0 31.5 -12.5t12.5 -32.5q0 -18 -12.5 -31t-31.5 -13zM216 615q-18 0 -31.5 13t-13.5 31q0 20 13.5 32.5t31.5 12.5q19 0 31.5 -12.5
t12.5 -32.5q0 -18 -12.5 -31t-31.5 -13z" />
    <glyph glyph-name="Amacron" unicode="&#x100;" horiz-adv-x="653" 
d="M353 716h74l150 -716h-67l-41 207h-332l-115 -207h-73zM456 267l-76 371h-4l-206 -371h286zM264 817l9 52h268l-9 -52h-268z" />
    <glyph glyph-name="amacron" unicode="&#x101;" horiz-adv-x="506" 
d="M276 506q88 0 136.5 -44.5t48.5 -119.5q0 -11 -1.5 -22.5t-3.5 -24.5l-52 -295h-62l14 85h-4q-30 -45 -78 -73t-108 -28q-36 0 -66 11t-51.5 31t-33.5 47.5t-12 60.5q0 42 18 75t49.5 56t74 35t91.5 12q46 0 85.5 -11t68.5 -27l6 31q1 7 1.5 14.5t0.5 14.5q0 54 -35 84.5
t-94 30.5q-44 0 -82.5 -19t-65.5 -57l-50 35q33 48 87 73t118 25zM179 41q36 0 69.5 14t60.5 38.5t46 56.5t25 68q-17 11 -53 26t-97 15q-31 0 -60 -7.5t-51.5 -22.5t-36 -38t-13.5 -54q0 -23 9 -41t24 -30t35 -18.5t42 -6.5zM172 633l9 52h268l-9 -52h-268z" />
    <glyph glyph-name="Abreve" unicode="&#x102;" horiz-adv-x="653" 
d="M353 716h74l150 -716h-67l-41 207h-332l-115 -207h-73zM456 267l-76 371h-4l-206 -371h286zM397 776q-21 0 -40 7.5t-34 20.5t-23.5 31.5t-8.5 40.5q0 5 0.5 10t1.5 10h55q-1 -5 -1 -7v-6q0 -23 14 -39.5t43 -16.5q32 0 53.5 20t26.5 49h53q-9 -60 -46.5 -90t-93.5 -30z
" />
    <glyph glyph-name="abreve" unicode="&#x103;" horiz-adv-x="506" 
d="M276 506q88 0 136.5 -44.5t48.5 -119.5q0 -11 -1.5 -22.5t-3.5 -24.5l-52 -295h-62l14 85h-4q-30 -45 -78 -73t-108 -28q-36 0 -66 11t-51.5 31t-33.5 47.5t-12 60.5q0 42 18 75t49.5 56t74 35t91.5 12q46 0 85.5 -11t68.5 -27l6 31q1 7 1.5 14.5t0.5 14.5q0 54 -35 84.5
t-94 30.5q-44 0 -82.5 -19t-65.5 -57l-50 35q33 48 87 73t118 25zM179 41q36 0 69.5 14t60.5 38.5t46 56.5t25 68q-17 11 -53 26t-97 15q-31 0 -60 -7.5t-51.5 -22.5t-36 -38t-13.5 -54q0 -23 9 -41t24 -30t35 -18.5t42 -6.5zM298 592q-21 0 -40 7.5t-34 20.5t-23.5 31.5
t-8.5 40.5q0 5 0.5 10t1.5 10h55q-1 -5 -1 -7v-6q0 -23 14 -39.5t43 -16.5q32 0 53.5 20t26.5 49h53q-9 -60 -46.5 -90t-93.5 -30z" />
    <glyph glyph-name="Aogonek" unicode="&#x104;" horiz-adv-x="653" 
d="M520 -224q-43 0 -70.5 26.5t-27.5 65.5q0 42 23 75t64 61l-40 203h-332l-115 -207h-73l404 716h74l150 -716q-15 -9 -32 -22t-31 -28t-23 -32.5t-9 -36.5q0 -25 14.5 -38t35.5 -13q18 0 35 7l15 -48q-14 -6 -28.5 -9.5t-33.5 -3.5zM456 267l-76 371h-4l-206 -371h286z
" />
    <glyph glyph-name="aogonek" unicode="&#x105;" horiz-adv-x="506" 
d="M346 -224q-42 0 -69.5 26.5t-27.5 65.5q0 42 25.5 76.5t66.5 55.5l15 85h-4q-30 -45 -78.5 -73t-108.5 -28q-36 0 -66 11t-51 31t-33 47.5t-12 60.5q0 42 18 75t49.5 56t73.5 35t91 12q47 0 86 -11t68 -27l6 31q3 13 3 29q0 54 -35.5 84.5t-94.5 30.5q-44 0 -82 -19
t-66 -57l-50 35q34 48 87.5 73t117.5 25q89 0 137 -44.5t48 -119.5q0 -11 -1 -22.5t-3 -24.5l-53 -295q-15 -9 -32 -22t-30.5 -28t-22.5 -32.5t-9 -36.5q0 -25 14.5 -38t34.5 -13q11 0 18.5 1.5t17.5 5.5l14 -48q-14 -6 -28 -9.5t-34 -3.5zM179 41q36 0 69.5 14t60.5 38.5
t45.5 56.5t24.5 68q-17 11 -53 26t-96 15q-32 0 -61 -7.5t-51.5 -22.5t-36 -38t-13.5 -54q0 -47 33 -71.5t78 -24.5z" />
    <glyph glyph-name="Cacute" unicode="&#x106;" horiz-adv-x="725" 
d="M430 776l73 124h76l-89 -124h-60zM644 113q-31 -31 -63 -55t-68.5 -40.5t-78.5 -25t-91 -8.5q-66 0 -122.5 23t-98 65t-65 101.5t-23.5 133.5q0 84 33 161t90.5 135.5t135.5 93.5t169 35q87 0 148.5 -33t97.5 -87l-53 -41q-66 100 -201 100q-74 0 -139 -30t-113 -80.5
t-75.5 -116t-27.5 -135.5q0 -60 19.5 -109t53 -83.5t79 -53t96.5 -18.5q83 0 143.5 31t113.5 84z" />
    <glyph glyph-name="cacute" unicode="&#x107;" horiz-adv-x="513" 
d="M270 592l73 124h76l-89 -124h-60zM216 -16q-47 0 -85 17.5t-66 48t-43 71.5t-15 88q0 61 21.5 115t60 94.5t91.5 64t116 23.5q41 0 73 -11t55.5 -29.5t39.5 -44t25 -54.5l-61 -25q-17 51 -49.5 78.5t-89.5 27.5q-47 0 -86.5 -18.5t-68.5 -51t-45.5 -75t-16.5 -90.5
q0 -37 11 -68t31 -54t48 -36t62 -13q54 0 97.5 27.5t73.5 78.5l52 -24q-41 -71 -95 -105.5t-136 -34.5z" />
    <glyph glyph-name="Ccircumflex" unicode="&#x108;" horiz-adv-x="725" 
d="M334 787l121 114h59l80 -114l-1 -5h-60l-50 72h-8l-73 -72h-69zM644 113q-31 -31 -63 -55t-68.5 -40.5t-78.5 -25t-91 -8.5q-66 0 -122.5 23t-98 65t-65 101.5t-23.5 133.5q0 84 33 161t90.5 135.5t135.5 93.5t169 35q87 0 148.5 -33t97.5 -87l-53 -41q-66 100 -201 100
q-74 0 -139 -30t-113 -80.5t-75.5 -116t-27.5 -135.5q0 -60 19.5 -109t53 -83.5t79 -53t96.5 -18.5q83 0 143.5 31t113.5 84z" />
    <glyph glyph-name="ccircumflex" unicode="&#x109;" horiz-adv-x="513" 
d="M181 602l121 114h59l80 -114l-1 -5h-60l-50 72h-8l-73 -72h-69zM216 -16q-47 0 -85 17.5t-66 48t-43 71.5t-15 88q0 61 21.5 115t60 94.5t91.5 64t116 23.5q41 0 73 -11t55.5 -29.5t39.5 -44t25 -54.5l-61 -25q-17 51 -49.5 78.5t-89.5 27.5q-47 0 -86.5 -18.5t-68.5 -51
t-45.5 -75t-16.5 -90.5q0 -37 11 -68t31 -54t48 -36t62 -13q54 0 97.5 27.5t73.5 78.5l52 -24q-41 -71 -95 -105.5t-136 -34.5z" />
    <glyph glyph-name="Cdotaccent" unicode="&#x10a;" horiz-adv-x="725" 
d="M480 814q-17 0 -29.5 12.5t-12.5 29.5q0 18 12.5 30t29.5 12q18 0 30 -12t12 -30q0 -17 -12 -29.5t-30 -12.5zM644 113q-31 -31 -63 -55t-68.5 -40.5t-78.5 -25t-91 -8.5q-66 0 -122.5 23t-98 65t-65 101.5t-23.5 133.5q0 84 33 161t90.5 135.5t135.5 93.5t169 35
q87 0 148.5 -33t97.5 -87l-53 -41q-66 100 -201 100q-74 0 -139 -30t-113 -80.5t-75.5 -116t-27.5 -135.5q0 -60 19.5 -109t53 -83.5t79 -53t96.5 -18.5q83 0 143.5 31t113.5 84z" />
    <glyph glyph-name="cdotaccent" unicode="&#x10b;" horiz-adv-x="513" 
d="M216 -16q-47 0 -85 17.5t-66 48t-43 71.5t-15 88q0 61 21.5 115t60 94.5t91.5 64t116 23.5q41 0 73 -11t55.5 -29.5t39.5 -44t25 -54.5l-61 -25q-17 51 -49.5 78.5t-89.5 27.5q-47 0 -86.5 -18.5t-68.5 -51t-45.5 -75t-16.5 -90.5q0 -37 11 -68t31 -54t48 -36t62 -13
q54 0 97.5 27.5t73.5 78.5l52 -24q-41 -71 -95 -105.5t-136 -34.5zM322 615q-18 0 -31.5 13t-13.5 31q0 20 13.5 32.5t31.5 12.5q19 0 31.5 -12.5t12.5 -32.5q0 -18 -12.5 -31t-31.5 -13z" />
    <glyph glyph-name="Ccaron" unicode="&#x10c;" horiz-adv-x="725" 
d="M605 895l-121 -114h-59l-80 114l1 5h59l51 -72h8l73 72h69zM644 113q-31 -31 -63 -55t-68.5 -40.5t-78.5 -25t-91 -8.5q-66 0 -122.5 23t-98 65t-65 101.5t-23.5 133.5q0 84 33 161t90.5 135.5t135.5 93.5t169 35q87 0 148.5 -33t97.5 -87l-53 -41q-66 100 -201 100
q-74 0 -139 -30t-113 -80.5t-75.5 -116t-27.5 -135.5q0 -60 19.5 -109t53 -83.5t79 -53t96.5 -18.5q83 0 143.5 31t113.5 84z" />
    <glyph glyph-name="ccaron" unicode="&#x10d;" horiz-adv-x="513" 
d="M466 711l-121 -114h-59l-80 114l1 5h59l51 -72h8l73 72h69zM216 -16q-47 0 -85 17.5t-66 48t-43 71.5t-15 88q0 61 21.5 115t60 94.5t91.5 64t116 23.5q41 0 73 -11t55.5 -29.5t39.5 -44t25 -54.5l-61 -25q-17 51 -49.5 78.5t-89.5 27.5q-47 0 -86.5 -18.5t-68.5 -51
t-45.5 -75t-16.5 -90.5q0 -37 11 -68t31 -54t48 -36t62 -13q54 0 97.5 27.5t73.5 78.5l52 -24q-41 -71 -95 -105.5t-136 -34.5z" />
    <glyph glyph-name="Dcaron" unicode="&#x10e;" horiz-adv-x="685" 
d="M509 895l-121 -114h-59l-80 114l1 5h59l51 -72h8l73 72h69zM140 716h208q75 0 131.5 -22.5t95 -63t58 -96.5t19.5 -124q0 -80 -28.5 -154t-83 -131t-134 -91t-181.5 -34h-212zM232 61q80 0 145.5 27t112 74t72 109.5t25.5 133.5q0 125 -66 187.5t-184 62.5h-144
l-105 -594h144z" />
    <glyph glyph-name="dcaron" unicode="&#x10f;" horiz-adv-x="630" 
d="M612 513l36 203h69l-61 -203h-44zM209 -16q-44 0 -81 15.5t-64 45t-42.5 71t-15.5 93.5q0 55 20.5 108.5t58 95.5t89.5 67.5t114 25.5q33 0 59.5 -8.5t47 -23t35.5 -33t25 -39.5h4l8 68l43 246h64l-126 -716h-60l15 84h-4q-27 -42 -74 -71t-116 -29zM285 448
q-47 0 -86 -20t-67.5 -53t-44.5 -75.5t-16 -87.5q0 -81 42.5 -125.5t109.5 -44.5q46 0 85 20.5t67.5 54.5t44 77t15.5 88q0 40 -11.5 71t-31.5 52t-47.5 32t-59.5 11z" />
    <glyph glyph-name="Dcroat" unicode="&#x110;" horiz-adv-x="681" 
d="M70 347h-82l8 51h84l56 318h208q75 0 131.5 -22.5t95 -63t58 -96.5t19.5 -124q0 -80 -28.5 -154t-83 -131t-134 -91t-181.5 -34h-212zM228 61q80 0 145.5 27t112 74t72 109.5t25.5 133.5q0 125 -66 187.5t-184 62.5h-144l-46 -257h197l-9 -51h-197l-50 -286h144z" />
    <glyph glyph-name="dcroat" unicode="&#x111;" horiz-adv-x="569" 
d="M209 -16q-44 0 -81 15.5t-64 45t-42.5 71t-15.5 93.5q0 55 20.5 108.5t58 95.5t89.5 67.5t114 25.5q33 0 59.5 -8.5t47 -23t35.5 -33t25 -39.5h4l8 68l19 112h-161l9 52h161l15 82h64l-15 -82h63l-9 -52h-62l-103 -582h-60l15 84h-4q-27 -42 -74 -71t-116 -29zM285 448
q-47 0 -86 -20t-67.5 -53t-44.5 -75.5t-16 -87.5q0 -81 42.5 -125.5t109.5 -44.5q46 0 85 20.5t67.5 54.5t44 77t15.5 88q0 40 -11.5 71t-31.5 52t-47.5 32t-59.5 11z" />
    <glyph glyph-name="Emacron" unicode="&#x112;" horiz-adv-x="537" 
d="M193 655l-47 -267h308l-10 -60h-308l-48 -267h340l-11 -61h-404l127 716h404l-11 -61h-340zM219 817l9 52h268l-9 -52h-268z" />
    <glyph glyph-name="emacron" unicode="&#x113;" horiz-adv-x="528" 
d="M448 116q-37 -60 -93.5 -96t-133.5 -36q-48 0 -88 16.5t-68 46.5t-43.5 71t-15.5 90q0 55 19.5 108.5t55.5 95.5t87.5 68t115.5 26q50 0 88 -15.5t63.5 -42.5t38 -64t12.5 -80q0 -19 -2 -37.5t-7 -32.5h-403q-2 -9 -2 -17v-18q0 -38 13 -67t34.5 -49t49 -30.5t56.5 -10.5
q61 0 103 29t71 74zM421 288q0 4 1 11v11q0 24 -8 49t-25 44.5t-44 32t-66 12.5q-32 0 -63 -11t-56.5 -31.5t-45 -50.5t-29.5 -67h336zM182 633l9 52h268l-9 -52h-268z" />
    <glyph glyph-name="Ebreve" unicode="&#x114;" horiz-adv-x="537" 
d="M193 655l-47 -267h308l-10 -60h-308l-48 -267h340l-11 -61h-404l127 716h404l-11 -61h-340zM342 776q-21 0 -40 7.5t-34 20.5t-23.5 31.5t-8.5 40.5q0 5 0.5 10t1.5 10h55q-1 -5 -1 -7v-6q0 -23 14 -39.5t43 -16.5q32 0 53.5 20t26.5 49h53q-9 -60 -46.5 -90t-93.5 -30z
" />
    <glyph glyph-name="ebreve" unicode="&#x115;" horiz-adv-x="528" 
d="M448 116q-37 -60 -93.5 -96t-133.5 -36q-48 0 -88 16.5t-68 46.5t-43.5 71t-15.5 90q0 55 19.5 108.5t55.5 95.5t87.5 68t115.5 26q50 0 88 -15.5t63.5 -42.5t38 -64t12.5 -80q0 -19 -2 -37.5t-7 -32.5h-403q-2 -9 -2 -17v-18q0 -38 13 -67t34.5 -49t49 -30.5t56.5 -10.5
q61 0 103 29t71 74zM421 288q0 4 1 11v11q0 24 -8 49t-25 44.5t-44 32t-66 12.5q-32 0 -63 -11t-56.5 -31.5t-45 -50.5t-29.5 -67h336zM311 592q-21 0 -40 7.5t-34 20.5t-23.5 31.5t-8.5 40.5q0 5 0.5 10t1.5 10h55q-1 -5 -1 -7v-6q0 -23 14 -39.5t43 -16.5q32 0 53.5 20
t26.5 49h53q-9 -60 -46.5 -90t-93.5 -30z" />
    <glyph glyph-name="Edotaccent" unicode="&#x116;" horiz-adv-x="537" 
d="M371 814q-17 0 -29.5 12.5t-12.5 29.5q0 18 12.5 30t29.5 12q18 0 30 -12t12 -30q0 -17 -12 -29.5t-30 -12.5zM193 655l-47 -267h308l-10 -60h-308l-48 -267h340l-11 -61h-404l127 716h404l-11 -61h-340z" />
    <glyph glyph-name="edotaccent" unicode="&#x117;" horiz-adv-x="528" 
d="M448 116q-37 -60 -93.5 -96t-133.5 -36q-48 0 -88 16.5t-68 46.5t-43.5 71t-15.5 90q0 55 19.5 108.5t55.5 95.5t87.5 68t115.5 26q50 0 88 -15.5t63.5 -42.5t38 -64t12.5 -80q0 -19 -2 -37.5t-7 -32.5h-403q-2 -9 -2 -17v-18q0 -38 13 -67t34.5 -49t49 -30.5t56.5 -10.5
q61 0 103 29t71 74zM421 288q0 4 1 11v11q0 24 -8 49t-25 44.5t-44 32t-66 12.5q-32 0 -63 -11t-56.5 -31.5t-45 -50.5t-29.5 -67h336zM322 615q-18 0 -31.5 13t-13.5 31q0 20 13.5 32.5t31.5 12.5q19 0 31.5 -12.5t12.5 -32.5q0 -18 -12.5 -31t-31.5 -13z" />
    <glyph glyph-name="Eogonek" unicode="&#x118;" horiz-adv-x="537" 
d="M360 -224q-42 0 -69.5 26.5t-27.5 65.5q0 42 24.5 75.5t62.5 56.5h-337l127 716h404l-11 -61h-340l-47 -267h308l-10 -60h-308l-48 -267h340l-11 -61q-15 -9 -32 -22t-30.5 -28t-22.5 -32.5t-9 -36.5q0 -25 14.5 -38t34.5 -13q11 0 18.5 1.5t17.5 5.5l14 -48
q-14 -6 -28 -9.5t-34 -3.5z" />
    <glyph glyph-name="eogonek" unicode="&#x119;" horiz-adv-x="528" 
d="M259 -224q-42 0 -69.5 26.5t-27.5 65.5q0 35 17.5 64.5t48.5 52.5q-4 -1 -8 -1h-8q-46 1 -84 18t-65 46.5t-42 70.5t-15 89q0 55 20.5 108.5t57.5 95.5t88.5 68t113.5 26q49 0 86.5 -15.5t63 -42.5t38 -64t12.5 -80q0 -40 -9 -70h-403q-2 -8 -2 -17v-18q0 -38 13 -67
t34 -49t48 -30.5t56 -10.5q63 0 105 29t71 74l49 -29q-23 -39 -53 -65.5t-65 -43.5q-20 -9 -39.5 -23t-34.5 -30.5t-24.5 -35t-9.5 -37.5q0 -25 14.5 -38t34.5 -13q11 0 18.5 1.5t17.5 5.5l14 -48q-14 -6 -28 -9.5t-34 -3.5zM421 288q0 4 1 11v11q0 22 -6.5 46.5t-23 44.5
t-44 33.5t-69.5 13.5q-32 0 -62 -11t-56 -31.5t-45.5 -50.5t-29.5 -67h335z" />
    <glyph glyph-name="Ecaron" unicode="&#x11a;" horiz-adv-x="537" 
d="M494 895l-121 -114h-59l-80 114l1 5h59l51 -72h8l73 72h69zM193 655l-47 -267h308l-10 -60h-308l-48 -267h340l-11 -61h-404l127 716h404l-11 -61h-340z" />
    <glyph glyph-name="ecaron" unicode="&#x11b;" horiz-adv-x="528" 
d="M457 711l-121 -114h-59l-80 114l1 5h59l51 -72h8l73 72h69zM448 116q-37 -60 -93.5 -96t-133.5 -36q-48 0 -88 16.5t-68 46.5t-43.5 71t-15.5 90q0 55 19.5 108.5t55.5 95.5t87.5 68t115.5 26q50 0 88 -15.5t63.5 -42.5t38 -64t12.5 -80q0 -19 -2 -37.5t-7 -32.5h-403
q-2 -9 -2 -17v-18q0 -38 13 -67t34.5 -49t49 -30.5t56.5 -10.5q61 0 103 29t71 74zM421 288q0 4 1 11v11q0 24 -8 49t-25 44.5t-44 32t-66 12.5q-32 0 -63 -11t-56.5 -31.5t-45 -50.5t-29.5 -67h336z" />
    <glyph glyph-name="Gcircumflex" unicode="&#x11c;" horiz-adv-x="798" 
d="M337 787l121 114h59l80 -114l-1 -5h-60l-50 72h-8l-73 -72h-69zM417 375h337q0 -10 -1 -22.5t-3 -24.5q-11 -69 -38.5 -125t-68.5 -99q-54 -57 -128 -88.5t-166 -31.5q-63 0 -120.5 23.5t-100.5 66.5t-68.5 104t-25.5 137q0 84 32 159.5t89.5 132.5t137.5 91t175 34
q80 0 145 -29t101 -82l-53 -43q-29 44 -83 68.5t-119 24.5q-75 0 -141 -28t-114.5 -76t-76.5 -112t-28 -136q0 -64 20.5 -115t56 -86t83 -54t100.5 -19q70 0 131 26t106 73q32 34 53.5 77.5t31.5 94.5h-274z" />
    <glyph glyph-name="gcircumflex" unicode="&#x11d;" horiz-adv-x="567" 
d="M184 602l121 114h59l80 -114l-1 -5h-60l-50 72h-8l-73 -72h-69zM193 -232q-45 0 -79 13t-58 33.5t-39 46t-21 50.5l61 23q11 -48 46 -78t95 -30q43 0 78 14t61.5 39.5t43.5 61t25 79.5l11 61h-5q-28 -42 -75 -69.5t-113 -27.5q-42 0 -78 16t-63 45.5t-42.5 71t-15.5 93.5
q0 55 20 108t56.5 95t88.5 67.5t116 25.5q33 0 60 -9t47.5 -23t34.5 -32.5t22 -37.5h4l15 86h62l-85 -484q-11 -61 -36.5 -105.5t-61.5 -74t-81 -44t-94 -14.5zM237 42q46 0 85.5 20.5t67.5 54.5t44 78t16 90q0 40 -11.5 70.5t-31 51t-46 31t-56.5 10.5q-50 0 -90 -20.5
t-68 -53.5t-42.5 -75.5t-14.5 -87.5q0 -40 11.5 -71.5t31.5 -53t47 -33t57 -11.5z" />
    <glyph glyph-name="Gbreve" unicode="&#x11e;" horiz-adv-x="798" 
d="M417 375h337q0 -10 -1 -22.5t-3 -24.5q-11 -69 -38.5 -125t-68.5 -99q-54 -57 -128 -88.5t-166 -31.5q-63 0 -120.5 23.5t-100.5 66.5t-68.5 104t-25.5 137q0 84 32 159.5t89.5 132.5t137.5 91t175 34q80 0 145 -29t101 -82l-53 -43q-29 44 -83 68.5t-119 24.5
q-75 0 -141 -28t-114.5 -76t-76.5 -112t-28 -136q0 -64 20.5 -115t56 -86t83 -54t100.5 -19q70 0 131 26t106 73q32 34 53.5 77.5t31.5 94.5h-274zM467 776q-21 0 -40 7.5t-34 20.5t-23.5 31.5t-8.5 40.5q0 5 0.5 10t1.5 10h55q-1 -5 -1 -7v-6q0 -23 14 -39.5t43 -16.5
q32 0 53.5 20t26.5 49h53q-9 -60 -46.5 -90t-93.5 -30z" />
    <glyph glyph-name="gbreve" unicode="&#x11f;" horiz-adv-x="567" 
d="M193 -232q-45 0 -79 13t-58 33.5t-39 46t-21 50.5l61 23q11 -48 46 -78t95 -30q43 0 78 14t61.5 39.5t43.5 61t25 79.5l11 61h-5q-28 -42 -75 -69.5t-113 -27.5q-42 0 -78 16t-63 45.5t-42.5 71t-15.5 93.5q0 55 20 108t56.5 95t88.5 67.5t116 25.5q33 0 60 -9t47.5 -23
t34.5 -32.5t22 -37.5h4l15 86h62l-85 -484q-11 -61 -36.5 -105.5t-61.5 -74t-81 -44t-94 -14.5zM237 42q46 0 85.5 20.5t67.5 54.5t44 78t16 90q0 40 -11.5 70.5t-31 51t-46 31t-56.5 10.5q-50 0 -90 -20.5t-68 -53.5t-42.5 -75.5t-14.5 -87.5q0 -40 11.5 -71.5t31.5 -53
t47 -33t57 -11.5zM328 592q-21 0 -40 7.5t-34 20.5t-23.5 31.5t-8.5 40.5q0 5 0.5 10t1.5 10h55q-1 -5 -1 -7v-6q0 -23 14 -39.5t43 -16.5q32 0 53.5 20t26.5 49h53q-9 -60 -46.5 -90t-93.5 -30z" />
    <glyph glyph-name="Gdotaccent" unicode="&#x120;" horiz-adv-x="798" 
d="M485 814q-17 0 -29.5 12.5t-12.5 29.5q0 18 12.5 30t29.5 12q18 0 30 -12t12 -30q0 -17 -12 -29.5t-30 -12.5zM417 375h337q0 -10 -1 -22.5t-3 -24.5q-11 -69 -38.5 -125t-68.5 -99q-54 -57 -128 -88.5t-166 -31.5q-63 0 -120.5 23.5t-100.5 66.5t-68.5 104t-25.5 137
q0 84 32 159.5t89.5 132.5t137.5 91t175 34q80 0 145 -29t101 -82l-53 -43q-29 44 -83 68.5t-119 24.5q-75 0 -141 -28t-114.5 -76t-76.5 -112t-28 -136q0 -64 20.5 -115t56 -86t83 -54t100.5 -19q70 0 131 26t106 73q32 34 53.5 77.5t31.5 94.5h-274z" />
    <glyph glyph-name="gdotaccent" unicode="&#x121;" horiz-adv-x="567" 
d="M193 -232q-45 0 -79 13t-58 33.5t-39 46t-21 50.5l61 23q11 -48 46 -78t95 -30q43 0 78 14t61.5 39.5t43.5 61t25 79.5l11 61h-5q-28 -42 -75 -69.5t-113 -27.5q-42 0 -78 16t-63 45.5t-42.5 71t-15.5 93.5q0 55 20 108t56.5 95t88.5 67.5t116 25.5q33 0 60 -9t47.5 -23
t34.5 -32.5t22 -37.5h4l15 86h62l-85 -484q-11 -61 -36.5 -105.5t-61.5 -74t-81 -44t-94 -14.5zM237 42q46 0 85.5 20.5t67.5 54.5t44 78t16 90q0 40 -11.5 70.5t-31 51t-46 31t-56.5 10.5q-50 0 -90 -20.5t-68 -53.5t-42.5 -75.5t-14.5 -87.5q0 -40 11.5 -71.5t31.5 -53
t47 -33t57 -11.5zM332 615q-18 0 -31.5 13t-13.5 31q0 20 13.5 32.5t31.5 12.5q19 0 31.5 -12.5t12.5 -32.5q0 -18 -12.5 -31t-31.5 -13z" />
    <glyph glyph-name="uni0122" unicode="&#x122;" horiz-adv-x="798" 
d="M282 -203l57 66q-14 3 -22.5 15t-8.5 27q0 18 13 32.5t34 14.5q20 0 33.5 -13t13.5 -33q0 -24 -18 -45l-74 -88zM417 375h337q0 -10 -1 -22.5t-3 -24.5q-11 -69 -38.5 -125t-68.5 -99q-54 -57 -128 -88.5t-166 -31.5q-63 0 -120.5 23.5t-100.5 66.5t-68.5 104t-25.5 137
q0 84 32 159.5t89.5 132.5t137.5 91t175 34q80 0 145 -29t101 -82l-53 -43q-29 44 -83 68.5t-119 24.5q-75 0 -141 -28t-114.5 -76t-76.5 -112t-28 -136q0 -64 20.5 -115t56 -86t83 -54t100.5 -19q70 0 131 26t106 73q32 34 53.5 77.5t31.5 94.5h-274z" />
    <glyph glyph-name="uni0123" unicode="&#x123;" horiz-adv-x="567" 
d="M385.01 726.976l-56.9932 -65.9922q13.998 -3 22.4971 -14.998q8.49902 -11.999 8.49902 -26.9971q0 -17.998 -12.999 -32.4961q-12.998 -14.498 -33.9951 -14.498q-19.998 0 -33.4961 12.998q-13.499 12.999 -13.499 32.9961q0 23.9971 17.998 44.9951l73.9912 87.9893z
M193 -232q-45 0 -79 13t-58 33.5t-39 46t-21 50.5l61 23q11 -48 46 -78t95 -30q43 0 78 14t61.5 39.5t43.5 61t25 79.5l11 61h-5q-28 -42 -75 -69.5t-113 -27.5q-42 0 -78 16t-63 45.5t-42.5 71t-15.5 93.5q0 55 20 108t56.5 95t88.5 67.5t116 25.5q33 0 60 -9t47.5 -23
t34.5 -32.5t22 -37.5h4l15 86h62l-85 -484q-11 -61 -36.5 -105.5t-61.5 -74t-81 -44t-94 -14.5zM237 42q46 0 85.5 20.5t67.5 54.5t44 78t16 90q0 40 -11.5 70.5t-31 51t-46 31t-56.5 10.5q-50 0 -90 -20.5t-68 -53.5t-42.5 -75.5t-14.5 -87.5q0 -40 11.5 -71.5t31.5 -53
t47 -33t57 -11.5z" />
    <glyph glyph-name="Hcircumflex" unicode="&#x124;" horiz-adv-x="682" 
d="M280 786l121 114h59l80 -114l-1 -5h-60l-50 72h-8l-73 -72h-69zM140 716h64l-57 -320h400l57 320h64l-127 -716h-64l60 336h-400l-60 -336h-64z" />
    <glyph glyph-name="hcircumflex" unicode="&#x125;" 
d="M187 786l121 114h59l80 -114l-1 -5h-60l-50 72h-8l-73 -72h-69zM144 474l-18 -78h4q31 50 80 80t112 30q40 0 68.5 -12t47.5 -32t28 -47.5t9 -58.5q0 -24 -6 -55l-53 -301h-64l53 300q2 14 3 23t1 19q0 49 -28 77.5t-80 28.5q-35 0 -67.5 -16t-59 -43t-45 -63t-25.5 -77
l-44 -249h-64l127 716h64z" />
    <glyph glyph-name="Hbar" unicode="&#x126;" horiz-adv-x="682" 
d="M105 516h-64l9 52h64l26 148h64l-26 -148h400l26 148h64l-26 -148h64l-9 -52h-64l-92 -516h-64l60 336h-400l-60 -336h-64zM547 396l21 120h-400l-21 -120h400z" />
    <glyph glyph-name="hbar" unicode="&#x127;" 
d="M172 634h159l-9 -52h-159l-19 -108l-18 -78h4q31 50 80 80t112 30q40 0 68.5 -12t47.5 -32t28 -47.5t9 -58.5q0 -24 -6 -55l-53 -301h-64l53 300q2 14 3 23t1 19q0 49 -28 77.5t-80 28.5q-35 0 -67.5 -16t-59 -43t-45 -63t-25.5 -77l-44 -249h-64l103 582h-65l9 52h65
l15 82h64z" />
    <glyph glyph-name="Itilde" unicode="&#x128;" horiz-adv-x="218" 
d="M140 716h64l-127 -716h-64zM245 786q-20 0 -36.5 8.5t-31.5 18.5t-30 18.5t-33 8.5q-41 0 -50 -44h-54q7 53 36 77.5t69 24.5q20 0 36.5 -8.5t32.5 -17.5q15 -10 30 -18.5t33 -8.5q40 0 49 43h54q-7 -52 -35.5 -77t-69.5 -25z" />
    <glyph glyph-name="itilde" unicode="&#x129;" horiz-adv-x="195" 
d="M2 0l86 490h64l-86 -490h-64zM215 602q-20 0 -36.5 8.5t-31.5 18.5t-30 18.5t-33 8.5q-41 0 -50 -44h-54q7 53 36 77.5t69 24.5q20 0 36.5 -8.5t32.5 -17.5q15 -10 30 -18.5t33 -8.5q40 0 49 43h54q-7 -52 -35.5 -77t-69.5 -25z" />
    <glyph glyph-name="Imacron" unicode="&#x12a;" horiz-adv-x="218" 
d="M67 817l9 52h239l-9 -52h-239zM140 716h64l-127 -716h-64z" />
    <glyph glyph-name="imacron" unicode="&#x12b;" horiz-adv-x="195" 
d="M2 0l86 490h64l-86 -490h-64zM12 633l9 52h268l-9 -52h-268z" />
    <glyph glyph-name="Ibreve" unicode="&#x12c;" horiz-adv-x="218" 
d="M140 716h64l-127 -716h-64zM179 776q-21 0 -40 7.5t-34 20.5t-23.5 31.5t-8.5 40.5q0 5 0.5 10t1.5 10h55q-1 -5 -1 -7v-6q0 -23 14 -39.5t43 -16.5q32 0 53.5 20t26.5 49h53q-9 -60 -46.5 -90t-93.5 -30z" />
    <glyph glyph-name="ibreve" unicode="&#x12d;" horiz-adv-x="195" 
d="M2 0l86 490h64l-86 -490h-64zM142 592q-21 0 -40 7.5t-34 20.5t-23.5 31.5t-8.5 40.5q0 5 0.5 10t1.5 10h55q-1 -5 -1 -7v-6q0 -23 14 -39.5t43 -16.5q32 0 53.5 20t26.5 49h53q-9 -60 -46.5 -90t-93.5 -30z" />
    <glyph glyph-name="Iogonek" unicode="&#x12e;" horiz-adv-x="218" 
d="M20 -224q-43 0 -70.5 26.5t-27.5 65.5q0 42 25.5 77.5t66.5 58.5l126 712h64l-127 -716q-15 -9 -32 -22t-31 -28t-23 -32.5t-9 -36.5q0 -25 15 -38t35 -13q11 0 18.5 1.5t17.5 5.5l14 -48q-14 -6 -28 -9.5t-34 -3.5z" />
    <glyph glyph-name="iogonek" unicode="&#x12f;" horiz-adv-x="195" 
d="M9 -224q-43 0 -70.5 26.5t-27.5 65.5q0 42 24.5 76t66.5 59l86 487h64l-86 -490q-15 -9 -32 -22t-31 -28t-23 -32.5t-9 -36.5q0 -25 14.5 -38t35.5 -13q18 0 35 7l15 -48q-14 -6 -28.5 -9.5t-33.5 -3.5zM150 610q-20 0 -34.5 14.5t-14.5 34.5q0 21 14.5 35.5t34.5 14.5
q21 0 35.5 -14.5t14.5 -35.5q0 -20 -14.5 -34.5t-35.5 -14.5z" />
    <glyph glyph-name="Idotaccent" unicode="&#x130;" horiz-adv-x="218" 
d="M140 716h64l-127 -716h-64zM195 814q-17 0 -29.5 12.5t-12.5 29.5q0 18 12.5 30t29.5 12q18 0 30 -12t12 -30q0 -17 -12 -29.5t-30 -12.5z" />
    <glyph glyph-name="dotlessi" unicode="&#x131;" horiz-adv-x="195" 
d="M2 0l86 490h64l-86 -490h-64z" />
    <glyph glyph-name="Jcircumflex" unicode="&#x134;" horiz-adv-x="514" 
d="M353 786l121 114h59l80 -114l-1 -5h-60l-50 72h-8l-73 -72h-69zM179 -16q-75 0 -126.5 43.5t-62.5 123.5l61 23q10 -71 47 -100t89 -29q69 0 114.5 45t59.5 123l89 503h64l-89 -502q-20 -114 -86.5 -172t-159.5 -58z" />
    <glyph glyph-name="jcircumflex" unicode="&#x135;" horiz-adv-x="195" 
d="M-91 -226q-33 0 -51 10l24 56q13 -8 33 -8q56 0 70 75l104 583h64l-104 -588q-11 -64 -47 -96t-93 -32zM3 602l121 114h59l80 -114l-1 -5h-60l-50 72h-8l-73 -72h-69z" />
    <glyph glyph-name="uni0136" unicode="&#x136;" horiz-adv-x="589" 
d="M173 -203l57 66q-14 3 -22.5 15t-8.5 27q0 18 13 32.5t34 14.5q20 0 33.5 -13t13.5 -33q0 -24 -18 -45l-74 -88zM632 712l-316 -303l214 -405l-1 -4h-73l-190 360l-150 -143l-39 -217h-64l127 716h64l-69 -396h4l411 396h83z" />
    <glyph glyph-name="uni0137" unicode="&#x137;" horiz-adv-x="465" 
d="M109 -203l57 66q-14 3 -22.5 15t-8.5 27q0 18 13 32.5t34 14.5q20 0 33.5 -13t13.5 -33q0 -24 -18 -45l-74 -88zM104 248l284 242h88l-1 -4l-217 -184l150 -298l-1 -4h-73l-129 257l-117 -100l-28 -157h-64l127 716h64z" />
    <glyph glyph-name="kgreenlandic" unicode="&#x138;" horiz-adv-x="443" 
d="M147 490l-40 -224h4l263 224h85l-1 -4l-275 -231l198 -251l-1 -4h-77l-195 249h-4l-44 -249h-64l87 490h64z" />
    <glyph glyph-name="Lacute" unicode="&#x139;" horiz-adv-x="491" 
d="M151 776l73 124h76l-89 -124h-60zM140 716h64l-116 -655h324l-11 -61h-388z" />
    <glyph glyph-name="lacute" unicode="&#x13a;" horiz-adv-x="183" 
d="M132 776l73 124h76l-89 -124h-60zM-4 0l127 716h64l-127 -716h-64z" />
    <glyph glyph-name="uni013B" unicode="&#x13b;" horiz-adv-x="491" 
d="M137 -203l57 66q-14 3 -22.5 15t-8.5 27q0 18 13 32.5t34 14.5q20 0 33.5 -13t13.5 -33q0 -24 -18 -45l-74 -88zM140 716h64l-116 -655h324l-11 -61h-388z" />
    <glyph glyph-name="uni013C" unicode="&#x13c;" horiz-adv-x="183" 
d="M-63 -203l57 66q-14 3 -22.5 15t-8.5 27q0 18 13 32.5t34 14.5q20 0 33.5 -13t13.5 -33q0 -24 -18 -45l-74 -88zM-4 0l127 716h64l-127 -716h-64z" />
    <glyph glyph-name="Lcaron" unicode="&#x13d;" horiz-adv-x="491" 
d="M364 513l36 203h69l-61 -203h-44zM140 716h64l-116 -655h324l-11 -61h-388z" />
    <glyph glyph-name="lcaron" unicode="&#x13e;" horiz-adv-x="278" 
d="M251 513l36 203h69l-61 -203h-44zM8 0l127 716h64l-127 -716h-64z" />
    <glyph glyph-name="Ldot" unicode="&#x13f;" horiz-adv-x="491" 
d="M140 716h64l-116 -655h324l-11 -61h-388zM329 293q-22 0 -37 14.5t-15 36.5t15 37t37 15t36.5 -15t14.5 -37t-14.5 -36.5t-36.5 -14.5z" />
    <glyph glyph-name="Lslash" unicode="&#x141;" horiz-adv-x="557" 
d="M132 294l-74 -41l-26 48l112 63l62 352h64l-54 -308l159 90l26 -49l-198 -111l-49 -277h324l-11 -61h-388z" />
    <glyph glyph-name="lslash" unicode="&#x142;" horiz-adv-x="338" 
d="M73 0l56 314l-78 -50l-29 46l119 78l58 328h64l-50 -286l91 60l29 -47l-133 -87l-64 -356h-63z" />
    <glyph glyph-name="Nacute" unicode="&#x143;" horiz-adv-x="690" 
d="M380 776l73 124h76l-89 -124h-60zM140 716h77l288 -604h4l21 138l82 466h64l-127 -716h-60l-300 631h-4l-20 -138l-88 -493h-64z" />
    <glyph glyph-name="nacute" unicode="&#x144;" 
d="M287 592l73 124h76l-89 -124h-60zM126 398h4q28 45 76.5 76.5t115.5 31.5q72 0 112 -42.5t40 -108.5q0 -27 -6 -64l-52 -291h-64l53 297q2 14 3 24t1 21q0 51 -28 78.5t-81 27.5q-36 0 -68 -15t-57.5 -41t-43 -60t-24.5 -73l-46 -259h-65l87 490h60z" />
    <glyph glyph-name="uni0145" unicode="&#x145;" horiz-adv-x="690" 
d="M209 -203l57 66q-14 3 -22.5 15t-8.5 27q0 18 13 32.5t34 14.5q20 0 33.5 -13t13.5 -33q0 -24 -18 -45l-74 -88zM140 716h77l288 -604h4l21 138l82 466h64l-127 -716h-60l-300 631h-4l-20 -138l-88 -493h-64z" />
    <glyph glyph-name="uni0146" unicode="&#x146;" 
d="M125 -203l57 66q-14 3 -22.5 15t-8.5 27q0 18 13 32.5t34 14.5q20 0 33.5 -13t13.5 -33q0 -24 -18 -45l-74 -88zM126 398h4q28 45 76.5 76.5t115.5 31.5q72 0 112 -42.5t40 -108.5q0 -27 -6 -64l-52 -291h-64l53 297q2 14 3 24t1 21q0 51 -28 78.5t-81 27.5
q-36 0 -68 -15t-57.5 -41t-43 -60t-24.5 -73l-46 -259h-65l87 490h60z" />
    <glyph glyph-name="Ncaron" unicode="&#x147;" horiz-adv-x="690" 
d="M563 895l-121 -114h-59l-80 114l1 5h59l51 -72h8l73 72h69zM140 716h77l288 -604h4l21 138l82 466h64l-127 -716h-60l-300 631h-4l-20 -138l-88 -493h-64z" />
    <glyph glyph-name="ncaron" unicode="&#x148;" 
d="M464 711l-121 -114h-59l-80 114l1 5h59l51 -72h8l73 72h69zM126 398h4q28 45 76.5 76.5t115.5 31.5q72 0 112 -42.5t40 -108.5q0 -27 -6 -64l-52 -291h-64l53 297q2 14 3 24t1 21q0 51 -28 78.5t-81 27.5q-36 0 -68 -15t-57.5 -41t-43 -60t-24.5 -73l-46 -259h-65l87 490
h60z" />
    <glyph glyph-name="Eng" unicode="&#x14a;" horiz-adv-x="690" 
d="M140 716h77l288 -604h4l21 138l82 466h64l-144 -814q-11 -64 -47 -96t-93 -32q-32 0 -50 10l24 56q13 -8 32 -8q57 0 71 75l17 98l-297 626h-4l-20 -138l-88 -493h-64z" />
    <glyph glyph-name="eng" unicode="&#x14b;" 
d="M126 398h4q28 45 76.5 76.5t115.5 31.5q72 0 112 -42.5t40 -108.5q0 -27 -6 -64l-69 -389q-11 -64 -47 -96t-93 -32q-32 0 -50 10l24 56q13 -8 32 -8q57 0 71 75l69 390q2 14 3 24t1 21q0 51 -28 78.5t-81 27.5q-36 0 -68 -15t-57.5 -41t-43 -60t-24.5 -73l-46 -259h-65
l87 490h60z" />
    <glyph glyph-name="Omacron" unicode="&#x14c;" horiz-adv-x="809" 
d="M334 817l9 52h268l-9 -52h-268zM356 -16q-69 0 -128 24.5t-102 68t-67.5 104.5t-24.5 133q0 84 31.5 160t87 133t132.5 91t169 34q69 0 128 -24.5t102 -68t67.5 -104t24.5 -132.5q0 -84 -31.5 -160t-87.5 -133.5t-133 -91.5t-168 -34zM363 45q73 0 136.5 29.5t110.5 78.5
t74 113t27 133q0 61 -20 111.5t-55.5 86t-84 55t-105.5 19.5q-73 0 -136.5 -29.5t-110 -79t-73.5 -113t-27 -132.5q0 -62 20 -112t55.5 -85.5t84 -55t104.5 -19.5z" />
    <glyph glyph-name="omacron" unicode="&#x14d;" horiz-adv-x="554" 
d="M191 633l9 52h268l-9 -52h-268zM295 506q48 0 88 -17.5t69.5 -48.5t46 -73t16.5 -90q0 -59 -21 -112t-59 -93.5t-91 -64t-117 -23.5q-48 0 -88 17.5t-69.5 48.5t-46 73t-16.5 91q0 59 21 112t59 93t91 63.5t117 23.5zM234 42q48 0 88 19t68.5 51.5t44 74t15.5 86.5
q0 38 -13 70t-35 55.5t-51.5 36.5t-62.5 13q-48 0 -88 -19t-68.5 -51t-44 -73.5t-15.5 -86.5q0 -38 13 -70t35 -55.5t51.5 -37t62.5 -13.5z" />
    <glyph glyph-name="Obreve" unicode="&#x14e;" horiz-adv-x="809" 
d="M356 -16q-69 0 -128 24.5t-102 68t-67.5 104.5t-24.5 133q0 84 31.5 160t87 133t132.5 91t169 34q69 0 128 -24.5t102 -68t67.5 -104t24.5 -132.5q0 -84 -31.5 -160t-87.5 -133.5t-133 -91.5t-168 -34zM363 45q73 0 136.5 29.5t110.5 78.5t74 113t27 133q0 61 -20 111.5
t-55.5 86t-84 55t-105.5 19.5q-73 0 -136.5 -29.5t-110 -79t-73.5 -113t-27 -132.5q0 -62 20 -112t55.5 -85.5t84 -55t104.5 -19.5zM467 776q-21 0 -40 7.5t-34 20.5t-23.5 31.5t-8.5 40.5q0 5 0.5 10t1.5 10h55q-1 -5 -1 -7v-6q0 -23 14 -39.5t43 -16.5q32 0 53.5 20
t26.5 49h53q-9 -60 -46.5 -90t-93.5 -30z" />
    <glyph glyph-name="obreve" unicode="&#x14f;" horiz-adv-x="554" 
d="M295 506q48 0 88 -17.5t69.5 -48.5t46 -73t16.5 -90q0 -59 -21 -112t-59 -93.5t-91 -64t-117 -23.5q-48 0 -88 17.5t-69.5 48.5t-46 73t-16.5 91q0 59 21 112t59 93t91 63.5t117 23.5zM234 42q48 0 88 19t68.5 51.5t44 74t15.5 86.5q0 38 -13 70t-35 55.5t-51.5 36.5
t-62.5 13q-48 0 -88 -19t-68.5 -51t-44 -73.5t-15.5 -86.5q0 -38 13 -70t35 -55.5t51.5 -37t62.5 -13.5zM322 592q-21 0 -40 7.5t-34 20.5t-23.5 31.5t-8.5 40.5q0 5 0.5 10t1.5 10h55q-1 -5 -1 -7v-6q0 -23 14 -39.5t43 -16.5q32 0 53.5 20t26.5 49h53q-9 -60 -46.5 -90
t-93.5 -30z" />
    <glyph glyph-name="Ohungarumlaut" unicode="&#x150;" horiz-adv-x="809" 
d="M356 -16q-69 0 -128 24.5t-102 68t-67.5 104.5t-24.5 133q0 84 31.5 160t87 133t132.5 91t169 34q69 0 128 -24.5t102 -68t67.5 -104t24.5 -132.5q0 -84 -31.5 -160t-87.5 -133.5t-133 -91.5t-168 -34zM363 45q73 0 136.5 29.5t110.5 78.5t74 113t27 133q0 61 -20 111.5
t-55.5 86t-84 55t-105.5 19.5q-73 0 -136.5 -29.5t-110 -79t-73.5 -113t-27 -132.5q0 -62 20 -112t55.5 -85.5t84 -55t104.5 -19.5zM349 772l73 124h76l-89 -124h-60zM493 772l73 124h76l-89 -124h-60z" />
    <glyph glyph-name="ohungarumlaut" unicode="&#x151;" horiz-adv-x="554" 
d="M213 592l73 124h76l-89 -124h-60zM357 592l73 124h76l-89 -124h-60zM295 506q48 0 88 -17.5t69.5 -48.5t46 -73t16.5 -90q0 -59 -21 -112t-59 -93.5t-91 -64t-117 -23.5q-48 0 -88 17.5t-69.5 48.5t-46 73t-16.5 91q0 59 21 112t59 93t91 63.5t117 23.5zM234 42
q48 0 88 19t68.5 51.5t44 74t15.5 86.5q0 38 -13 70t-35 55.5t-51.5 36.5t-62.5 13q-48 0 -88 -19t-68.5 -51t-44 -73.5t-15.5 -86.5q0 -38 13 -70t35 -55.5t51.5 -37t62.5 -13.5z" />
    <glyph glyph-name="OE" unicode="&#x152;" horiz-adv-x="1164" 
d="M821 655l-48 -267h308l-10 -60h-308l-47 -267h340l-11 -61h-404l21 123q-54 -66 -134 -102.5t-176 -36.5q-69 0 -127.5 24.5t-101.5 68t-67 104t-24 131.5q0 85 31.5 161.5t87.5 134t133.5 91t169.5 33.5q99 0 174 -49t110 -131l30 164h404l-11 -61h-340zM360 45
q74 0 137.5 29t110 78t73 113t26.5 134q0 61 -19.5 111.5t-54 86t-82.5 55t-104 19.5q-74 0 -138 -29.5t-111 -79t-74 -113t-27 -132.5q0 -62 20 -112t55 -85.5t83 -55t105 -19.5z" />
    <glyph glyph-name="oe" unicode="&#x153;" horiz-adv-x="961" 
d="M889 116q-36 -61 -93 -96.5t-135 -35.5q-68 0 -118 34t-73 94q-35 -57 -96 -92.5t-139 -35.5q-48 0 -88 17.5t-69.5 48.5t-46 73t-16.5 91q0 59 21 112t59 93t91 63.5t117 23.5q69 0 121 -36.5t76 -96.5q35 58 92.5 95.5t135.5 37.5q48 0 85 -15.5t62.5 -42.5t38.5 -64
t13 -80q0 -36 -8 -70h-403q-2 -7 -2.5 -16.5t-0.5 -18.5q0 -38 13 -67t34 -49t48.5 -30.5t56.5 -10.5q66 0 105.5 28t70.5 74zM242 42q48 0 87.5 19t67.5 51.5t43.5 74t15.5 86.5q0 38 -12.5 70t-34 55.5t-51 36.5t-62.5 13q-48 0 -88 -19t-68.5 -51t-44 -73.5t-15.5 -86.5
q0 -38 13 -70t35 -55.5t51.5 -37t62.5 -13.5zM862 288q1 4 1 11v11q0 22 -6.5 46.5t-22.5 44.5t-43.5 33.5t-69.5 13.5q-32 0 -62 -10.5t-55.5 -31t-45 -50t-30.5 -68.5h334z" />
    <glyph glyph-name="Racute" unicode="&#x154;" horiz-adv-x="569" 
d="M306 776l73 124h76l-89 -124h-60zM140 716h229q43 0 78 -14t60 -38.5t39 -58.5t14 -74q0 -46 -16.5 -84.5t-45.5 -68t-67.5 -48.5t-82.5 -27l-3 -3l150 -296l-1 -4h-70l-150 298h-144l-53 -298h-64zM305 358q39 0 73.5 12t60.5 34.5t41 53.5t15 70q0 28 -10 51.5
t-28 40.5t-42.5 26t-54.5 9h-167l-52 -297h164z" />
    <glyph glyph-name="racute" unicode="&#x155;" horiz-adv-x="335" 
d="M200 592l73 124h76l-89 -124h-60zM-4 0l87 490h60l-15 -86h4q23 45 66 72.5t92 27.5q23 0 35.5 -3t26.5 -10l-28 -60q-12 5 -23.5 7.5t-28.5 2.5q-27 0 -53.5 -12.5t-49 -35t-38.5 -54t-23 -68.5l-48 -271h-64z" />
    <glyph glyph-name="uni0156" unicode="&#x156;" horiz-adv-x="569" 
d="M161 -203l57 66q-14 3 -22.5 15t-8.5 27q0 18 13 32.5t34 14.5q20 0 33.5 -13t13.5 -33q0 -24 -18 -45l-74 -88zM140 716h229q43 0 78 -14t60 -38.5t39 -58.5t14 -74q0 -46 -16.5 -84.5t-45.5 -68t-67.5 -48.5t-82.5 -27l-3 -3l150 -296l-1 -4h-70l-150 298h-144
l-53 -298h-64zM305 358q39 0 73.5 12t60.5 34.5t41 53.5t15 70q0 28 -10 51.5t-28 40.5t-42.5 26t-54.5 9h-167l-52 -297h164z" />
    <glyph glyph-name="uni0157" unicode="&#x157;" horiz-adv-x="335" 
d="M-57 -203l57 66q-14 3 -22.5 15t-8.5 27q0 18 13 32.5t34 14.5q20 0 33.5 -13t13.5 -33q0 -24 -18 -45l-74 -88zM-4 0l87 490h60l-15 -86h4q23 45 66 72.5t92 27.5q23 0 35.5 -3t26.5 -10l-28 -60q-12 5 -23.5 7.5t-28.5 2.5q-27 0 -53.5 -12.5t-49 -35t-38.5 -54
t-23 -68.5l-48 -271h-64z" />
    <glyph glyph-name="Rcaron" unicode="&#x158;" horiz-adv-x="569" 
d="M484 895l-121 -114h-59l-80 114l1 5h59l51 -72h8l73 72h69zM140 716h229q43 0 78 -14t60 -38.5t39 -58.5t14 -74q0 -46 -16.5 -84.5t-45.5 -68t-67.5 -48.5t-82.5 -27l-3 -3l150 -296l-1 -4h-70l-150 298h-144l-53 -298h-64zM305 358q39 0 73.5 12t60.5 34.5t41 53.5
t15 70q0 28 -10 51.5t-28 40.5t-42.5 26t-54.5 9h-167l-52 -297h164z" />
    <glyph glyph-name="rcaron" unicode="&#x159;" horiz-adv-x="335" 
d="M374 711l-121 -114h-59l-80 114l1 5h59l51 -72h8l73 72h69zM-4 0l87 490h60l-15 -86h4q23 45 66 72.5t92 27.5q23 0 35.5 -3t26.5 -10l-28 -60q-12 5 -23.5 7.5t-28.5 2.5q-27 0 -53.5 -12.5t-49 -35t-38.5 -54t-23 -68.5l-48 -271h-64z" />
    <glyph glyph-name="Sacute" unicode="&#x15a;" horiz-adv-x="542" 
d="M297 776l73 124h76l-89 -124h-60zM220 -16q-91 0 -149.5 52t-74.5 141l61 25q13 -70 53.5 -113.5t115.5 -43.5q34 0 66.5 11t58 32t41 51t15.5 67q0 50 -35 81.5t-102 56.5l-42 16q-28 10 -54 26t-46 37.5t-32 50t-12 63.5q0 42 18.5 78t50 62t73.5 40.5t89 14.5
q51 0 87 -14.5t60 -36t37 -47.5t18 -49l-62 -23q-5 19 -14 38t-26 35t-42.5 26t-61.5 10q-32 0 -61 -9t-51 -26t-35 -41t-13 -53q0 -50 32.5 -79.5t85.5 -49.5l43 -17q33 -12 62 -29t51.5 -39t35.5 -51t13 -65q0 -50 -19.5 -92t-54 -72t-81 -47t-99.5 -17z" />
    <glyph glyph-name="sacute" unicode="&#x15b;" horiz-adv-x="448" 
d="M230 592l73 124h76l-89 -124h-60zM181 -16q-41 0 -73.5 11t-56.5 30.5t-40 45t-23 54.5l61 24q12 -51 48.5 -79.5t90.5 -28.5q26 0 50 6t42 18t28.5 29t10.5 39q0 32 -21 52.5t-75 34.5l-55 15q-23 6 -44.5 17t-38.5 26.5t-27.5 36t-10.5 46.5q0 33 15 60t41.5 45.5
t61.5 29t75 10.5q67 0 114 -30t65 -85l-61 -24q-11 37 -42.5 59.5t-79.5 22.5q-53 0 -88 -21.5t-35 -61.5q0 -29 22 -47.5t61 -29.5l62 -18q61 -18 94.5 -48t33.5 -83q0 -36 -15.5 -65t-43.5 -49t-65.5 -31t-80.5 -11z" />
    <glyph glyph-name="Scircumflex" unicode="&#x15c;" horiz-adv-x="542" 
d="M192 787l121 114h59l80 -114l-1 -5h-60l-50 72h-8l-73 -72h-69zM220 -16q-91 0 -149.5 52t-74.5 141l61 25q13 -70 53.5 -113.5t115.5 -43.5q34 0 66.5 11t58 32t41 51t15.5 67q0 50 -35 81.5t-102 56.5l-42 16q-28 10 -54 26t-46 37.5t-32 50t-12 63.5q0 42 18.5 78
t50 62t73.5 40.5t89 14.5q51 0 87 -14.5t60 -36t37 -47.5t18 -49l-62 -23q-5 19 -14 38t-26 35t-42.5 26t-61.5 10q-32 0 -61 -9t-51 -26t-35 -41t-13 -53q0 -50 32.5 -79.5t85.5 -49.5l43 -17q33 -12 62 -29t51.5 -39t35.5 -51t13 -65q0 -50 -19.5 -92t-54 -72t-81 -47
t-99.5 -17z" />
    <glyph glyph-name="scircumflex" unicode="&#x15d;" horiz-adv-x="448" 
d="M140 602l121 114h59l80 -114l-1 -5h-60l-50 72h-8l-73 -72h-69zM181 -16q-41 0 -73.5 11t-56.5 30.5t-40 45t-23 54.5l61 24q12 -51 48.5 -79.5t90.5 -28.5q26 0 50 6t42 18t28.5 29t10.5 39q0 32 -21 52.5t-75 34.5l-55 15q-23 6 -44.5 17t-38.5 26.5t-27.5 36
t-10.5 46.5q0 33 15 60t41.5 45.5t61.5 29t75 10.5q67 0 114 -30t65 -85l-61 -24q-11 37 -42.5 59.5t-79.5 22.5q-53 0 -88 -21.5t-35 -61.5q0 -29 22 -47.5t61 -29.5l62 -18q61 -18 94.5 -48t33.5 -83q0 -36 -15.5 -65t-43.5 -49t-65.5 -31t-80.5 -11z" />
    <glyph glyph-name="uni015E" unicode="&#x15e;" horiz-adv-x="542" 
d="M180 -237q-34 0 -58.5 19.5t-30.5 47.5l45 18q3 -17 15.5 -29t32.5 -12q23 0 40.5 15.5t17.5 43.5q0 20 -12.5 32.5t-32.5 12.5q-25 0 -43 -20l-33 17l44 82q-68 14 -112 63t-57 124l61 25q13 -70 53.5 -113.5t115.5 -43.5q34 0 66.5 11t58 32t41 51t15.5 67
q0 50 -35 81.5t-102 56.5l-42 16q-28 10 -54 26t-46 37.5t-32 50t-12 63.5q0 42 18.5 78t50 62t73.5 40.5t89 14.5q51 0 87 -14.5t60 -36t37 -47.5t18 -49l-62 -23q-5 19 -14 38t-26 35t-42.5 26t-61.5 10q-32 0 -61 -9t-51 -26t-35 -41t-13 -53q0 -50 32.5 -79.5
t85.5 -49.5l43 -17q33 -12 62 -29t51.5 -39t35.5 -51t13 -65q0 -50 -19.5 -92t-54 -72t-81 -47t-99.5 -17h-13l-23 -38q5 3 12 5.5t18 2.5q34 0 55.5 -24.5t21.5 -62.5q0 -43 -30 -73.5t-81 -30.5z" />
    <glyph glyph-name="uni015F" unicode="&#x15f;" horiz-adv-x="448" 
d="M150 -237q-34 0 -58.5 19.5t-31.5 47.5l45 18q3 -17 15.5 -29t32.5 -12q23 0 40.5 15.5t17.5 43.5q0 20 -12 32.5t-32 12.5q-14 0 -24.5 -5.5t-19.5 -14.5l-33 17l43 81q-60 11 -96.5 49t-48.5 87l61 24q12 -51 48.5 -79.5t90.5 -28.5q26 0 50 6t42 18t28.5 29t10.5 39
q0 32 -21 52.5t-75 34.5l-55 15q-23 6 -44.5 17t-38.5 26.5t-27.5 36t-10.5 46.5q0 33 15 60t41.5 45.5t61.5 29t75 10.5q67 0 114 -30t65 -85l-61 -24q-11 37 -42.5 59.5t-79.5 22.5q-53 0 -88 -21.5t-35 -61.5q0 -29 22 -47.5t61 -29.5l62 -18q61 -18 94.5 -48t33.5 -83
q0 -36 -15.5 -65t-43 -49t-65 -31t-80.5 -11h-6l-22 -38q5 3 12 5.5t18 2.5q33 0 54.5 -24.5t21.5 -62.5q0 -43 -29.5 -73.5t-80.5 -30.5z" />
    <glyph glyph-name="Scaron" unicode="&#x160;" horiz-adv-x="542" 
d="M480 895l-121 -114h-59l-80 114l1 5h59l51 -72h8l73 72h69zM220 -16q-91 0 -149.5 52t-74.5 141l61 25q13 -70 53.5 -113.5t115.5 -43.5q34 0 66.5 11t58 32t41 51t15.5 67q0 50 -35 81.5t-102 56.5l-42 16q-28 10 -54 26t-46 37.5t-32 50t-12 63.5q0 42 18.5 78t50 62
t73.5 40.5t89 14.5q51 0 87 -14.5t60 -36t37 -47.5t18 -49l-62 -23q-5 19 -14 38t-26 35t-42.5 26t-61.5 10q-32 0 -61 -9t-51 -26t-35 -41t-13 -53q0 -50 32.5 -79.5t85.5 -49.5l43 -17q33 -12 62 -29t51.5 -39t35.5 -51t13 -65q0 -50 -19.5 -92t-54 -72t-81 -47t-99.5 -17
z" />
    <glyph glyph-name="scaron" unicode="&#x161;" horiz-adv-x="448" 
d="M417 711l-121 -114h-59l-80 114l1 5h59l51 -72h8l73 72h69zM181 -16q-41 0 -73.5 11t-56.5 30.5t-40 45t-23 54.5l61 24q12 -51 48.5 -79.5t90.5 -28.5q26 0 50 6t42 18t28.5 29t10.5 39q0 32 -21 52.5t-75 34.5l-55 15q-23 6 -44.5 17t-38.5 26.5t-27.5 36t-10.5 46.5
q0 33 15 60t41.5 45.5t61.5 29t75 10.5q67 0 114 -30t65 -85l-61 -24q-11 37 -42.5 59.5t-79.5 22.5q-53 0 -88 -21.5t-35 -61.5q0 -29 22 -47.5t61 -29.5l62 -18q61 -18 94.5 -48t33.5 -83q0 -36 -15.5 -65t-43.5 -49t-65.5 -31t-80.5 -11z" />
    <glyph glyph-name="uni0162" unicode="&#x162;" horiz-adv-x="521" 
d="M174 -237q-34 0 -58.5 19.5t-30.5 47.5l45 18q3 -17 15.5 -29t32.5 -12q23 0 40.5 15.5t17.5 43.5q0 20 -12.5 32.5t-32.5 12.5q-25 0 -43 -20l-33 17l50 92l116 655h-203l11 61h470l-11 -61h-203l-116 -655h-18l-33 -54q5 3 12 5.5t18 2.5q34 0 55.5 -24.5t21.5 -62.5
q0 -43 -30 -73.5t-81 -30.5z" />
    <glyph glyph-name="uni0163" unicode="&#x163;" horiz-adv-x="338" 
d="M180 -8q-16 0 -25 3l-30 -49q5 3 12 5.5t18 2.5q33 0 54.5 -24.5t21.5 -62.5q0 -43 -29.5 -73.5t-80.5 -30.5q-34 0 -58.5 19.5t-31.5 47.5l45 18q3 -17 15.5 -29t32.5 -12q23 0 40.5 15.5t17.5 43.5q0 20 -12 32.5t-32 12.5q-14 0 -24.5 -5.5t-19.5 -14.5l-33 17l55 102
q-20 14 -32 35.5t-12 52.5q0 8 1 19t5 34l50 281h-89l10 58h89l27 150h64l-27 -150h122l-10 -58h-122l-52 -292q-2 -8 -3 -15.5t-1 -14.5q0 -25 14.5 -42t43.5 -17q15 0 26 2.5t25 8.5l12 -55q-17 -8 -35.5 -11.5t-41.5 -3.5z" />
    <glyph glyph-name="Tcaron" unicode="&#x164;" horiz-adv-x="521" 
d="M480 895l-121 -114h-59l-80 114l1 5h59l51 -72h8l73 72h69zM165 0l116 655h-203l11 61h470l-11 -61h-203l-116 -655h-64z" />
    <glyph glyph-name="tcaron" unicode="&#x165;" horiz-adv-x="337" 
d="M290 554l29 162h69l-57 -162h-41zM180 -8q-47 0 -77.5 27.5t-30.5 78.5q0 8 1 17.5t3 24.5l52 292h-89l10 58h89l27 150h64l-27 -150h122l-10 -58h-122l-52 -292q-1 -8 -1.5 -14t-0.5 -13q0 -25 13.5 -43.5t42.5 -18.5q15 0 26 2.5t25 8.5l12 -55q-17 -8 -35.5 -11.5
t-41.5 -3.5z" />
    <glyph glyph-name="Tbar" unicode="&#x166;" horiz-adv-x="521" 
d="M165 0l61 348h-136l9 52h136l46 255h-203l11 61h470l-11 -61h-203l-46 -255h136l-9 -52h-136l-61 -348h-64z" />
    <glyph glyph-name="tbar" unicode="&#x167;" horiz-adv-x="338" 
d="M180 -8q-22 0 -41.5 7t-34.5 20.5t-23.5 33t-8.5 45.5q0 8 1 19t5 34l15 84h-88l10 58h88l25 139h-89l10 58h89l27 150h64l-27 -150h122l-10 -58h-122l-25 -139h123l-10 -58h-123l-17 -95q-2 -8 -3 -15.5t-1 -14.5q0 -25 14.5 -42t43.5 -17q15 0 26 2.5t25 8.5l12 -55
q-20 -8 -37 -11.5t-40 -3.5z" />
    <glyph glyph-name="Utilde" unicode="&#x168;" horiz-adv-x="635" 
d="M254 -16q-46 0 -85 15t-68 43t-45.5 68t-16.5 89q0 15 1.5 34t6.5 51l77 432h64l-79 -447q-4 -21 -5 -34.5t-1 -27.5q0 -35 10 -65t30.5 -51.5t50.5 -33.5t70 -12q47 0 86 16t68.5 44.5t49 67.5t27.5 85l81 458h64l-83 -469q-11 -60 -36 -108.5t-63.5 -83t-89.5 -53
t-114 -18.5zM457 786q-20 0 -36.5 8.5t-31.5 18.5t-30 18.5t-33 8.5q-41 0 -50 -44h-54q7 53 36 77.5t69 24.5q20 0 36.5 -8.5t32.5 -17.5q15 -10 30 -18.5t33 -8.5q40 0 49 43h54q-7 -52 -35.5 -77t-69.5 -25z" />
    <glyph glyph-name="utilde" unicode="&#x169;" 
d="M370 92h-4q-28 -45 -76 -76.5t-115 -31.5q-36 0 -64.5 11.5t-48 31.5t-30 47.5t-10.5 60.5q0 14 1.5 29t5.5 35l51 291h64l-52 -297q-2 -13 -3.5 -23.5t-1.5 -21.5q0 -50 28 -78t82 -28q36 0 68 15t57.5 41t43 60.5t24.5 73.5l46 258h64l-86 -490h-60zM389 602
q-20 0 -36.5 8.5t-31.5 18.5t-30 18.5t-33 8.5q-41 0 -50 -44h-54q7 53 36 77.5t69 24.5q20 0 36.5 -8.5t32.5 -17.5q15 -10 30 -18.5t33 -8.5q40 0 49 43h54q-7 -52 -35.5 -77t-69.5 -25z" />
    <glyph glyph-name="Umacron" unicode="&#x16a;" horiz-adv-x="635" 
d="M254 -16q-46 0 -85 15t-68 43t-45.5 68t-16.5 89q0 15 1.5 34t6.5 51l77 432h64l-79 -447q-4 -21 -5 -34.5t-1 -27.5q0 -35 10 -65t30.5 -51.5t50.5 -33.5t70 -12q47 0 86 16t68.5 44.5t49 67.5t27.5 85l81 458h64l-83 -469q-11 -60 -36 -108.5t-63.5 -83t-89.5 -53
t-114 -18.5zM260 817l9 52h268l-9 -52h-268z" />
    <glyph glyph-name="umacron" unicode="&#x16b;" 
d="M370 92h-4q-28 -45 -76 -76.5t-115 -31.5q-36 0 -64.5 11.5t-48 31.5t-30 47.5t-10.5 60.5q0 14 1.5 29t5.5 35l51 291h64l-52 -297q-2 -13 -3.5 -23.5t-1.5 -21.5q0 -50 28 -78t82 -28q36 0 68 15t57.5 41t43 60.5t24.5 73.5l46 258h64l-86 -490h-60zM178 633l9 52h268
l-9 -52h-268z" />
    <glyph glyph-name="Ubreve" unicode="&#x16c;" horiz-adv-x="635" 
d="M254 -16q-46 0 -85 15t-68 43t-45.5 68t-16.5 89q0 15 1.5 34t6.5 51l77 432h64l-79 -447q-4 -21 -5 -34.5t-1 -27.5q0 -35 10 -65t30.5 -51.5t50.5 -33.5t70 -12q47 0 86 16t68.5 44.5t49 67.5t27.5 85l81 458h64l-83 -469q-11 -60 -36 -108.5t-63.5 -83t-89.5 -53
t-114 -18.5zM387 776q-21 0 -40 7.5t-34 20.5t-23.5 31.5t-8.5 40.5q0 5 0.5 10t1.5 10h55q-1 -5 -1 -7v-6q0 -23 14 -39.5t43 -16.5q32 0 53.5 20t26.5 49h53q-9 -60 -46.5 -90t-93.5 -30z" />
    <glyph glyph-name="ubreve" unicode="&#x16d;" 
d="M370 92h-4q-28 -45 -76 -76.5t-115 -31.5q-36 0 -64.5 11.5t-48 31.5t-30 47.5t-10.5 60.5q0 14 1.5 29t5.5 35l51 291h64l-52 -297q-2 -13 -3.5 -23.5t-1.5 -21.5q0 -50 28 -78t82 -28q36 0 68 15t57.5 41t43 60.5t24.5 73.5l46 258h64l-86 -490h-60zM313 577
q-21 0 -40 7.5t-34 20.5t-23.5 31.5t-8.5 40.5q0 5 0.5 10t1.5 10h55q-1 -5 -1 -7v-6q0 -23 14 -39.5t43 -16.5q32 0 53.5 20t26.5 49h53q-9 -60 -46.5 -90t-93.5 -30z" />
    <glyph glyph-name="Uring" unicode="&#x16e;" horiz-adv-x="635" 
d="M396 754q-21 0 -40 8t-32.5 22t-21.5 32.5t-8 39.5q0 43 29.5 72.5t72.5 29.5q21 0 39.5 -8t32.5 -21.5t22 -32.5t8 -40t-8 -39.5t-22 -32.5t-32.5 -22t-39.5 -8zM396 800q23 0 39 16t16 40t-16 40t-39 16t-39 -16t-16 -40t16 -40t39 -16zM254 -16q-46 0 -85 15t-68 43
t-45.5 68t-16.5 89q0 15 1.5 34t6.5 51l77 432h64l-79 -447q-4 -21 -5 -34.5t-1 -27.5q0 -35 10 -65t30.5 -51.5t50.5 -33.5t70 -12q47 0 86 16t68.5 44.5t49 67.5t27.5 85l81 458h64l-83 -469q-11 -60 -36 -108.5t-63.5 -83t-89.5 -53t-114 -18.5z" />
    <glyph glyph-name="uring" unicode="&#x16f;" 
d="M318 570q-21 0 -40 8t-32.5 22t-21.5 32.5t-8 39.5q0 43 29.5 72.5t72.5 29.5q21 0 39.5 -8t32.5 -21.5t22 -32.5t8 -40t-8 -39.5t-22 -32.5t-32.5 -22t-39.5 -8zM318 616q23 0 39 16t16 40t-16 40t-39 16t-39 -16t-16 -40t16 -40t39 -16zM370 92h-4q-28 -45 -76 -76.5
t-115 -31.5q-36 0 -64.5 11.5t-48 31.5t-30 47.5t-10.5 60.5q0 14 1.5 29t5.5 35l51 291h64l-52 -297q-2 -13 -3.5 -23.5t-1.5 -21.5q0 -50 28 -78t82 -28q36 0 68 15t57.5 41t43 60.5t24.5 73.5l46 258h64l-86 -490h-60z" />
    <glyph glyph-name="Uhungarumlaut" unicode="&#x170;" horiz-adv-x="635" 
d="M254 -16q-46 0 -85 15t-68 43t-45.5 68t-16.5 89q0 15 1.5 34t6.5 51l77 432h64l-79 -447q-4 -21 -5 -34.5t-1 -27.5q0 -35 10 -65t30.5 -51.5t50.5 -33.5t70 -12q47 0 86 16t68.5 44.5t49 67.5t27.5 85l81 458h64l-83 -469q-11 -60 -36 -108.5t-63.5 -83t-89.5 -53
t-114 -18.5zM278 772l73 124h76l-89 -124h-60zM422 772l73 124h76l-89 -124h-60z" />
    <glyph glyph-name="uhungarumlaut" unicode="&#x171;" 
d="M201 592l73 124h76l-89 -124h-60zM345 592l73 124h76l-89 -124h-60zM370 92h-4q-28 -45 -76 -76.5t-115 -31.5q-36 0 -64.5 11.5t-48 31.5t-30 47.5t-10.5 60.5q0 14 1.5 29t5.5 35l51 291h64l-52 -297q-2 -13 -3.5 -23.5t-1.5 -21.5q0 -50 28 -78t82 -28q36 0 68 15
t57.5 41t43 60.5t24.5 73.5l46 258h64l-86 -490h-60z" />
    <glyph glyph-name="Uogonek" unicode="&#x172;" horiz-adv-x="635" 
d="M303 -224q-43 0 -70.5 26.5t-27.5 65.5q0 35 18.5 65t48.5 52q-5 -1 -10 -1h-11q-45 0 -84 15.5t-67.5 43.5t-44.5 67.5t-16 88.5q0 15 1.5 34t6.5 51l77 432h64l-79 -447q-4 -21 -5 -34.5t-1 -27.5q0 -35 10 -65t30.5 -51.5t50.5 -33.5t70 -12q47 0 86 16t68.5 44.5
t49 67.5t27.5 85l81 458h64l-83 -469q-17 -94 -63 -153t-119 -88q-46 -19 -78 -53t-32 -72q0 -25 14.5 -38t35.5 -13q18 0 35 7l15 -48q-14 -6 -28.5 -9.5t-33.5 -3.5z" />
    <glyph glyph-name="uogonek" unicode="&#x173;" 
d="M357 -224q-43 0 -70.5 26.5t-27.5 65.5q0 42 26.5 76.5t68.5 58.5l16 89h-4q-28 -45 -76 -76.5t-115 -31.5q-36 0 -64.5 11.5t-48 31.5t-30 47.5t-10.5 60.5q0 14 2 30.5t5 33.5l51 291h64l-52 -297q-2 -13 -3.5 -23.5t-1.5 -21.5q0 -50 28 -78t82 -28q36 0 68 15
t57.5 41t43 60.5t24.5 73.5l46 258h64l-86 -490q-15 -9 -32 -22t-31 -28t-23 -32.5t-9 -36.5q0 -25 14.5 -38t35.5 -13q18 0 35 7l15 -48q-14 -6 -28.5 -9.5t-33.5 -3.5z" />
    <glyph glyph-name="Wcircumflex" unicode="&#x174;" horiz-adv-x="908" 
d="M387 786l121 114h59l80 -114l-1 -5h-60l-50 72h-8l-73 -72h-69zM632 0h-67l-76 520h-4l-259 -520h-67l-79 716h66l64 -609h4l255 513h66l76 -513h4l271 609h68z" />
    <glyph glyph-name="wcircumflex" unicode="&#x175;" horiz-adv-x="732" 
d="M270 602l121 114h59l80 -114l-1 -5h-60l-50 72h-8l-73 -72h-69zM440 0l-65 414l-210 -414h-63l-75 490h64l56 -403h1l205 403h69l64 -401h1l199 401h65l-248 -490h-63z" />
    <glyph glyph-name="Ycircumflex" unicode="&#x176;" horiz-adv-x="579" 
d="M196 0l57 324l-177 392h72l144 -326h4l256 326h78l-313 -392l-57 -324h-64zM216 786l121 114h59l80 -114l-1 -5h-60l-50 72h-8l-73 -72h-69z" />
    <glyph glyph-name="ycircumflex" unicode="&#x177;" horiz-adv-x="478" 
d="M11 -216l159 254l-125 452h68l101 -378h2l226 378h72l-434 -706h-69zM154 602l121 114h59l80 -114l-1 -5h-60l-50 72h-8l-73 -72h-69z" />
    <glyph glyph-name="Ydieresis" unicode="&#x178;" horiz-adv-x="579" 
d="M196 0l57 324l-177 392h72l144 -326h4l256 326h78l-313 -392l-57 -324h-64zM438 799q-18 0 -31.5 13t-13.5 31q0 20 13.5 32.5t31.5 12.5q19 0 31.5 -12.5t12.5 -32.5q0 -18 -12.5 -31t-31.5 -13zM284 799q-18 0 -31.5 13t-13.5 31q0 20 13.5 32.5t31.5 12.5
q19 0 31.5 -12.5t12.5 -32.5q0 -18 -12.5 -31t-31.5 -13z" />
    <glyph glyph-name="Zacute" unicode="&#x179;" horiz-adv-x="553" 
d="M302 776l73 124h76l-89 -124h-60zM-17 69l500 586h-381l11 61h456l-12 -69l-501 -586h401l-11 -61h-475z" />
    <glyph glyph-name="zacute" unicode="&#x17a;" horiz-adv-x="450" 
d="M227 592l73 124h76l-89 -124h-60zM-20 54l363 378h-288l10 58h370l-9 -54l-364 -378h301l-11 -58h-381z" />
    <glyph glyph-name="Zdotaccent" unicode="&#x17b;" horiz-adv-x="553" 
d="M367 814q-17 0 -29.5 12.5t-12.5 29.5q0 18 12.5 30t29.5 12q18 0 30 -12t12 -30q0 -17 -12 -29.5t-30 -12.5zM-17 69l500 586h-381l11 61h456l-12 -69l-501 -586h401l-11 -61h-475z" />
    <glyph glyph-name="zdotaccent" unicode="&#x17c;" horiz-adv-x="450" 
d="M-20 54l363 378h-288l10 58h370l-9 -54l-364 -378h301l-11 -58h-381zM284 615q-18 0 -31.5 13t-13.5 31q0 20 13.5 32.5t31.5 12.5q19 0 31.5 -12.5t12.5 -32.5q0 -18 -12.5 -31t-31.5 -13z" />
    <glyph glyph-name="Zcaron" unicode="&#x17d;" horiz-adv-x="553" 
d="M496 895l-121 -114h-59l-80 114l1 5h59l51 -72h8l73 72h69zM-17 69l500 586h-381l11 61h456l-12 -69l-501 -586h401l-11 -61h-475z" />
    <glyph glyph-name="zcaron" unicode="&#x17e;" horiz-adv-x="450" 
d="M418 711l-121 -114h-59l-80 114l1 5h59l51 -72h8l73 72h69zM-20 54l363 378h-288l10 58h370l-9 -54l-364 -378h301l-11 -58h-381z" />
    <glyph glyph-name="uni0192" unicode="&#x192;" horiz-adv-x="556" 
d="M107 -220q-20 0 -35.5 4.5t-29.5 11.5l17 55q21 -13 51 -13q31 0 50.5 21.5t27.5 60.5l81 415h-111v58h122l39 195q12 60 52.5 96t102.5 36q22 0 38.5 -3.5t30.5 -10.5l-22 -55q-19 11 -49 11q-35 0 -59.5 -20t-32.5 -64l-37 -185h139v-58h-150l-84 -425q-11 -58 -46 -94
t-95 -36z" />
    <glyph glyph-name="Aringacute" unicode="&#x1fa;" horiz-adv-x="653" 
d="M330 676q-19 14 -30 34.5t-11 45.5q0 21 7.5 39t20.5 31.5t30.5 22t37.5 9.5q4 0 6 -1l45 75h69l-61 -89q22 -13 35.5 -36t13.5 -51q0 -30 -15.5 -54t-40.5 -36l140 -666h-67l-41 207h-332l-115 -207h-73zM456 267l-74 363h-10l-202 -363h286zM391 702q22 0 37.5 15.5
t15.5 38.5t-15.5 38.5t-37.5 15.5t-37.5 -15.5t-15.5 -38.5t15.5 -38.5t37.5 -15.5z" />
    <glyph glyph-name="aringacute" unicode="&#x1fb;" horiz-adv-x="506" 
d="M285 794l59 106h76l-78 -106h-57zM276 506q88 0 136.5 -44.5t48.5 -119.5q0 -11 -1.5 -22.5t-3.5 -24.5l-52 -295h-62l14 85h-4q-30 -45 -78 -73t-108 -28q-36 0 -66 11t-51.5 31t-33.5 47.5t-12 60.5q0 42 18 75t49.5 56t74 35t91.5 12q46 0 85.5 -11t68.5 -27l6 31
q1 7 1.5 14.5t0.5 14.5q0 54 -35 84.5t-94 30.5q-44 0 -82.5 -19t-65.5 -57l-50 35q33 48 87 73t118 25zM179 41q36 0 69.5 14t60.5 38.5t46 56.5t25 68q-17 11 -53 26t-97 15q-31 0 -60 -7.5t-51.5 -22.5t-36 -38t-13.5 -54q0 -23 9 -41t24 -30t35 -18.5t42 -6.5zM305 570
q-21 0 -40 8t-32.5 22t-21.5 32.5t-8 39.5q0 43 29.5 72.5t72.5 29.5q21 0 39.5 -8t32.5 -21.5t22 -32.5t8 -40t-8 -39.5t-22 -32.5t-32.5 -22t-39.5 -8zM305 616q23 0 39 16t16 40t-16 40t-39 16t-39 -16t-16 -40t16 -40t39 -16z" />
    <glyph glyph-name="AEacute" unicode="&#x1fc;" horiz-adv-x="936" 
d="M682 776l73 124h76l-89 -124h-60zM-59 0l555 716h448l-11 -61h-340l-48 -267h308l-10 -60h-308l-47 -267h340l-11 -61h-404l36 207h-271l-160 -207h-77zM224 267h236l69 388h-4z" />
    <glyph glyph-name="aeacute" unicode="&#x1fd;" horiz-adv-x="903" 
d="M452 592l73 124h76l-89 -124h-60zM822 116q-36 -61 -93 -96.5t-135 -35.5q-38 0 -70 11t-57 30t-42.5 44.5t-26.5 54.5q-38 -66 -98 -103t-132 -37q-37 0 -67.5 11t-52 31t-33.5 47.5t-12 60.5q0 42 18 75t49.5 56t74 35t91.5 12q46 0 85.5 -11t68.5 -27l6 31q1 6 2 14.5
t1 15.5q0 54 -34.5 84t-91.5 30q-46 0 -87 -21t-62 -58l-54 29q32 50 84.5 78.5t123.5 28.5q67 0 109.5 -31t59.5 -80q37 49 91 80t123 31q48 0 85 -15.5t62.5 -42.5t38.5 -64t13 -80q0 -36 -8 -70h-403q-2 -7 -2.5 -16.5t-0.5 -18.5q0 -38 13 -67t34 -49t48.5 -30.5
t56.5 -10.5q66 0 105.5 28t70.5 74zM179 41q36 0 69.5 14t60.5 38.5t46 56.5t25 68q-17 11 -53 26t-97 15q-31 0 -60 -7.5t-51.5 -22.5t-36 -38t-13.5 -54q0 -23 9 -41t24 -30t35 -18.5t42 -6.5zM795 288q1 4 1 11v11q0 22 -6.5 46.5t-22.5 44.5t-43.5 33.5t-69.5 13.5
q-32 0 -62 -10.5t-55.5 -31t-45 -50t-30.5 -68.5h334z" />
    <glyph glyph-name="Oslashacute" unicode="&#x1fe;" horiz-adv-x="809" 
d="M85 1l52 65q-48 45 -75.5 107.5t-27.5 140.5q0 84 31.5 160t87 133t132.5 91t169 34q51 0 95 -13t82 -36l54 68l46 -35l-55 -68q47 -45 73.5 -107t26.5 -138q0 -84 -31.5 -160t-87.5 -133.5t-133 -91.5t-168 -34q-50 0 -93 12t-80 35l-52 -65zM99 317q0 -63 20.5 -113.5
t57.5 -86.5l413 515q-62 39 -144 39q-73 0 -136.5 -29.5t-110 -79t-73.5 -113t-27 -132.5zM363 45q73 0 136.5 29.5t110.5 78.5t74 113t27 133q0 62 -20.5 112t-55.5 85l-411 -514q60 -37 139 -37zM448 776l73 124h76l-89 -124h-60z" />
    <glyph glyph-name="oslashacute" unicode="&#x1ff;" horiz-adv-x="554" 
d="M295 506q34 0 64 -9t56 -26l42 53l41 -33l-43 -54q28 -31 44 -71.5t16 -88.5q0 -59 -21 -112t-59 -93.5t-91 -64t-117 -23.5q-32 0 -60 7.5t-52 21.5l-35 -44l-43 32l36 45q-31 32 -48.5 74.5t-17.5 93.5q0 59 21 112t59 93t91 63.5t117 23.5zM72 218q0 -36 11 -67
t31 -54l261 325q-38 26 -87 26q-48 0 -88 -19t-68.5 -51t-44 -73.5t-15.5 -86.5zM234 42q48 0 88 19t68.5 51.5t44 74t15.5 86.5q0 33 -10 61t-27 51l-258 -322q36 -21 79 -21zM286 592l73 124h76l-89 -124h-60z" />
    <glyph glyph-name="uni0218" unicode="&#x218;" horiz-adv-x="542" 
d="M128 -203l57 66q-14 3 -22.5 15t-8.5 27q0 18 13 32.5t34 14.5q20 0 33.5 -13t13.5 -33q0 -24 -18 -45l-74 -88zM220 -16q-91 0 -149.5 52t-74.5 141l61 25q13 -70 53.5 -113.5t115.5 -43.5q34 0 66.5 11t58 32t41 51t15.5 67q0 50 -35 81.5t-102 56.5l-42 16
q-28 10 -54 26t-46 37.5t-32 50t-12 63.5q0 42 18.5 78t50 62t73.5 40.5t89 14.5q51 0 87 -14.5t60 -36t37 -47.5t18 -49l-62 -23q-5 19 -14 38t-26 35t-42.5 26t-61.5 10q-32 0 -61 -9t-51 -26t-35 -41t-13 -53q0 -50 32.5 -79.5t85.5 -49.5l43 -17q33 -12 62 -29t51.5 -39
t35.5 -51t13 -65q0 -50 -19.5 -92t-54 -72t-81 -47t-99.5 -17z" />
    <glyph glyph-name="uni0219" unicode="&#x219;" horiz-adv-x="448" 
d="M88 -203l57 66q-14 3 -22.5 15t-8.5 27q0 18 13 32.5t34 14.5q20 0 33.5 -13t13.5 -33q0 -24 -18 -45l-74 -88zM181 -16q-41 0 -73.5 11t-56.5 30.5t-40 45t-23 54.5l61 24q12 -51 48.5 -79.5t90.5 -28.5q26 0 50 6t42 18t28.5 29t10.5 39q0 32 -21 52.5t-75 34.5l-55 15
q-23 6 -44.5 17t-38.5 26.5t-27.5 36t-10.5 46.5q0 33 15 60t41.5 45.5t61.5 29t75 10.5q67 0 114 -30t65 -85l-61 -24q-11 37 -42.5 59.5t-79.5 22.5q-53 0 -88 -21.5t-35 -61.5q0 -29 22 -47.5t61 -29.5l62 -18q61 -18 94.5 -48t33.5 -83q0 -36 -15.5 -65t-43.5 -49
t-65.5 -31t-80.5 -11z" />
    <glyph glyph-name="uni021A" unicode="&#x21a;" horiz-adv-x="521" 
d="M106 -203l57 66q-14 3 -22.5 15t-8.5 27q0 18 13 32.5t34 14.5q20 0 33.5 -13t13.5 -33q0 -24 -18 -45l-74 -88zM165 0l116 655h-203l11 61h470l-11 -61h-203l-116 -655h-64z" />
    <glyph glyph-name="uni021B" unicode="&#x21b;" horiz-adv-x="338" 
d="M68 -203l57 66q-14 3 -22.5 15t-8.5 27q0 18 13 32.5t34 14.5q20 0 33.5 -13t13.5 -33q0 -24 -18 -45l-74 -88zM180 -8q-22 0 -41.5 7t-34.5 20.5t-23.5 33t-8.5 45.5q0 8 1 19t5 34l50 281h-89l10 58h89l27 150h64l-27 -150h122l-10 -58h-122l-52 -292q-2 -8 -3 -15.5
t-1 -14.5q0 -25 14.5 -42t43.5 -17q15 0 26 2.5t25 8.5l12 -55q-20 -8 -37 -11.5t-40 -3.5z" />
    <glyph glyph-name="uni0237" unicode="&#x237;" horiz-adv-x="195" 
d="M-91 -226q-33 0 -51 10l24 56q13 -8 33 -8q56 0 70 75l104 583h64l-104 -588q-11 -64 -47 -96t-93 -32z" />
    <glyph glyph-name="circumflex" unicode="&#x2c6;" horiz-adv-x="381" 
d="M103 602l121 114h59l80 -114l-1 -5h-60l-50 72h-8l-73 -72h-69z" />
    <glyph glyph-name="caron" unicode="&#x2c7;" horiz-adv-x="381" 
d="M383 711l-121 -114h-59l-80 114l1 5h59l51 -72h8l73 72h69z" />
    <glyph glyph-name="breve" unicode="&#x2d8;" horiz-adv-x="398" 
d="M243 592q-21 0 -40 7.5t-34 20.5t-23.5 31.5t-8.5 40.5q0 5 0.5 10t1.5 10h55q-1 -5 -1 -7v-6q0 -23 14 -39.5t43 -16.5q32 0 53.5 20t26.5 49h53q-9 -60 -46.5 -90t-93.5 -30z" />
    <glyph glyph-name="dotaccent" unicode="&#x2d9;" horiz-adv-x="215" 
d="M161 615q-18 0 -31.5 13t-13.5 31q0 20 13.5 32.5t31.5 12.5q19 0 31.5 -12.5t12.5 -32.5q0 -18 -12.5 -31t-31.5 -13z" />
    <glyph glyph-name="ring" unicode="&#x2da;" horiz-adv-x="409" 
d="M255 570q-21 0 -40 8t-32.5 22t-21.5 32.5t-8 39.5q0 43 29.5 72.5t72.5 29.5q21 0 39.5 -8t32.5 -21.5t22 -32.5t8 -40t-8 -39.5t-22 -32.5t-32.5 -22t-39.5 -8zM255 616q23 0 39 16t16 40t-16 40t-39 16t-39 -16t-16 -40t16 -40t39 -16z" />
    <glyph glyph-name="tilde" unicode="&#x2dc;" horiz-adv-x="392" 
d="M313 602q-20 0 -36.5 8.5t-31.5 18.5t-30 18.5t-33 8.5q-41 0 -50 -44h-54q7 53 36 77.5t69 24.5q20 0 36.5 -8.5t32.5 -17.5q15 -10 30 -18.5t33 -8.5q40 0 49 43h54q-7 -52 -35.5 -77t-69.5 -25z" />
    <glyph glyph-name="uni0374" unicode="&#x374;" horiz-adv-x="250" 
d="M188 716h82l-144 -205h-57z" />
    <glyph glyph-name="uni0375" unicode="&#x375;" horiz-adv-x="250" 
d="M124 -83h-81l107 205h57z" />
    <glyph glyph-name="uni037E" unicode="&#x37e;" horiz-adv-x="203" 
d="M118 393q-22 0 -36.5 15t-14.5 37t14.5 36.5t36.5 14.5t37 -14.5t15 -36.5t-15 -37t-37 -15zM-36 -70l66 79q-8 4 -18.5 15.5t-10.5 30.5q0 23 15 37.5t36 14.5q20 0 36 -13.5t16 -36.5q0 -14 -9 -27t-22 -28l-81 -96z" />
    <glyph glyph-name="tonos" unicode="&#x384;" horiz-adv-x="390" 
d="M178 592l72 124h76l-91 -124h-57z" />
    <glyph glyph-name="dieresistonos" unicode="&#x385;" horiz-adv-x="372" 
d="M347 617q-17 0 -29.5 12.5t-12.5 29.5q0 18 12.5 30t29.5 12q18 0 30 -12t12 -30q0 -17 -12 -29.5t-30 -12.5zM127 617q-17 0 -29.5 12.5t-12.5 29.5q0 18 12.5 30t29.5 12q18 0 30 -12t12 -30q0 -17 -12 -29.5t-30 -12.5zM200 588l25 144h50l-25 -144h-50z" />
    <glyph glyph-name="Alphatonos" unicode="&#x386;" horiz-adv-x="653" 
d="M353 716h74l150 -716h-67l-41 207h-332l-115 -207h-73zM456 267l-76 371h-4l-206 -371h286zM93 592l73 124h76l-89 -124h-60z" />
    <glyph glyph-name="anoteleia" unicode="&#x387;" horiz-adv-x="145" 
d="M70 273q-22 0 -37 14.5t-15 36.5t15 37t37 15t36.5 -15t14.5 -37t-14.5 -36.5t-36.5 -14.5z" />
    <glyph glyph-name="Epsilontonos" unicode="&#x388;" horiz-adv-x="577" 
d="M-35 592l73 124h76l-89 -124h-60zM234 655l-47 -267h308l-10 -60h-308l-48 -267h340l-11 -61h-404l127 716h404l-11 -61h-340z" />
    <glyph glyph-name="Etatonos" unicode="&#x389;" horiz-adv-x="723" 
d="M181 716h64l-57 -320h400l57 320h64l-127 -716h-64l60 336h-400l-60 -336h-64zM-35 592l73 124h76l-89 -124h-60z" />
    <glyph glyph-name="Iotatonos" unicode="&#x38a;" horiz-adv-x="259" 
d="M181 716h64l-127 -716h-64zM-35 592l73 124h76l-89 -124h-60z" />
    <glyph glyph-name="Omicrontonos" unicode="&#x38c;" horiz-adv-x="791" 
d="M-5 592l73 124h76l-89 -124h-60zM338 -16q-69 0 -128 24.5t-102 68t-67.5 104.5t-24.5 133q0 84 31.5 160t87 133t132.5 91t169 34q69 0 128 -24.5t102 -68t67.5 -104t24.5 -132.5q0 -84 -31.5 -160t-87.5 -133.5t-133 -91.5t-168 -34zM345 45q73 0 136.5 29.5
t110.5 78.5t74 113t27 133q0 61 -20 111.5t-55.5 86t-84 55t-105.5 19.5q-73 0 -136.5 -29.5t-110 -79t-73.5 -113t-27 -132.5q0 -62 20 -112t55.5 -85.5t84 -55t104.5 -19.5z" />
    <glyph glyph-name="Upsilontonos" unicode="&#x38e;" horiz-adv-x="656" 
d="M273 0l57 324l-177 392h72l144 -326h4l256 326h78l-313 -392l-57 -324h-64zM-35 592l73 124h76l-89 -124h-60z" />
    <glyph glyph-name="Omegatonos" unicode="&#x38f;" horiz-adv-x="738" 
d="M343 0l17 96q55 16 105.5 47.5t88.5 74.5t60.5 96t22.5 112q0 52 -17.5 97t-50 78t-77.5 51.5t-100 18.5q-68 0 -127 -26t-103 -70t-69.5 -102.5t-25.5 -123.5q0 -50 14 -91.5t38 -73.5t56 -54t67 -34l-17 -96h-271l10 61h198l1 4q-35 20 -64.5 48t-51.5 63t-34 77
t-12 90q0 76 30 146.5t83.5 124.5t126.5 86t160 32q70 0 126 -24.5t95 -65.5t59.5 -95.5t20.5 -115.5q0 -62 -20 -116.5t-56 -101t-86 -84t-110 -64.5l-1 -4h195l-10 -61h-271zM-35 592l73 124h76l-89 -124h-60z" />
    <glyph glyph-name="iotadieresistonos" unicode="&#x390;" horiz-adv-x="195" 
d="M259 617q-17 0 -29.5 12.5t-12.5 29.5q0 18 12.5 30t29.5 12q18 0 30 -12t12 -30q0 -17 -12 -29.5t-30 -12.5zM39 617q-17 0 -29.5 12.5t-12.5 29.5q0 18 12.5 30t29.5 12q18 0 30 -12t12 -30q0 -17 -12 -29.5t-30 -12.5zM112 588l25 144h50l-25 -144h-50zM2 0l86 490h64
l-86 -490h-64z" />
    <glyph glyph-name="Alpha" unicode="&#x391;" horiz-adv-x="653" 
d="M353 716h74l150 -716h-67l-41 207h-332l-115 -207h-73zM456 267l-76 371h-4l-206 -371h286z" />
    <glyph glyph-name="Beta" unicode="&#x392;" horiz-adv-x="587" 
d="M140 716h243q42 0 75 -13.5t56 -36.5t35.5 -53.5t12.5 -65.5q0 -33 -11 -61.5t-29.5 -51t-42.5 -38.5t-49 -25l-1 -4q43 -20 71 -57.5t28 -94.5q0 -44 -19 -83.5t-52 -68.5t-78.5 -46t-99.5 -17h-266zM335 396q32 0 61 10.5t51.5 29t35.5 44.5t13 57q0 52 -31 85t-88 33
h-184l-46 -259h188zM292 61q33 0 64 11t54.5 31.5t37.5 48t14 60.5q0 56 -36 90t-97 34h-192l-49 -275h204z" />
    <glyph glyph-name="Gamma" unicode="&#x393;" horiz-adv-x="491" 
d="M140 716h388l-11 -61h-324l-116 -655h-64z" />
    <glyph glyph-name="uni0394" unicode="&#x394;" horiz-adv-x="637" 
d="M344 716h75l142 -716h-612zM56 61h425l-109 577h-4z" />
    <glyph glyph-name="Epsilon" unicode="&#x395;" horiz-adv-x="537" 
d="M193 655l-47 -267h308l-10 -60h-308l-48 -267h340l-11 -61h-404l127 716h404l-11 -61h-340z" />
    <glyph glyph-name="Zeta" unicode="&#x396;" horiz-adv-x="553" 
d="M-9 69l500 586h-381l11 61h456l-12 -69l-501 -586h401l-11 -61h-475z" />
    <glyph glyph-name="Eta" unicode="&#x397;" horiz-adv-x="682" 
d="M140 716h64l-57 -320h400l57 320h64l-127 -716h-64l60 336h-400l-60 -336h-64z" />
    <glyph glyph-name="Theta" unicode="&#x398;" horiz-adv-x="824" 
d="M250 328l10 61h310l-10 -61h-310zM356 -16q-69 0 -128 24.5t-102 68t-67.5 104.5t-24.5 133q0 84 31.5 160t87 133t132.5 91t169 34q69 0 128 -24.5t102 -68t67.5 -104t24.5 -132.5q0 -84 -31.5 -160t-87.5 -133.5t-133 -91.5t-168 -34zM363 45q73 0 136.5 29.5
t110.5 78.5t74 113t27 133q0 61 -20 111.5t-55.5 86t-84 55t-105.5 19.5q-73 0 -136.5 -29.5t-110 -79t-73.5 -113t-27 -132.5q0 -62 20 -112t55.5 -85.5t84 -55t104.5 -19.5z" />
    <glyph glyph-name="Iota" unicode="&#x399;" horiz-adv-x="218" 
d="M140 716h64l-127 -716h-64z" />
    <glyph glyph-name="Kappa" unicode="&#x39a;" horiz-adv-x="581" 
d="M631 712l-411 -367l292 -341l-1 -4h-83l-286 339h-4l-61 -339h-64l127 716h64l-64 -360h4l401 360h87z" />
    <glyph glyph-name="Lambda" unicode="&#x39b;" horiz-adv-x="625" 
d="M338 716h75l136 -716h-68l-114 638h-4l-339 -638h-75z" />
    <glyph glyph-name="Mu" unicode="&#x39c;" horiz-adv-x="825" 
d="M140 716h61l186 -473h4l353 473h67l-127 -716h-63l84 477l26 120h-4l-332 -445h-37l-176 445h-4l-18 -120l-84 -477h-63z" />
    <glyph glyph-name="Nu" unicode="&#x39d;" horiz-adv-x="690" 
d="M140 716h77l288 -604h4l21 138l82 466h64l-127 -716h-60l-300 631h-4l-20 -138l-88 -493h-64z" />
    <glyph glyph-name="Xi" unicode="&#x39e;" horiz-adv-x="479" 
d="M82 655l11 61h420l-11 -61h-420zM-34 0l11 61h420l-11 -61h-420zM56 328l10 61h356l-10 -61h-356z" />
    <glyph glyph-name="Omicron" unicode="&#x39f;" horiz-adv-x="809" 
d="M356 -16q-69 0 -128 24.5t-102 68t-67.5 104.5t-24.5 133q0 84 31.5 160t87 133t132.5 91t169 34q69 0 128 -24.5t102 -68t67.5 -104t24.5 -132.5q0 -84 -31.5 -160t-87.5 -133.5t-133 -91.5t-168 -34zM363 45q73 0 136.5 29.5t110.5 78.5t74 113t27 133q0 61 -20 111.5
t-55.5 86t-84 55t-105.5 19.5q-73 0 -136.5 -29.5t-110 -79t-73.5 -113t-27 -132.5q0 -62 20 -112t55.5 -85.5t84 -55t104.5 -19.5z" />
    <glyph glyph-name="Pi" unicode="&#x3a0;" horiz-adv-x="658" 
d="M140 716h504l-127 -716h-64l116 655h-376l-116 -655h-64z" />
    <glyph glyph-name="Rho" unicode="&#x3a1;" horiz-adv-x="557" 
d="M13 0l127 716h227q43 0 78.5 -13t61 -37t39.5 -58t14 -75q0 -54 -19.5 -97t-54.5 -74t-83 -47.5t-105 -16.5h-168l-53 -298h-64zM309 359q40 0 74 11.5t58.5 33t38.5 52.5t14 71q0 31 -10.5 55t-28.5 40t-42 24.5t-51 8.5h-169l-52 -296h168z" />
    <glyph glyph-name="Sigma" unicode="&#x3a3;" horiz-adv-x="495" 
d="M166 655l181 -289l-280 -305h346l-11 -61h-423l12 67l279 304l-176 278l12 67h423l-11 -61h-352z" />
    <glyph glyph-name="Tau" unicode="&#x3a4;" horiz-adv-x="521" 
d="M165 0l116 655h-203l11 61h470l-11 -61h-203l-116 -655h-64z" />
    <glyph glyph-name="Upsilon" unicode="&#x3a5;" horiz-adv-x="579" 
d="M196 0l57 324l-177 392h72l144 -326h4l256 326h78l-313 -392l-57 -324h-64z" />
    <glyph glyph-name="Phi" unicode="&#x3a6;" horiz-adv-x="777" 
d="M293 0l10 57q-63 6 -112.5 27t-84.5 55.5t-53.5 81.5t-18.5 105q0 70 29 130t80 104t119.5 70t147.5 29l10 57h64l-11 -57q63 -6 113 -27.5t85 -56.5t53.5 -82.5t18.5 -105.5q0 -70 -29 -129t-79.5 -102.5t-119.5 -69t-148 -29.5l-10 -57h-64zM677 384q0 94 -55.5 150.5
t-158.5 64.5l-86 -482q61 4 115.5 24t95.5 54.5t65 82t24 106.5zM100 332q0 -94 55 -150.5t158 -64.5l86 482q-60 -4 -114 -24.5t-95.5 -55t-65.5 -82t-24 -105.5z" />
    <glyph glyph-name="Chi" unicode="&#x3a7;" horiz-adv-x="612" 
d="M267 374l-173 342h76l143 -292h4l247 292h81l-296 -347l186 -369h-76l-157 316h-4l-266 -316h-78z" />
    <glyph glyph-name="Psi" unicode="&#x3a8;" horiz-adv-x="727" 
d="M295 156q-47 0 -88 15t-72 44t-48.5 71.5t-17.5 96.5q0 16 1.5 32.5t5.5 36.5l47 264h64l-49 -274q-6 -30 -6 -58q0 -81 48 -124t126 -43l89 499h64l-89 -499q49 0 90.5 15.5t73.5 44t53 69t30 89.5l50 281h64l-52 -291q-11 -64 -40 -114t-71 -84.5t-95 -52.5t-114 -18
l-27 -156h-64z" />
    <glyph glyph-name="uni03A9" unicode="&#x3a9;" horiz-adv-x="781" 
d="M385 0l17 96q55 16 105.5 47.5t88.5 74.5t60.5 96t22.5 112q0 52 -17.5 97t-50 78t-77.5 51.5t-100 18.5q-68 0 -127 -26t-103 -70t-69.5 -102.5t-25.5 -123.5q0 -50 14 -91.5t38 -73.5t56 -54t67 -34l-17 -96h-271l10 61h198l1 4q-35 20 -64.5 48t-51.5 63t-34 77
t-12 90q0 76 30 146.5t83.5 124.5t126.5 86t160 32q70 0 126 -24.5t95 -65.5t59.5 -95.5t20.5 -115.5q0 -62 -20 -116.5t-56 -101t-86 -84t-110 -64.5l-1 -4h195l-10 -61h-271z" />
    <glyph glyph-name="Iotadieresis" unicode="&#x3aa;" horiz-adv-x="218" 
d="M257 808q-17 0 -29.5 12.5t-12.5 29.5q0 18 12.5 30t29.5 12q18 0 30 -12t12 -30q0 -17 -12 -29.5t-30 -12.5zM121 808q-17 0 -29.5 12.5t-12.5 29.5q0 18 12.5 30t29.5 12q18 0 30 -12t12 -30q0 -17 -12 -29.5t-30 -12.5zM140 716h64l-127 -716h-64z" />
    <glyph glyph-name="Upsilondieresis" unicode="&#x3ab;" horiz-adv-x="579" 
d="M196 0l57 324l-177 392h72l144 -326h4l256 326h78l-313 -392l-57 -324h-64zM436 799q-18 0 -31.5 13t-13.5 31q0 20 13.5 32.5t31.5 12.5q19 0 31.5 -12.5t12.5 -32.5q0 -18 -12.5 -31t-31.5 -13zM282 799q-18 0 -31.5 13t-13.5 31q0 20 13.5 32.5t31.5 12.5
q19 0 31.5 -12.5t12.5 -32.5q0 -18 -12.5 -31t-31.5 -13z" />
    <glyph glyph-name="alphatonos" unicode="&#x3ac;" horiz-adv-x="565" 
d="M274 592l73 124h76l-89 -124h-60zM209 -16q-44 0 -81 15.5t-64 45t-42.5 71t-15.5 93.5q0 55 20.5 108.5t58 95.5t89.5 67.5t114 25.5q33 0 59.5 -8.5t47.5 -23t36 -33t24 -39.5h4l16 88h60l-87 -490h-60l15 84h-4q-27 -42 -74 -71t-116 -29zM285 448q-47 0 -86 -20
t-67.5 -53t-44.5 -75.5t-16 -87.5q0 -81 42.5 -125.5t109.5 -44.5q46 0 85 20.5t67.5 54.5t44 77t15.5 88q0 40 -11.5 71t-31.5 52t-47.5 32t-59.5 11z" />
    <glyph glyph-name="epsilontonos" unicode="&#x3ad;" horiz-adv-x="479" 
d="M250 448q-24 0 -47.5 -6t-42.5 -17.5t-30.5 -29.5t-11.5 -42q0 -36 24.5 -56t65.5 -20h68l-10 -53h-77q-24 0 -47 -6.5t-41 -19t-29 -30.5t-11 -40q0 -38 31 -61.5t88 -23.5q48 0 83 17.5t73 55.5l41 -41q-45 -46 -93.5 -68.5t-109.5 -22.5q-83 0 -131 38t-48 98
q0 50 32 84t81 48l1 5q-21 13 -38 36.5t-17 60.5q0 34 16 62.5t43.5 48t64 30.5t77.5 11q103 0 162 -85l-50 -39q-21 32 -50 49t-67 17zM246 592l73 124h76l-89 -124h-60z" />
    <glyph glyph-name="etatonos" unicode="&#x3ae;" horiz-adv-x="543" 
d="M290 592l73 124h76l-89 -124h-60zM130 398h4q28 45 76.5 76.5t115.5 31.5q72 0 112 -42.5t40 -108.5q0 -27 -6 -64l-90 -507h-64l91 513q2 14 3 24t1 21q0 51 -28 78.5t-81 27.5q-36 0 -68 -15t-57.5 -41t-43 -60t-24.5 -73l-46 -259h-65l87 490h60z" />
    <glyph glyph-name="iotatonos" unicode="&#x3af;" horiz-adv-x="195" 
d="M104 592l73 124h76l-89 -124h-60zM2 0l86 490h64l-86 -490h-64z" />
    <glyph glyph-name="upsilondieresistonos" unicode="&#x3b0;" horiz-adv-x="529" 
d="M411 617q-17 0 -29.5 12.5t-12.5 29.5q0 18 12.5 30t29.5 12q18 0 30 -12t12 -30q0 -17 -12 -29.5t-30 -12.5zM191 617q-17 0 -29.5 12.5t-12.5 29.5q0 18 12.5 30t29.5 12q18 0 30 -12t12 -30q0 -17 -12 -29.5t-30 -12.5zM264 588l25 144h50l-25 -144h-50zM209 -16
q-41 0 -74 13.5t-56.5 38.5t-36.5 60t-13 78q0 23 6 61l45 255h64l-47 -262q-4 -23 -4 -48q0 -69 35.5 -103.5t89.5 -34.5q50 0 88 20t63.5 53.5t38.5 78t13 93.5q0 58 -10.5 106.5t-30.5 96.5h69q15 -38 26 -86t11 -110t-17.5 -118.5t-52 -99t-86.5 -67.5t-121 -25z" />
    <glyph glyph-name="alpha" unicode="&#x3b1;" horiz-adv-x="565" 
d="M209 -16q-44 0 -81 15.5t-64 45t-42.5 71t-15.5 93.5q0 55 20.5 108.5t58 95.5t89.5 67.5t114 25.5q33 0 59.5 -8.5t47.5 -23t36 -33t24 -39.5h4l16 88h60l-87 -490h-60l15 84h-4q-27 -42 -74 -71t-116 -29zM285 448q-47 0 -86 -20t-67.5 -53t-44.5 -75.5t-16 -87.5
q0 -81 42.5 -125.5t109.5 -44.5q46 0 85 20.5t67.5 54.5t44 77t15.5 88q0 40 -11.5 71t-31.5 52t-47.5 32t-59.5 11z" />
    <glyph glyph-name="beta" unicode="&#x3b2;" horiz-adv-x="549" 
d="M104 516q8 48 26.5 87.5t47 68t68.5 44.5t92 16q41 0 74 -13t56.5 -35.5t36.5 -53.5t13 -66q0 -33 -10.5 -61.5t-28 -51t-41 -39t-50.5 -25.5v-4q42 -20 72 -61t30 -104q0 -49 -18.5 -92t-51.5 -74.5t-78 -49.5t-97 -18q-51 0 -93.5 24.5t-61.5 63.5h-4l-9 -80l-37 -208
h-65zM251 44q33 0 64.5 12.5t55.5 34.5t38.5 53t14.5 67q0 64 -41 103.5t-111 39.5h-37l10 59h36q34 0 65 10t54.5 28.5t37.5 44.5t14 57q0 57 -35.5 88t-86.5 31q-60 0 -104 -41t-58 -116l-52 -297q-3 -21 -3 -39q0 -32 10.5 -57t29 -42.5t43.5 -26.5t55 -9z" />
    <glyph glyph-name="gamma" unicode="&#x3b3;" horiz-adv-x="511" 
d="M128 -216l39 220l-132 486h68l107 -414h2l254 414h71l-306 -485l-39 -221h-64z" />
    <glyph glyph-name="delta" unicode="&#x3b4;" horiz-adv-x="554" 
d="M219 -16q-46 0 -84.5 17t-67 47.5t-44.5 72.5t-16 92q0 52 18 102.5t53.5 91t87.5 67t121 29.5h10q4 0 9 -1l-173 168l8 46h386l-10 -58h-287l197 -187q45 -42 64.5 -86t19.5 -107q0 -57 -20.5 -110t-58.5 -94t-92 -65.5t-121 -24.5zM227 42q46 0 86 18t69.5 49.5
t46.5 73.5t17 89q0 39 -12 71t-33.5 55.5t-50 36.5t-61.5 13q-47 0 -86.5 -19t-69 -51t-46 -74t-16.5 -88q0 -40 12.5 -72t33.5 -54.5t49.5 -35t60.5 -12.5z" />
    <glyph glyph-name="epsilon" unicode="&#x3b5;" horiz-adv-x="470" 
d="M256 448q-24 0 -47.5 -6t-42.5 -17.5t-30.5 -29.5t-11.5 -42q0 -36 24.5 -56t65.5 -20h68l-10 -53h-77q-24 0 -47 -6.5t-41 -19t-29 -30.5t-11 -40q0 -38 31 -61.5t88 -23.5q48 0 83 17.5t73 55.5l41 -41q-45 -46 -93.5 -68.5t-109.5 -22.5q-83 0 -131 38t-48 98
q0 50 32 84t81 48l1 5q-21 13 -38 36.5t-17 60.5q0 34 16 62.5t43.5 48t64 30.5t77.5 11q103 0 162 -85l-50 -39q-21 32 -50 49t-67 17z" />
    <glyph glyph-name="zeta" unicode="&#x3b6;" horiz-adv-x="462" 
d="M242 -110q32 0 55.5 15t23.5 45q0 25 -15.5 37.5t-53.5 12.5h-114q-68 0 -102.5 35.5t-34.5 87.5q0 47 25.5 82t73.5 66q8 5 23 14.5t34 22.5q18 12 40 26t43 28q50 33 108 70h-277l10 58h372l-10 -56q-85 -57 -153 -102q-29 -20 -57 -38.5t-51 -33.5t-38 -25l-18 -12
q-29 -20 -45 -42t-16 -51q0 -32 22.5 -52t62.5 -20h107q60 0 93 -25.5t33 -74.5q0 -56 -41 -91t-110 -35z" />
    <glyph glyph-name="eta" unicode="&#x3b7;" 
d="M126 398h4q28 45 76.5 76.5t115.5 31.5q72 0 112 -42.5t40 -108.5q0 -27 -6 -64l-90 -507h-64l91 513q2 14 3 24t1 21q0 51 -28 78.5t-81 27.5q-36 0 -68 -15t-57.5 -41t-43 -60t-24.5 -73l-46 -259h-65l87 490h60z" />
    <glyph glyph-name="theta" unicode="&#x3b8;" horiz-adv-x="648" 
d="M258 -16q-51 0 -92 21t-69.5 59t-43.5 91t-15 117q0 81 23 158t66 137t104.5 96.5t138.5 36.5q51 0 92 -21t69.5 -58.5t44 -91t15.5 -117.5q0 -81 -23 -158t-66 -137t-105 -96.5t-139 -36.5zM266 45q51 0 94 24t75.5 63.5t54 92t30.5 109.5h-414q-3 -26 -3 -51
q0 -54 11.5 -98t32.5 -75t51 -48t68 -17zM362 639q-47 0 -87 -20.5t-72 -55t-54.5 -80.5t-34.5 -97h411v16q0 54 -11.5 98t-32.5 74.5t-51 47.5t-68 17z" />
    <glyph glyph-name="iota" unicode="&#x3b9;" horiz-adv-x="195" 
d="M2 0l86 490h64l-86 -490h-64z" />
    <glyph glyph-name="kappa" unicode="&#x3ba;" horiz-adv-x="443" 
d="M147 490l-40 -224h4l263 224h85l-1 -4l-275 -231l198 -251l-1 -4h-77l-195 249h-4l-44 -249h-64l87 490h64z" />
    <glyph glyph-name="lambda" unicode="&#x3bb;" horiz-adv-x="478" 
d="M230 706l183 -706h-66l-94 377h-2l-231 -377h-74l286 455l-68 251h66z" />
    <glyph glyph-name="nu" unicode="&#x3bd;" horiz-adv-x="481" 
d="M28 490h67l91 -418h2l242 418h70l-289 -490h-70z" />
    <glyph glyph-name="xi" unicode="&#x3be;" horiz-adv-x="506" 
d="M320 732q66 0 113 -27t75 -76l-55 -36q-23 40 -56.5 59.5t-83.5 19.5q-32 0 -62.5 -10t-53.5 -29t-37 -45t-14 -58q0 -58 39.5 -91t102.5 -33h78l-10 -59h-104q-40 0 -74.5 -11.5t-60 -32.5t-40.5 -50.5t-15 -64.5q0 -31 11.5 -54.5t31.5 -39.5t47 -24.5t58 -8.5h75
q65 0 95.5 -27.5t30.5 -73.5q0 -29 -11.5 -52.5t-31.5 -40t-47.5 -26t-60.5 -9.5l10 58q30 0 54.5 16t24.5 45q0 23 -14.5 36t-47.5 13h-84q-49 0 -87.5 14t-65 38t-40.5 56t-14 69q0 73 44 126.5t125 79.5v4q-14 7 -28.5 19t-27.5 29t-21 40.5t-8 54.5q0 40 17.5 76.5
t49 64.5t76 44.5t97.5 16.5z" />
    <glyph glyph-name="omicron" unicode="&#x3bf;" horiz-adv-x="554" 
d="M295 506q48 0 88 -17.5t69.5 -48.5t46 -73t16.5 -90q0 -59 -21 -112t-59 -93.5t-91 -64t-117 -23.5q-48 0 -88 17.5t-69.5 48.5t-46 73t-16.5 91q0 59 21 112t59 93t91 63.5t117 23.5zM234 42q48 0 88 19t68.5 51.5t44 74t15.5 86.5q0 38 -13 70t-35 55.5t-51.5 36.5
t-62.5 13q-48 0 -88 -19t-68.5 -51t-44 -73.5t-15.5 -86.5q0 -38 13 -70t35 -55.5t51.5 -37t62.5 -13.5z" />
    <glyph glyph-name="pi" unicode="&#x3c0;" horiz-adv-x="677" 
d="M521 -8q-44 0 -74 25t-30 76q0 9 1 19.5t4 27.5l51 292h-249l-76 -432h-64l76 432h-121l10 58h620l-10 -58h-122l-51 -292q-2 -10 -2.5 -17t-0.5 -15q0 -25 12.5 -41t38.5 -16q14 0 24.5 2.5t22.5 7.5l13 -56q-19 -7 -36 -10t-37 -3z" />
    <glyph glyph-name="rho" unicode="&#x3c1;" horiz-adv-x="569" 
d="M255 -16q-32 0 -59 8.5t-48.5 23t-36.5 33.5t-23 39h-4l-8 -68l-42 -236h-63l82 468q9 55 32.5 101.5t59.5 80.5t84 53t105 19q45 0 82.5 -15.5t64 -44t41.5 -70.5t15 -94q0 -57 -20.5 -110.5t-58 -95.5t-89.5 -67t-114 -25zM261 42q47 0 86 20.5t66.5 53.5t43 75
t15.5 86q0 83 -41.5 126.5t-107.5 43.5q-47 0 -86 -20.5t-67 -54t-44 -77.5t-16 -91q0 -38 11.5 -68t31.5 -51t48 -32t60 -11z" />
    <glyph glyph-name="uni03C2" unicode="&#x3c2;" horiz-adv-x="512" 
d="M245 -16q-54 0 -98 16t-75 45t-48 71t-17 93q0 61 21.5 115t60 94.5t91.5 64t116 23.5q41 0 73 -11t55.5 -29.5t39.5 -44t25 -54.5l-61 -25q-17 51 -49.5 78.5t-89.5 27.5q-47 0 -86.5 -18.5t-68.5 -51t-45.5 -75t-16.5 -90.5q0 -76 46 -123.5t133 -47.5h36q59 0 92 -26
t33 -73q0 -58 -42.5 -92t-108.5 -35l10 58q32 0 55.5 16t23.5 47q0 20 -15 33.5t-50 13.5h-40z" />
    <glyph glyph-name="sigma" unicode="&#x3c3;" horiz-adv-x="582" 
d="M217 -16q-45 0 -84 15.5t-67 44t-44 68.5t-16 89q0 55 19 107t55 92.5t89 65t122 24.5h303l-10 -58h-81l-78 4l-1 -4q29 -23 50 -63t21 -100q0 -59 -21 -111t-58 -90.5t-88 -61t-111 -22.5zM226 42q45 0 82.5 18t64.5 48t42 69.5t15 83.5q0 40 -11.5 71.5t-31 53.5
t-46.5 34t-57 12q-48 0 -87.5 -19t-67 -50.5t-43 -72.5t-15.5 -85q0 -38 12 -68.5t32.5 -51.5t49 -32t61.5 -11z" />
    <glyph glyph-name="tau" unicode="&#x3c4;" horiz-adv-x="441" 
d="M49 490h390l-11 -58h-163l-76 -432h-64l76 432h-163z" />
    <glyph glyph-name="upsilon" unicode="&#x3c5;" horiz-adv-x="529" 
d="M209 -16q-41 0 -74 13.5t-56.5 38.5t-36.5 60t-13 78q0 23 6 61l45 255h64l-47 -262q-4 -23 -4 -48q0 -69 35.5 -103.5t89.5 -34.5q50 0 88 20t63.5 53.5t38.5 78t13 93.5q0 58 -10.5 106.5t-30.5 96.5h69q15 -38 26 -86t11 -110t-17.5 -118.5t-52 -99t-86.5 -67.5
t-121 -25z" />
    <glyph glyph-name="phi" unicode="&#x3c6;" horiz-adv-x="710" 
d="M233 -216l36 202q-51 4 -94 22.5t-73.5 48.5t-47.5 69.5t-17 86.5q0 52 17.5 97t48.5 82t73.5 65.5t93.5 48.5l19 -57q-39 -15 -72.5 -37t-59 -50.5t-40 -64.5t-14.5 -79q0 -39 14 -70t38 -53t56 -35t68 -16l55 312q6 32 18.5 59.5t32.5 47.5t48.5 31.5t65.5 11.5
q36 0 66.5 -15.5t52 -44t33.5 -67.5t12 -85q0 -66 -23.5 -120.5t-67 -95t-104.5 -65t-135 -28.5l-36 -201h-64zM343 43q55 4 101.5 22.5t80.5 50t53 76t19 100.5q0 68 -28 111t-77 43q-33 0 -59 -21.5t-34 -67.5z" />
    <glyph glyph-name="chi" unicode="&#x3c7;" horiz-adv-x="447" 
d="M302 0l-106 202l-173 -202h-79l221 252l-126 238h73l98 -191l166 191h79l-215 -242l134 -248h-72z" />
    <glyph glyph-name="psi" unicode="&#x3c8;" horiz-adv-x="675" 
d="M241 -16h-7q-48 0 -87 14t-66.5 39.5t-43 62t-15.5 80.5q0 13 1 27t4 31l45 252h64l-45 -253q-5 -25 -5 -48q0 -74 45 -110.5t114 -36.5h6l80 448h64l-80 -448h7q63 0 108.5 23t74.5 61t43 85.5t14 97.5q0 57 -7.5 99t-24.5 82h68q12 -33 20 -78t8 -103q0 -66 -21 -125
t-60.5 -103.5t-97.5 -70.5t-133 -26h-9l-35 -200h-64z" />
    <glyph glyph-name="omega" unicode="&#x3c9;" horiz-adv-x="765" 
d="M498 -16q-51 0 -89 28.5t-50 85.5q-59 -114 -176 -114q-34 0 -63.5 13t-51 38t-34 61t-12.5 82q0 45 10 87t26.5 81t38 75t44.5 69h74q-25 -32 -48.5 -67.5t-41.5 -74t-28.5 -80t-10.5 -83.5q0 -68 29 -105.5t80 -37.5t94 47t60 142l24 139h62l-24 -139q-4 -21 -5 -35.5
t-1 -30.5q0 -63 29 -93t72 -30q45 0 77.5 23.5t53 60t30 80t9.5 84.5q0 60 -10 107.5t-29 92.5h70q13 -36 23 -84.5t10 -114.5q0 -49 -14 -103t-43 -99.5t-75 -75t-110 -29.5z" />
    <glyph glyph-name="iotadieresis" unicode="&#x3ca;" horiz-adv-x="195" 
d="M80 615q-18 0 -31.5 13t-13.5 31q0 20 13.5 32.5t31.5 12.5q19 0 31.5 -12.5t12.5 -32.5q0 -18 -12.5 -31t-31.5 -13zM204 615q-18 0 -31.5 13t-13.5 31q0 20 13.5 32.5t31.5 12.5q19 0 31.5 -12.5t12.5 -32.5q0 -18 -12.5 -31t-31.5 -13zM2 0l86 490h64l-86 -490h-64z
" />
    <glyph glyph-name="upsilondieresis" unicode="&#x3cb;" horiz-adv-x="529" 
d="M372 615q-18 0 -31.5 13t-13.5 31q0 20 13.5 32.5t31.5 12.5q19 0 31.5 -12.5t12.5 -32.5q0 -18 -12.5 -31t-31.5 -13zM218 615q-18 0 -31.5 13t-13.5 31q0 20 13.5 32.5t31.5 12.5q19 0 31.5 -12.5t12.5 -32.5q0 -18 -12.5 -31t-31.5 -13zM209 -16q-41 0 -74 13.5
t-56.5 38.5t-36.5 60t-13 78q0 23 6 61l45 255h64l-47 -262q-4 -23 -4 -48q0 -69 35.5 -103.5t89.5 -34.5q50 0 88 20t63.5 53.5t38.5 78t13 93.5q0 58 -10.5 106.5t-30.5 96.5h69q15 -38 26 -86t11 -110t-17.5 -118.5t-52 -99t-86.5 -67.5t-121 -25z" />
    <glyph glyph-name="omicrontonos" unicode="&#x3cc;" horiz-adv-x="554" 
d="M284 592l73 124h76l-89 -124h-60zM295 506q48 0 88 -17.5t69.5 -48.5t46 -73t16.5 -90q0 -59 -21 -112t-59 -93.5t-91 -64t-117 -23.5q-48 0 -88 17.5t-69.5 48.5t-46 73t-16.5 91q0 59 21 112t59 93t91 63.5t117 23.5zM234 42q48 0 88 19t68.5 51.5t44 74t15.5 86.5
q0 38 -13 70t-35 55.5t-51.5 36.5t-62.5 13q-48 0 -88 -19t-68.5 -51t-44 -73.5t-15.5 -86.5q0 -38 13 -70t35 -55.5t51.5 -37t62.5 -13.5z" />
    <glyph glyph-name="upsilontonos" unicode="&#x3cd;" horiz-adv-x="529" 
d="M209 -16q-41 0 -74 13.5t-56.5 38.5t-36.5 60t-13 78q0 23 6 61l45 255h64l-47 -262q-4 -23 -4 -48q0 -69 35.5 -103.5t89.5 -34.5q50 0 88 20t63.5 53.5t38.5 78t13 93.5q0 58 -10.5 106.5t-30.5 96.5h69q15 -38 26 -86t11 -110t-17.5 -118.5t-52 -99t-86.5 -67.5
t-121 -25zM256 592l73 124h76l-89 -124h-60z" />
    <glyph glyph-name="omegatonos" unicode="&#x3ce;" horiz-adv-x="765" 
d="M398 592l73 124h76l-89 -124h-60zM498 -16q-51 0 -89 28.5t-50 85.5q-59 -114 -176 -114q-34 0 -63.5 13t-51 38t-34 61t-12.5 82q0 45 10 87t26.5 81t38 75t44.5 69h74q-25 -32 -48.5 -67.5t-41.5 -74t-28.5 -80t-10.5 -83.5q0 -68 29 -105.5t80 -37.5t94 47t60 142
l24 139h62l-24 -139q-4 -21 -5 -35.5t-1 -30.5q0 -63 29 -93t72 -30q45 0 77.5 23.5t53 60t30 80t9.5 84.5q0 60 -10 107.5t-29 92.5h70q13 -36 23 -84.5t10 -114.5q0 -49 -14 -103t-43 -99.5t-75 -75t-110 -29.5z" />
    <glyph glyph-name="uni03D1" unicode="&#x3d1;" horiz-adv-x="617" 
d="M214 -16q-42 0 -76 12.5t-59 36.5t-38.5 58t-13.5 76q0 14 1.5 28.5t3.5 28.5l47 266h64l-47 -265q-5 -28 -5 -50q0 -66 36.5 -99.5t93.5 -33.5q75 0 125 47.5t65 132.5l12 69q-39 6 -74 24.5t-61 49t-41.5 71t-15.5 90.5q0 40 12 77.5t35.5 66t57 45.5t75.5 17
q63 0 95 -34.5t32 -95.5q0 -10 -1 -22t-4 -29l-36 -203h92l-10 -58h-92l-13 -78q-9 -51 -31.5 -93t-56.5 -72t-77.5 -46.5t-94.5 -16.5zM471 564q3 16 3 34q0 33 -17.5 54t-54.5 21q-25 0 -45 -12t-34 -32.5t-21.5 -46.5t-7.5 -53q0 -36 11 -66.5t30 -54t44.5 -38.5
t54.5 -20z" />
    <glyph glyph-name="uni03D2" unicode="&#x3d2;" horiz-adv-x="587" 
d="M586 724q17 0 32.5 -5t26.5 -13l-27 -54q-17 11 -35 11q-19 0 -34 -12.5t-35 -41.5l-198 -299l-55 -310h-64l55 310l-93 299q-9 29 -19 41.5t-29 12.5q-21 0 -38 -11l-18 54q10 5 29 11.5t40 6.5q65 0 89 -79l79 -268h4l171 265q31 49 57.5 65.5t61.5 16.5z" />
    <glyph glyph-name="uni03D3" unicode="&#x3d3;" horiz-adv-x="658" 
d="M657 724q17 0 32.5 -5t26.5 -13l-27 -54q-17 11 -35 11q-19 0 -34 -12.5t-35 -41.5l-198 -299l-55 -310h-64l55 310l-93 299q-9 29 -19 41.5t-29 12.5q-21 0 -38 -11l-18 54q10 5 29 11.5t40 6.5q65 0 89 -79l79 -268h4l171 265q31 49 57.5 65.5t61.5 16.5zM-45 592
l73 124h76l-89 -124h-60z" />
    <glyph glyph-name="uni03D4" unicode="&#x3d4;" horiz-adv-x="587" 
d="M586 724q17 0 32.5 -5t26.5 -13l-27 -54q-17 11 -35 11q-19 0 -34 -12.5t-35 -41.5l-198 -299l-55 -310h-64l55 310l-93 299q-9 29 -19 41.5t-29 12.5q-21 0 -38 -11l-18 54q10 5 29 11.5t40 6.5q65 0 89 -79l79 -268h4l171 265q31 49 57.5 65.5t61.5 16.5zM430 799
q-18 0 -31.5 13t-13.5 31q0 20 13.5 32.5t31.5 12.5q19 0 31.5 -12.5t12.5 -32.5q0 -18 -12.5 -31t-31.5 -13zM276 799q-18 0 -31.5 13t-13.5 31q0 20 13.5 32.5t31.5 12.5q19 0 31.5 -12.5t12.5 -32.5q0 -18 -12.5 -31t-31.5 -13z" />
    <glyph glyph-name="uni03D6" unicode="&#x3d6;" horiz-adv-x="879" 
d="M223 -16q-34 0 -64 12.5t-52 37t-34.5 60.5t-12.5 82q0 70 23.5 132t61.5 124h-89l10 58h794l-10 -58h-91q8 -29 13.5 -65t5.5 -81q0 -50 -14.5 -103t-44.5 -97.5t-75.5 -73t-107.5 -28.5q-51 0 -88.5 29t-50.5 86q-29 -58 -73 -86.5t-101 -28.5zM402 312h62l-15 -81
q-6 -38 -6 -63q0 -65 28.5 -95.5t68.5 -30.5q46 0 79 23t54 59t31 79t10 82q0 41 -6.5 77.5t-17.5 69.5h-473q-38 -56 -65.5 -119.5t-27.5 -133.5q0 -65 29 -101t80 -36t94 46.5t60 142.5z" />
    <glyph glyph-name="uni0400" unicode="&#x400;" horiz-adv-x="537" 
d="M193 655l-47 -267h308l-10 -60h-308l-48 -267h340l-11 -61h-404l127 716h404l-11 -61h-340zM319 776l-46 124h72l29 -124h-55z" />
    <glyph glyph-name="uni0401" unicode="&#x401;" horiz-adv-x="537" 
d="M423 799q-18 0 -31.5 13t-13.5 31q0 20 13.5 32.5t31.5 12.5q19 0 31.5 -12.5t12.5 -32.5q0 -18 -12.5 -31t-31.5 -13zM269 799q-18 0 -31.5 13t-13.5 31q0 20 13.5 32.5t31.5 12.5q19 0 31.5 -12.5t12.5 -32.5q0 -18 -12.5 -31t-31.5 -13zM193 655l-47 -267h308l-10 -60
h-308l-48 -267h340l-11 -61h-404l127 716h404l-11 -61h-340z" />
    <glyph glyph-name="uni0402" unicode="&#x402;" horiz-adv-x="735" 
d="M680 240q0 -46 -17 -89.5t-48.5 -77t-76.5 -53.5t-101 -20h-22l11 60h16q40 0 71.5 14.5t54 38.5t34.5 56.5t12 68.5q0 65 -37.5 103t-104.5 38q-54 0 -105.5 -26t-94.5 -77l-49 -276h-64l116 655h-197l11 61h461l-11 -61h-200l-40 -226l-17 -78h4q35 38 86.5 62.5
t113.5 24.5q41 0 76.5 -13t61.5 -38.5t41 -62t15 -84.5z" />
    <glyph glyph-name="uni0403" unicode="&#x403;" horiz-adv-x="497" 
d="M140 716h394l-11 -61h-330l-116 -655h-64zM300 776l73 124h76l-89 -124h-60z" />
    <glyph glyph-name="uni0404" unicode="&#x404;" horiz-adv-x="723" 
d="M342 -16q-66 0 -122.5 24.5t-98 68.5t-64.5 105t-23 134q0 83 32 158.5t89 132.5t136 91t172 34q83 0 143 -29.5t103 -87.5l-52 -44q-34 50 -83.5 75t-120.5 25q-64 0 -121.5 -21.5t-104 -59t-78.5 -89.5t-45 -113h354l-10 -60h-351v-11q0 -60 19 -110t53 -86t80.5 -56
t101.5 -20q79 0 137.5 28.5t114.5 84.5l39 -44q-60 -63 -131.5 -96.5t-168.5 -33.5z" />
    <glyph glyph-name="uni0405" unicode="&#x405;" horiz-adv-x="542" 
d="M220 -16q-91 0 -149.5 52t-74.5 141l61 25q13 -70 53.5 -113.5t115.5 -43.5q34 0 66.5 11t58 32t41 51t15.5 67q0 50 -35 81.5t-102 56.5l-42 16q-28 10 -54 26t-46 37.5t-32 50t-12 63.5q0 42 18.5 78t50 62t73.5 40.5t89 14.5q51 0 87 -14.5t60 -36t37 -47.5t18 -49
l-62 -23q-5 19 -14 38t-26 35t-42.5 26t-61.5 10q-32 0 -61 -9t-51 -26t-35 -41t-13 -53q0 -50 32.5 -79.5t85.5 -49.5l43 -17q33 -12 62 -29t51.5 -39t35.5 -51t13 -65q0 -50 -19.5 -92t-54 -72t-81 -47t-99.5 -17z" />
    <glyph glyph-name="uni0406" unicode="&#x406;" horiz-adv-x="218" 
d="M140 716h64l-127 -716h-64z" />
    <glyph glyph-name="uni0407" unicode="&#x407;" horiz-adv-x="218" 
d="M262 814q-17 0 -29.5 12.5t-12.5 29.5q0 18 12.5 30t29.5 12q18 0 30 -12t12 -30q0 -17 -12 -29.5t-30 -12.5zM116 814q-17 0 -29.5 12.5t-12.5 29.5q0 18 12.5 30t29.5 12q18 0 30 -12t12 -30q0 -17 -12 -29.5t-30 -12.5zM140 716h64l-127 -716h-64z" />
    <glyph glyph-name="uni0408" unicode="&#x408;" horiz-adv-x="514" 
d="M179 -16q-75 0 -126.5 43.5t-62.5 123.5l61 23q10 -71 47 -100t89 -29q69 0 114.5 45t59.5 123l89 503h64l-89 -502q-20 -114 -86.5 -172t-159.5 -58z" />
    <glyph glyph-name="uni0409" unicode="&#x409;" horiz-adv-x="1056" 
d="M5 53q21 0 38.5 7t31.5 19q25 23 38.5 62.5t25.5 109.5l82 465h464l-56 -315h180q42 0 76.5 -12t59.5 -35t39 -56t14 -75q0 -50 -18.5 -91t-52 -70t-80 -45.5t-102.5 -16.5h-250l115 655h-336l-75 -427q-14 -78 -36 -125t-53 -73q-25 -21 -52.5 -29.5t-62.5 -8.5
q-7 0 -16 0.5t-17 2.5l12 63q6 -2 14.5 -3.5t16.5 -1.5zM759 61q38 0 69.5 11.5t54.5 32.5t36 49.5t13 61.5q0 61 -37 92.5t-94 31.5h-183l-49 -279h190z" />
    <glyph glyph-name="uni040A" unicode="&#x40a;" horiz-adv-x="1000" 
d="M13 0l127 716h64l-56 -315h360l56 315h64l-56 -315h180q42 0 76.5 -12t60 -35t39.5 -56t14 -75q0 -50 -18.5 -91t-52 -70t-80 -45.5t-102.5 -16.5h-251l60 340h-360l-61 -340h-64zM702 61q38 0 70 11.5t55 32.5t35.5 49.5t12.5 61.5q0 61 -36.5 92.5t-93.5 31.5h-183
l-49 -279h189z" />
    <glyph glyph-name="uni040B" unicode="&#x40b;" horiz-adv-x="735" 
d="M223 0h-64l116 655h-197l11 61h461l-11 -61h-200l-40 -226l-17 -78h4q37 39 87.5 63t110.5 24q81 0 128 -45.5t47 -124.5q0 -11 -1.5 -23.5t-3.5 -26.5l-39 -218h-65l39 217q3 21 3 40q0 51 -31 86.5t-97 35.5q-54 0 -103.5 -28t-88.5 -75z" />
    <glyph glyph-name="uni040C" unicode="&#x40c;" horiz-adv-x="581" 
d="M631 712l-411 -367l292 -341l-1 -4h-83l-286 339h-4l-61 -339h-64l127 716h64l-64 -360h4l401 360h87zM329 776l73 124h76l-89 -124h-60z" />
    <glyph glyph-name="uni040D" unicode="&#x40d;" horiz-adv-x="683" 
d="M542 0h-64l88 493l28 138h-4l-508 -631h-69l127 716h64l-82 -466l-29 -138h4l487 604h85zM376 776l-46 124h72l29 -124h-55z" />
    <glyph glyph-name="uni040E" unicode="&#x40e;" horiz-adv-x="579" 
d="M242 92q-32 -51 -69.5 -79.5t-86.5 -28.5q-26 0 -44 5t-31 11l27 59q9 -6 21.5 -10t29.5 -4q30 0 51 16t44 51l40 63l-147 541h69l121 -465h4l283 465h76zM353 776q-21 0 -40 7.5t-34 20.5t-23.5 31.5t-8.5 40.5q0 5 0.5 10t1.5 10h55q-1 -5 -1 -7v-6q0 -23 14 -39.5
t43 -16.5q32 0 53.5 20t26.5 49h53q-9 -60 -46.5 -90t-93.5 -30z" />
    <glyph glyph-name="uni040F" unicode="&#x40f;" horiz-adv-x="658" 
d="M221 -152l26 152h-220l126 716h64l-115 -655h376l115 655h64l-126 -716h-221l-26 -152h-63z" />
    <glyph glyph-name="uni0410" unicode="&#x410;" horiz-adv-x="653" 
d="M353 716h74l150 -716h-67l-41 207h-332l-115 -207h-73zM456 267l-76 371h-4l-206 -371h286z" />
    <glyph glyph-name="uni0411" unicode="&#x411;" horiz-adv-x="587" 
d="M344 401q40 0 74 -12.5t58.5 -35.5t38 -55.5t13.5 -72.5q0 -49 -18.5 -90.5t-51.5 -71.5t-78 -46.5t-98 -16.5h-269l127 716h399l-11 -61h-335l-45 -254h196zM295 61q35 0 65.5 12t53 33.5t35.5 50.5t13 62q0 55 -34.5 88t-92.5 33h-197l-50 -279h207z" />
    <glyph glyph-name="uni0412" unicode="&#x412;" horiz-adv-x="587" 
d="M140 716h243q42 0 75 -13.5t56 -36.5t35.5 -53.5t12.5 -65.5q0 -33 -11 -61.5t-29.5 -51t-42.5 -38.5t-49 -25l-1 -4q43 -20 71 -57.5t28 -94.5q0 -44 -19 -83.5t-52 -68.5t-78.5 -46t-99.5 -17h-266zM335 396q32 0 61 10.5t51.5 29t35.5 44.5t13 57q0 52 -31 85t-88 33
h-184l-46 -259h188zM292 61q33 0 64 11t54.5 31.5t37.5 48t14 60.5q0 56 -36 90t-97 34h-192l-49 -275h204z" />
    <glyph glyph-name="uni0413" unicode="&#x413;" horiz-adv-x="491" 
d="M140 716h388l-11 -61h-324l-116 -655h-64z" />
    <glyph glyph-name="uni0414" unicode="&#x414;" horiz-adv-x="753" 
d="M-34 -152l37 213h53q34 25 62.5 67t51 94t39 110.5t26.5 116.5l47 267h440l-115 -655h64l-38 -213h-61l27 152h-546l-26 -152h-61zM294 427q-45 -252 -156 -366h405l105 594h-313z" />
    <glyph glyph-name="uni0415" unicode="&#x415;" horiz-adv-x="537" 
d="M193 655l-47 -267h308l-10 -60h-308l-48 -267h340l-11 -61h-404l127 716h404l-11 -61h-340z" />
    <glyph glyph-name="uni0416" unicode="&#x416;" horiz-adv-x="849" 
d="M393 0h-64l59 335h-4l-360 -335h-84l1 4l376 353l-242 355l1 4h74l238 -356h4l64 356h64l-64 -356h4l363 356h80l-1 -4l-373 -366l251 -342l-1 -4h-77l-246 335h-4z" />
    <glyph glyph-name="uni0417" unicode="&#x417;" horiz-adv-x="538" 
d="M216 -16q-33 0 -68 11.5t-65 34t-51.5 55t-28.5 75.5l63 25q11 -65 53 -102.5t104 -37.5q37 0 70 12.5t57.5 34t39 52t14.5 66.5q0 29 -11 53.5t-30.5 42.5t-46 28.5t-57.5 10.5h-58l10 60h56q34 0 65.5 11t55.5 30.5t38.5 47.5t14.5 62q0 24 -9.5 45t-26.5 36.5
t-41 24.5t-53 9q-32 0 -58 -9.5t-46.5 -25.5t-34.5 -35.5t-22 -40.5l-55 25q11 27 31 53.5t48 47.5t64.5 33.5t80.5 12.5q42 0 77 -13.5t59.5 -36.5t38 -53.5t13.5 -64.5q0 -69 -38.5 -116t-98.5 -70l-1 -4q19 -9 37.5 -23.5t32.5 -35t22.5 -45.5t8.5 -54q0 -50 -19.5 -92.5
t-54 -73.5t-80.5 -48.5t-100 -17.5z" />
    <glyph glyph-name="uni0418" unicode="&#x418;" horiz-adv-x="683" 
d="M542 0h-64l88 493l28 138h-4l-508 -631h-69l127 716h64l-82 -466l-29 -138h4l487 604h85z" />
    <glyph glyph-name="uni0419" unicode="&#x419;" horiz-adv-x="683" 
d="M542 0h-64l88 493l28 138h-4l-508 -631h-69l127 716h64l-82 -466l-29 -138h4l487 604h85zM405 776q-21 0 -40 7.5t-34 20.5t-23.5 31.5t-8.5 40.5q0 5 0.5 10t1.5 10h55q-1 -5 -1 -7v-6q0 -23 14 -39.5t43 -16.5q32 0 53.5 20t26.5 49h53q-9 -60 -46.5 -90t-93.5 -30z
" />
    <glyph glyph-name="uni041A" unicode="&#x41a;" horiz-adv-x="581" 
d="M631 712l-411 -367l292 -341l-1 -4h-83l-286 339h-4l-61 -339h-64l127 716h64l-64 -360h4l401 360h87z" />
    <glyph glyph-name="uni041B" unicode="&#x41b;" horiz-adv-x="699" 
d="M5 53q21 0 38.5 7t31.5 19q25 23 38.5 62.5t25.5 109.5l82 465h464l-126 -716h-64l115 655h-336l-75 -427q-14 -78 -36 -125t-53 -73q-25 -21 -52.5 -29.5t-62.5 -8.5q-7 0 -16 0.5t-17 2.5l12 63q6 -2 14.5 -3.5t16.5 -1.5z" />
    <glyph glyph-name="uni041C" unicode="&#x41c;" horiz-adv-x="837" 
d="M140 716h61l186 -473h4l353 473h67l-127 -716h-63l84 477l26 120h-4l-332 -445h-37l-176 445h-4l-18 -120l-84 -477h-63z" />
    <glyph glyph-name="uni041D" unicode="&#x41d;" horiz-adv-x="682" 
d="M140 716h64l-57 -320h400l57 320h64l-127 -716h-64l60 336h-400l-60 -336h-64z" />
    <glyph glyph-name="uni041E" unicode="&#x41e;" horiz-adv-x="813" 
d="M356 -16q-69 0 -128 24.5t-102 68t-67.5 104.5t-24.5 133q0 84 31.5 160t87 133t132.5 91t169 34q69 0 128 -24.5t102 -68t67.5 -104t24.5 -132.5q0 -84 -31.5 -160t-87.5 -133.5t-133 -91.5t-168 -34zM363 45q73 0 136.5 29.5t110.5 78.5t74 113t27 133q0 61 -20 111.5
t-55.5 86t-84 55t-105.5 19.5q-73 0 -136.5 -29.5t-110 -79t-73.5 -113t-27 -132.5q0 -62 20 -112t55.5 -85.5t84 -55t104.5 -19.5z" />
    <glyph glyph-name="uni041F" unicode="&#x41f;" horiz-adv-x="658" 
d="M140 716h504l-127 -716h-64l116 655h-376l-116 -655h-64z" />
    <glyph glyph-name="uni0420" unicode="&#x420;" horiz-adv-x="557" 
d="M13 0l127 716h227q43 0 78.5 -13t61 -37t39.5 -58t14 -75q0 -54 -19.5 -97t-54.5 -74t-83 -47.5t-105 -16.5h-168l-53 -298h-64zM309 359q40 0 74 11.5t58.5 33t38.5 52.5t14 71q0 31 -10.5 55t-28.5 40t-42 24.5t-51 8.5h-169l-52 -296h168z" />
    <glyph glyph-name="uni0421" unicode="&#x421;" horiz-adv-x="725" 
d="M644 113q-31 -31 -63 -55t-68.5 -40.5t-78.5 -25t-91 -8.5q-66 0 -122.5 23t-98 65t-65 101.5t-23.5 133.5q0 84 33 161t90.5 135.5t135.5 93.5t169 35q87 0 148.5 -33t97.5 -87l-53 -41q-66 100 -201 100q-74 0 -139 -30t-113 -80.5t-75.5 -116t-27.5 -135.5
q0 -60 19.5 -109t53 -83.5t79 -53t96.5 -18.5q83 0 143.5 31t113.5 84z" />
    <glyph glyph-name="uni0422" unicode="&#x422;" horiz-adv-x="524" 
d="M165 0l116 655h-203l11 61h470l-11 -61h-203l-116 -655h-64z" />
    <glyph glyph-name="uni0423" unicode="&#x423;" horiz-adv-x="579" 
d="M242 92q-32 -51 -69.5 -79.5t-86.5 -28.5q-26 0 -44 5t-31 11l27 59q9 -6 21.5 -10t29.5 -4q30 0 51 16t44 51l40 63l-147 541h69l121 -465h4l283 465h76z" />
    <glyph glyph-name="uni0424" unicode="&#x424;" horiz-adv-x="793" 
d="M293 -48l18 105q-63 4 -114 25.5t-87 57t-56 83t-20 104.5q0 76 31.5 136.5t84.5 103t122 66t145 26.5l19 105h64l-19 -105q63 -5 114.5 -26t87.5 -56.5t55.5 -83t19.5 -104.5q0 -77 -31 -137t-84 -102.5t-122.5 -66t-145.5 -26.5l-18 -105h-64zM100 332q0 -94 59 -150.5
t163 -64.5l85 482q-59 -3 -114.5 -22t-98 -53t-68.5 -82.5t-26 -109.5zM692 382q0 95 -58.5 152t-162.5 65l-85 -482q59 3 114.5 22t98 53t68 82t25.5 108z" />
    <glyph glyph-name="uni0425" unicode="&#x425;" horiz-adv-x="612" 
d="M267 374l-173 342h76l143 -292h4l247 292h81l-296 -347l186 -369h-76l-157 316h-4l-266 -316h-78z" />
    <glyph glyph-name="uni0426" unicode="&#x426;" horiz-adv-x="667" 
d="M482 -168l29 168h-483l126 716h64l-115 -655h352l115 655h64l-115 -655h67l-40 -229h-64z" />
    <glyph glyph-name="uni0427" unicode="&#x427;" horiz-adv-x="578" 
d="M522 716h64l-127 -716h-64l61 344q-39 -36 -87 -60t-119 -24q-39 0 -73.5 11.5t-60 34t-40.5 55.5t-15 77q0 14 1.5 27.5t3.5 27.5l40 223h65l-41 -231q-4 -19 -4 -38q0 -62 38 -94t104 -32t115.5 29.5t86.5 72.5z" />
    <glyph glyph-name="uni0428" unicode="&#x428;" horiz-adv-x="892" 
d="M13 0l127 716h64l-116 -655h273l116 655h64l-116 -655h273l116 655h64l-127 -716h-738z" />
    <glyph glyph-name="uni0429" unicode="&#x429;" horiz-adv-x="925" 
d="M725 -168l29 168h-741l127 716h64l-116 -655h273l116 655h64l-116 -655h273l116 655h64l-116 -655h67l-40 -229h-64z" />
    <glyph glyph-name="uni042A" unicode="&#x42a;" horiz-adv-x="725" 
d="M147 0l116 655h-185l11 61h249l-49 -275h174q47 0 85.5 -14t65.5 -39.5t42 -61.5t15 -79q0 -53 -19.5 -98.5t-55 -78.5t-86 -51.5t-112.5 -18.5h-251zM279 380l-57 -319h189q42 0 77.5 13t61 37t40 57t14.5 72q0 62 -39.5 101t-104.5 39h-181z" />
    <glyph glyph-name="uni042B" unicode="&#x42b;" horiz-adv-x="788" 
d="M13 0l127 716h64l-49 -275h174q47 0 85.5 -14t65.5 -39.5t42 -61.5t15 -79q0 -53 -19.5 -98.5t-55 -78.5t-86 -51.5t-112.5 -18.5h-251zM145 380l-57 -319h189q42 0 77.5 13t61 37t40 57t14.5 72q0 62 -39.5 101t-104.5 39h-181zM710 716h64l-127 -716h-64z" />
    <glyph glyph-name="uni042C" unicode="&#x42c;" horiz-adv-x="591" 
d="M13 0l127 716h64l-49 -275h174q47 0 85.5 -14t65.5 -39.5t42 -61.5t15 -79q0 -53 -19.5 -98.5t-55 -78.5t-86 -51.5t-112.5 -18.5h-251zM145 380l-57 -319h189q42 0 77.5 13t61 37t40 57t14.5 72q0 62 -39.5 101t-104.5 39h-181z" />
    <glyph glyph-name="uni042D" unicode="&#x42d;" horiz-adv-x="723" 
d="M269 -16q-48 0 -89 11.5t-75 30.5t-60.5 43.5t-45.5 50.5l51 42q37 -51 92 -84t134 -33q66 0 123.5 23t102.5 62t75.5 90t41.5 108h-355l10 60h352q0 67 -19 119.5t-52.5 89t-80 55.5t-101.5 19q-67 0 -124 -26.5t-103 -74.5l-45 45q56 56 124 86.5t156 30.5
q69 0 126 -24t97.5 -68t62.5 -106t22 -137q0 -81 -31 -155.5t-87 -132t-133 -91.5t-169 -34z" />
    <glyph glyph-name="uni042E" unicode="&#x42e;" horiz-adv-x="1069" 
d="M617 -16q-69 0 -128 24.5t-102 68.5t-67.5 104.5t-24.5 132.5v22h-158l-60 -336h-64l127 716h64l-57 -320h156q14 70 50 131.5t90 107t123 71.5t149 26q69 0 128 -24.5t102 -68.5t67.5 -104t24.5 -132q0 -84 -31.5 -160t-87.5 -133.5t-133 -91.5t-168 -34zM624 45
q73 0 136.5 29.5t110.5 78.5t74 113t27 133q0 61 -20 111.5t-55.5 86t-84 55t-105.5 19.5q-73 0 -136.5 -29.5t-110 -79t-73.5 -113t-27 -132.5q0 -62 20 -112t55.5 -85.5t84 -55t104.5 -19.5z" />
    <glyph glyph-name="uni042F" unicode="&#x42f;" horiz-adv-x="593" 
d="M452 0h-64l53 298h-137l-255 -298h-77l1 4l256 298l-1 3q-28 7 -54 23t-45.5 39.5t-31.5 54t-12 66.5q0 46 19.5 87t53.5 72.5t81 50t103 18.5h237zM452 358l52 297h-171q-38 0 -71.5 -12.5t-58.5 -34.5t-39 -51.5t-14 -62.5q0 -31 11 -56t30.5 -43t46 -27.5t56.5 -9.5
h158z" />
    <glyph glyph-name="uni0430" unicode="&#x430;" horiz-adv-x="506" 
d="M276 506q88 0 136.5 -44.5t48.5 -119.5q0 -11 -1.5 -22.5t-3.5 -24.5l-52 -295h-62l14 85h-4q-30 -45 -78 -73t-108 -28q-36 0 -66 11t-51.5 31t-33.5 47.5t-12 60.5q0 42 18 75t49.5 56t74 35t91.5 12q46 0 85.5 -11t68.5 -27l6 31q1 7 1.5 14.5t0.5 14.5q0 54 -35 84.5
t-94 30.5q-44 0 -82.5 -19t-65.5 -57l-50 35q33 48 87 73t118 25zM179 41q36 0 69.5 14t60.5 38.5t46 56.5t25 68q-17 11 -53 26t-97 15q-31 0 -60 -7.5t-51.5 -22.5t-36 -38t-13.5 -54q0 -23 9 -41t24 -30t35 -18.5t42 -6.5z" />
    <glyph glyph-name="uni0431" unicode="&#x431;" horiz-adv-x="583" 
d="M409 634q-63 0 -103.5 -17t-72.5 -43q-35 -30 -62 -74.5t-41 -101.5h4q32 49 83 78.5t117 29.5q45 0 82.5 -16t64.5 -45t42 -71t15 -93q0 -56 -19.5 -109.5t-56.5 -95t-90 -67t-119 -25.5q-46 0 -84.5 18t-67 51t-44.5 81t-16 108q0 50 9 102t27.5 101.5t47.5 93.5t70 77
q43 35 98 55.5t124 20.5q30 0 49 2.5t31 7.5t18.5 12.5t11.5 18.5h64q-10 -29 -24 -48.5t-35.5 -30.5t-51.5 -15.5t-71 -4.5zM321 448q-45 0 -84.5 -18.5t-68.5 -50t-46 -73.5t-17 -88q0 -39 12 -71t33 -55.5t50 -36.5t64 -13q47 0 85.5 20.5t66 53.5t42.5 74.5t15 83.5
q0 85 -42.5 129.5t-109.5 44.5z" />
    <glyph glyph-name="uni0432" unicode="&#x432;" horiz-adv-x="483" 
d="M356 249q27 -14 46 -37.5t19 -58.5q0 -33 -14 -61.5t-38 -48.5t-56 -31.5t-68 -11.5h-249l87 490h219q32 0 58 -9t44 -25t28 -37t10 -45q0 -48 -26 -78t-59 -43zM100 223l-29 -165h180q44 0 74.5 24.5t30.5 69.5q0 32 -22 51.5t-56 19.5h-178zM137 432l-28 -156h171
q40 0 68 23.5t28 60.5q0 32 -22.5 52t-58.5 20h-158z" />
    <glyph glyph-name="uni0433" unicode="&#x433;" horiz-adv-x="400" 
d="M83 490h315l-11 -58h-251l-76 -432h-64z" />
    <glyph glyph-name="uni0434" unicode="&#x434;" horiz-adv-x="610" 
d="M-42 -152l36 210h51q15 11 30 33t28 51.5t23.5 64.5t16.5 72l37 211h377l-76 -432h64l-37 -210h-62l27 152h-427l-26 -152h-62zM204 268q-13 -76 -33.5 -124t-49.5 -86h296l66 374h-250z" />
    <glyph glyph-name="uni0435" unicode="&#x435;" horiz-adv-x="528" 
d="M448 116q-37 -60 -93.5 -96t-133.5 -36q-48 0 -88 16.5t-68 46.5t-43.5 71t-15.5 90q0 55 19.5 108.5t55.5 95.5t87.5 68t115.5 26q50 0 88 -15.5t63.5 -42.5t38 -64t12.5 -80q0 -19 -2 -37.5t-7 -32.5h-403q-2 -9 -2 -17v-18q0 -38 13 -67t34.5 -49t49 -30.5t56.5 -10.5
q61 0 103 29t71 74zM421 288q0 4 1 11v11q0 24 -8 49t-25 44.5t-44 32t-66 12.5q-32 0 -63 -11t-56.5 -31.5t-45 -50.5t-29.5 -67h336z" />
    <glyph glyph-name="uni0436" unicode="&#x436;" horiz-adv-x="665" 
d="M237 0l44 247h-4l-263 -247h-81l1 4l279 259l-177 223l1 4h74l170 -220h4l39 220h63l-39 -220h4l246 220h83l-1 -4l-261 -231l182 -251l-1 -4h-74l-178 247h-4l-44 -247h-63z" />
    <glyph glyph-name="uni0437" unicode="&#x437;" horiz-adv-x="470" 
d="M257 506q35 0 65 -10t52 -27.5t34.5 -41.5t12.5 -52q0 -46 -29 -78t-69 -45v-4q34 -15 53.5 -42t19.5 -67q0 -38 -18 -66.5t-48 -48.5t-69 -30t-82 -10q-60 0 -108.5 25t-77.5 66l53 40q23 -35 59.5 -53.5t81.5 -18.5q24 0 49.5 5.5t46.5 17.5t34.5 31.5t13.5 47.5
q0 30 -25 54.5t-81 24.5h-67l9 53h64q25 0 47.5 6t39.5 17t27 28t10 39q0 32 -28.5 56.5t-76.5 24.5q-38 0 -70.5 -14.5t-63.5 -49.5l-45 39q40 43 86 63t100 20z" />
    <glyph glyph-name="uni0438" unicode="&#x438;" horiz-adv-x="539" 
d="M417 0h-64l52 298l21 96h-4l-358 -394h-67l87 490h64l-53 -298l-21 -96h4l358 394h68z" />
    <glyph glyph-name="uni0439" unicode="&#x439;" horiz-adv-x="539" 
d="M417 0h-64l52 298l21 96h-4l-358 -394h-67l87 490h64l-53 -298l-21 -96h4l358 394h68zM316 577q-21 0 -40 7.5t-34 20.5t-23.5 31.5t-8.5 40.5q0 5 0.5 10t1.5 10h55q-1 -5 -1 -7v-6q0 -23 14 -39.5t43 -16.5q32 0 53.5 20t26.5 49h53q-9 -60 -46.5 -90t-93.5 -30z" />
    <glyph glyph-name="uni043A" unicode="&#x43a;" horiz-adv-x="443" 
d="M147 490l-40 -224h4l263 224h85l-1 -4l-275 -231l198 -251l-1 -4h-77l-195 249h-4l-44 -249h-64l87 490h64z" />
    <glyph glyph-name="uni043B" unicode="&#x43b;" horiz-adv-x="590" 
d="M25 -8q-14 0 -24.5 2t-18.5 6l11 59q9 -4 16 -5.5t16 -1.5q34 0 51.5 34.5t29.5 103.5l53 300h395l-86 -490h-64l76 432h-268l-44 -247q-10 -55 -24.5 -92t-33 -59.5t-40 -32t-45.5 -9.5z" />
    <glyph glyph-name="uni043C" unicode="&#x43c;" horiz-adv-x="650" 
d="M468 0l53 300l21 96h-4l-237 -332h-53l-121 332h-4l-13 -96l-53 -300h-64l87 490h77l126 -352h3l250 352h83l-87 -490h-64z" />
    <glyph glyph-name="uni043D" unicode="&#x43d;" horiz-adv-x="539" 
d="M352 0l39 222h-292l-39 -222h-64l87 490h64l-37 -209h292l37 209h64l-87 -490h-64z" />
    <glyph glyph-name="uni043E" unicode="&#x43e;" horiz-adv-x="554" 
d="M295 506q48 0 88 -17.5t69.5 -48.5t46 -73t16.5 -90q0 -59 -21 -112t-59 -93.5t-91 -64t-117 -23.5q-48 0 -88 17.5t-69.5 48.5t-46 73t-16.5 91q0 59 21 112t59 93t91 63.5t117 23.5zM234 42q48 0 88 19t68.5 51.5t44 74t15.5 86.5q0 38 -13 70t-35 55.5t-51.5 36.5
t-62.5 13q-48 0 -88 -19t-68.5 -51t-44 -73.5t-15.5 -86.5q0 -38 13 -70t35 -55.5t51.5 -37t62.5 -13.5z" />
    <glyph glyph-name="uni043F" unicode="&#x43f;" horiz-adv-x="519" 
d="M83 490h400l-87 -490h-64l76 432h-271l-77 -432h-64z" />
    <glyph glyph-name="uni0440" unicode="&#x440;" horiz-adv-x="565" 
d="M334 506q45 0 82 -15.5t63.5 -44t41.5 -70.5t15 -94q0 -58 -20.5 -111.5t-58 -95t-89.5 -66.5t-114 -25q-61 0 -104 31t-62 73h-4l-8 -68l-43 -236h-64l125 706h60l-14 -83h4q27 40 75 69.5t115 29.5zM259 42q48 0 87 20t66.5 53t43 75t15.5 87q0 83 -41.5 127t-110.5 44
q-46 0 -84.5 -20.5t-66.5 -54t-43.5 -77.5t-15.5 -90q0 -39 11.5 -69.5t32 -51.5t47.5 -32t59 -11z" />
    <glyph glyph-name="uni0441" unicode="&#x441;" horiz-adv-x="513" 
d="M216 -16q-47 0 -85 17.5t-66 48t-43 71.5t-15 88q0 61 21.5 115t60 94.5t91.5 64t116 23.5q41 0 73 -11t55.5 -29.5t39.5 -44t25 -54.5l-61 -25q-17 51 -49.5 78.5t-89.5 27.5q-47 0 -86.5 -18.5t-68.5 -51t-45.5 -75t-16.5 -90.5q0 -37 11 -68t31 -54t48 -36t62 -13
q54 0 97.5 27.5t73.5 78.5l52 -24q-41 -71 -95 -105.5t-136 -34.5z" />
    <glyph glyph-name="uni0442" unicode="&#x442;" horiz-adv-x="418" 
d="M49 490h390l-11 -58h-163l-76 -432h-64l76 432h-163z" />
    <glyph glyph-name="uni0443" unicode="&#x443;" horiz-adv-x="478" 
d="M11 -216l159 254l-125 452h68l101 -378h2l226 378h72l-434 -706h-69z" />
    <glyph glyph-name="uni0444" unicode="&#x444;" horiz-adv-x="733" 
d="M697 276q0 -69 -27.5 -122.5t-74.5 -90t-110 -56.5t-134 -23l-35 -200h-64l36 201q-58 4 -105 22t-80 47.5t-51 70t-18 89.5q0 70 28 123.5t75 90t110 56t132 22.5l38 210h64l-38 -211q57 -4 104 -21t80 -46.5t51.5 -70t18.5 -91.5zM634 266q0 42 -14.5 74t-40.5 54.5
t-63 35t-83 15.5l-71 -400q53 3 102.5 18t87 42t60 67t22.5 94zM97 221q0 -41 15 -72.5t41.5 -53.5t63.5 -34.5t81 -15.5l71 400q-53 -3 -102 -18.5t-87 -43t-60.5 -68t-22.5 -94.5z" />
    <glyph glyph-name="uni0445" unicode="&#x445;" horiz-adv-x="447" 
d="M302 0l-106 202l-173 -202h-79l221 252l-126 238h73l98 -191l166 191h79l-215 -242l134 -248h-72z" />
    <glyph glyph-name="uni0446" unicode="&#x446;" horiz-adv-x="553" 
d="M372 -152l27 152h-403l87 490h64l-77 -432h272l77 432h64l-77 -432h64l-36 -210h-62z" />
    <glyph glyph-name="uni0447" unicode="&#x447;" horiz-adv-x="492" 
d="M214 216q48 0 85 15.5t63 44.5l39 214h64l-87 -490h-64l36 205q-58 -47 -153 -47q-36 0 -65.5 11.5t-50 32t-31.5 49t-11 62.5q0 9 1 20t4 30l23 127h65l-25 -139q-2 -8 -3 -17t-1 -17q0 -52 32.5 -76.5t78.5 -24.5z" />
    <glyph glyph-name="uni0448" unicode="&#x448;" horiz-adv-x="751" 
d="M-4 0l87 490h64l-76 -432h209l76 432h64l-76 -432h209l76 432h64l-87 -490h-610z" />
    <glyph glyph-name="uni0449" unicode="&#x449;" horiz-adv-x="785" 
d="M582 -152l27 152h-613l87 490h64l-76 -432h209l76 432h64l-76 -432h209l76 432h64l-76 -432h64l-37 -210h-62z" />
    <glyph glyph-name="uni044A" unicode="&#x44a;" horiz-adv-x="565" 
d="M53 490h176l-32 -177h158q34 0 62.5 -10.5t49 -29.5t32 -45.5t11.5 -57.5q0 -37 -13.5 -68.5t-38 -54t-60 -35t-79.5 -12.5h-241l76 432h-112zM327 58q52 0 84.5 28.5t32.5 79.5q0 39 -26.5 64t-68.5 25h-162l-35 -197h175z" />
    <glyph glyph-name="uni044B" unicode="&#x44b;" horiz-adv-x="676" 
d="M489 0l87 490h64l-87 -490h-64zM-4 0l87 490h65l-32 -177h158q34 0 62.5 -10.5t49 -29.5t32 -45.5t11.5 -57.5q0 -37 -13.5 -68.5t-38 -54t-60 -35t-79.5 -12.5h-242zM246 58q52 0 84.5 28.5t32.5 79.5q0 39 -26.5 64t-68.5 25h-162l-35 -197h175z" />
    <glyph glyph-name="uni044C" unicode="&#x44c;" horiz-adv-x="487" 
d="M-4 0l87 490h65l-32 -177h158q34 0 62.5 -10.5t49 -29.5t32 -45.5t11.5 -57.5q0 -37 -13.5 -68.5t-38 -54t-60 -35t-79.5 -12.5h-242zM246 58q52 0 84.5 28.5t32.5 79.5q0 39 -26.5 64t-68.5 25h-162l-35 -197h175z" />
    <glyph glyph-name="uni044D" unicode="&#x44d;" horiz-adv-x="510" 
d="M188 -16q-39 0 -72 11t-59.5 30t-44.5 44.5t-27 54.5l58 22q19 -49 54.5 -76.5t97.5 -27.5q41 0 75 14t59.5 38t43 56t25.5 68h-233l10 54h229q0 42 -12 75t-33 55.5t-49 34t-59 11.5q-58 0 -99.5 -29t-68.5 -78l-54 27q32 63 88.5 100.5t136.5 37.5q47 0 86 -16.5
t67 -46t43.5 -71.5t15.5 -93q0 -59 -19.5 -112.5t-56 -94t-88 -64.5t-114.5 -24z" />
    <glyph glyph-name="uni044E" unicode="&#x44e;" horiz-adv-x="755" 
d="M5 0l86 490h64l-38 -218h97q9 49 33.5 91.5t61 74t84 50t103.5 18.5q48 0 88 -17.5t69.5 -48.5t46 -73t16.5 -90q0 -59 -21 -112t-59 -93.5t-91 -64t-117 -23.5q-47 0 -86.5 17t-68.5 47t-46.5 70.5t-18.5 87.5v7h-102l-37 -213h-64zM435 42q48 0 88 19t68.5 51.5t44 74
t15.5 86.5q0 38 -13 70t-35 55.5t-51.5 36.5t-62.5 13q-48 0 -88 -19t-68.5 -51t-44 -73.5t-15.5 -86.5q0 -38 13 -70t35 -55.5t51.5 -37t62.5 -13.5z" />
    <glyph glyph-name="uni044F" unicode="&#x44f;" horiz-adv-x="473" 
d="M-60 0l1 5l179 182l-3 3q-18 5 -36 16t-33 28t-24 39t-9 50q0 34 14 64.5t39.5 53t60.5 36t78 13.5h231l-87 -490h-64l33 184h-126l-176 -184h-78zM202 432q-25 0 -47 -8t-38 -22.5t-25.5 -34t-9.5 -42.5q0 -42 29 -63.5t68 -21.5h151l33 192h-161z" />
    <glyph glyph-name="uni0450" unicode="&#x450;" horiz-adv-x="526" 
d="M448 116q-37 -60 -93.5 -96t-133.5 -36q-48 0 -88 16.5t-68 46.5t-43.5 71t-15.5 90q0 55 19.5 108.5t55.5 95.5t87.5 68t115.5 26q50 0 88 -15.5t63.5 -42.5t38 -64t12.5 -80q0 -19 -2 -37.5t-7 -32.5h-403q-2 -9 -2 -17v-18q0 -38 13 -67t34.5 -49t49 -30.5t56.5 -10.5
q61 0 103 29t71 74zM421 288q0 4 1 11v11q0 24 -8 49t-25 44.5t-44 32t-66 12.5q-32 0 -63 -11t-56.5 -31.5t-45 -50.5t-29.5 -67h336zM280 592l-46 124h72l29 -124h-55z" />
    <glyph glyph-name="uni0451" unicode="&#x451;" horiz-adv-x="526" 
d="M392 615q-18 0 -31.5 13t-13.5 31q0 20 13.5 32.5t31.5 12.5q19 0 31.5 -12.5t12.5 -32.5q0 -18 -12.5 -31t-31.5 -13zM238 615q-18 0 -31.5 13t-13.5 31q0 20 13.5 32.5t31.5 12.5q19 0 31.5 -12.5t12.5 -32.5q0 -18 -12.5 -31t-31.5 -13zM448 116q-37 -60 -93.5 -96
t-133.5 -36q-48 0 -88 16.5t-68 46.5t-43.5 71t-15.5 90q0 55 19.5 108.5t55.5 95.5t87.5 68t115.5 26q50 0 88 -15.5t63.5 -42.5t38 -64t12.5 -80q0 -19 -2 -37.5t-7 -32.5h-403q-2 -9 -2 -17v-18q0 -38 13 -67t34.5 -49t49 -30.5t56.5 -10.5q61 0 103 29t71 74zM421 288
q0 4 1 11v11q0 24 -8 49t-25 44.5t-44 32t-66 12.5q-32 0 -63 -11t-56.5 -31.5t-45 -50.5t-29.5 -67h336z" />
    <glyph glyph-name="uni0452" unicode="&#x452;" 
d="M163 582l-19 -108l-18 -78h4q31 50 80 80t112 30q40 0 68.5 -12t47.5 -32t28 -47.5t9 -58.5q0 -24 -6 -55l-70 -399q-11 -64 -47 -96t-93 -32q-32 0 -50 10l24 56q13 -8 32 -8q57 0 71 75l69 393q2 14 3 23t1 19q0 49 -28 77.5t-80 28.5q-35 0 -67.5 -16t-59 -43t-45 -63
t-25.5 -77l-44 -249h-64l103 582h-65l9 52h65l15 82h64l-15 -82h159l-9 -52h-159z" />
    <glyph glyph-name="uni0453" unicode="&#x453;" horiz-adv-x="390" 
d="M213 592l73 124h76l-89 -124h-60zM83 490h315l-11 -58h-251l-76 -432h-64z" />
    <glyph glyph-name="uni0454" unicode="&#x454;" horiz-adv-x="523" 
d="M76 218q0 -42 12.5 -74.5t33.5 -55t48.5 -34.5t58.5 -12q61 0 102 28t70 78l51 -24q-74 -140 -229 -140q-44 0 -82 16.5t-66.5 46.5t-44.5 72.5t-16 95.5q0 55 20 107.5t57 93.5t89 65.5t117 24.5q43 0 76.5 -11t57.5 -30t39.5 -44.5t23.5 -53.5l-58 -23q-15 50 -50.5 77
t-94.5 27q-39 0 -73.5 -13.5t-62 -37t-46.5 -55.5t-27 -70h233l-10 -54h-229z" />
    <glyph glyph-name="uni0455" unicode="&#x455;" horiz-adv-x="448" 
d="M181 -16q-41 0 -73.5 11t-56.5 30.5t-40 45t-23 54.5l61 24q12 -51 48.5 -79.5t90.5 -28.5q26 0 50 6t42 18t28.5 29t10.5 39q0 32 -21 52.5t-75 34.5l-55 15q-23 6 -44.5 17t-38.5 26.5t-27.5 36t-10.5 46.5q0 33 15 60t41.5 45.5t61.5 29t75 10.5q67 0 114 -30t65 -85
l-61 -24q-11 37 -42.5 59.5t-79.5 22.5q-53 0 -88 -21.5t-35 -61.5q0 -29 22 -47.5t61 -29.5l62 -18q61 -18 94.5 -48t33.5 -83q0 -36 -15.5 -65t-43.5 -49t-65.5 -31t-80.5 -11z" />
    <glyph glyph-name="uni0456" unicode="&#x456;" horiz-adv-x="195" 
d="M2 0l86 490h64l-86 -490h-64zM150 610q-20 0 -34.5 14.5t-14.5 34.5q0 21 14.5 35.5t34.5 14.5q21 0 35.5 -14.5t14.5 -35.5q0 -20 -14.5 -34.5t-35.5 -14.5z" />
    <glyph glyph-name="uni0457" unicode="&#x457;" horiz-adv-x="195" 
d="M86 615q-18 0 -31.5 13t-13.5 31q0 20 13.5 32.5t31.5 12.5q19 0 31.5 -12.5t12.5 -32.5q0 -18 -12.5 -31t-31.5 -13zM210 615q-18 0 -31.5 13t-13.5 31q0 20 13.5 32.5t31.5 12.5q19 0 31.5 -12.5t12.5 -32.5q0 -18 -12.5 -31t-31.5 -13zM2 0l86 490h64l-86 -490h-64z
" />
    <glyph glyph-name="uni0458" unicode="&#x458;" horiz-adv-x="195" 
d="M-91 -226q-33 0 -51 10l24 56q13 -8 33 -8q56 0 70 75l104 583h64l-104 -588q-11 -64 -47 -96t-93 -32zM150 610q-20 0 -34.5 14.5t-14.5 34.5q0 21 14.5 35.5t34.5 14.5q21 0 35.5 -14.5t14.5 -35.5q0 -20 -14.5 -34.5t-35.5 -14.5z" />
    <glyph glyph-name="uni0459" unicode="&#x459;" horiz-adv-x="881" 
d="M24 -8q-14 0 -24.5 2t-18.5 6l11 59q9 -4 16 -5.5t16 -1.5q34 0 51.5 34.5t29.5 103.5l53 300h395l-33 -187h150q69 0 110.5 -37.5t41.5 -100.5q0 -36 -14 -66.5t-39 -52t-60 -34t-76 -12.5h-230l76 432h-268l-44 -247q-10 -55 -24.5 -92t-33 -59.5t-40 -32t-45.5 -9.5z
M510 245l-33 -187h163q51 0 83.5 27t32.5 75q0 40 -26.5 62.5t-66.5 22.5h-153z" />
    <glyph glyph-name="uni045A" unicode="&#x45a;" horiz-adv-x="809" 
d="M333 0l43 245h-272l-43 -245h-65l87 490h64l-33 -187h272l33 187h64l-33 -187h148q69 0 110.5 -37.5t41.5 -100.5q0 -36 -14 -66.5t-39 -52t-60 -34t-76 -12.5h-228zM441 245l-33 -187h160q51 0 83.5 27t32.5 75q0 40 -26.5 62.5t-66.5 22.5h-150z" />
    <glyph glyph-name="uni045B" unicode="&#x45b;" 
d="M172 634h159l-9 -52h-159l-19 -108l-18 -78h4q31 50 80 80t112 30q40 0 68.5 -12t47.5 -32t28 -47.5t9 -58.5q0 -24 -6 -55l-53 -301h-64l53 300q2 14 3 23t1 19q0 49 -28 77.5t-80 28.5q-35 0 -67.5 -16t-59 -43t-45 -63t-25.5 -77l-44 -249h-64l103 582h-65l9 52h65
l15 82h64z" />
    <glyph glyph-name="uni045C" unicode="&#x45c;" horiz-adv-x="443" 
d="M239 592l73 124h76l-89 -124h-60zM147 490l-40 -224h4l263 224h85l-1 -4l-275 -231l198 -251l-1 -4h-77l-195 249h-4l-44 -249h-64l87 490h64z" />
    <glyph glyph-name="uni045D" unicode="&#x45d;" horiz-adv-x="539" 
d="M417 0h-64l52 298l21 96h-4l-358 -394h-67l87 490h64l-53 -298l-21 -96h4l358 394h68zM294 592l-46 124h72l29 -124h-55z" />
    <glyph glyph-name="uni045E" unicode="&#x45e;" horiz-adv-x="478" 
d="M11 -216l159 254l-125 452h68l101 -378h2l226 378h72l-434 -706h-69zM286 592q-21 0 -40 7.5t-34 20.5t-23.5 31.5t-8.5 40.5q0 5 0.5 10t1.5 10h55q-1 -5 -1 -7v-6q0 -23 14 -39.5t43 -16.5q32 0 53.5 20t26.5 49h53q-9 -60 -46.5 -90t-93.5 -30z" />
    <glyph glyph-name="uni045F" unicode="&#x45f;" horiz-adv-x="539" 
d="M156 -152l26 152h-179l87 490h64l-77 -432h292l77 432h64l-87 -490h-179l-26 -152h-62z" />
    <glyph glyph-name="uni0490" unicode="&#x490;" horiz-adv-x="505" 
d="M135 716h340l18 106h62l-29 -167h-338l-115 -655h-64z" />
    <glyph glyph-name="uni0491" unicode="&#x491;" horiz-adv-x="400" 
d="M83 490h252l17 93h62l-27 -151h-251l-76 -432h-64z" />
    <glyph glyph-name="uni04B0" unicode="&#x4b0;" horiz-adv-x="579" 
d="M195 0l50 286h-184l9 53h175l-169 377h72l143 -326h4l257 326h78l-302 -377h175l-9 -53h-185l-50 -286h-64z" />
    <glyph glyph-name="uni04B1" unicode="&#x4b1;" horiz-adv-x="480" 
d="M153 0h-153l10 51h132l-4 17l-101 422h66l94 -417l242 417h70l-252 -422l-11 -17h132l-10 -51h-151l-38 -216h-64z" />
    <glyph glyph-name="Wgrave" unicode="&#x1e80;" horiz-adv-x="908" 
d="M632 0h-67l-76 520h-4l-259 -520h-67l-79 716h66l64 -609h4l255 513h66l76 -513h4l271 609h68zM481 776l-46 124h72l29 -124h-55z" />
    <glyph glyph-name="wgrave" unicode="&#x1e81;" horiz-adv-x="732" 
d="M440 0l-65 414l-210 -414h-63l-75 490h64l56 -403h1l205 403h69l64 -401h1l199 401h65l-248 -490h-63zM371 592l-46 124h72l29 -124h-55z" />
    <glyph glyph-name="Wacute" unicode="&#x1e82;" horiz-adv-x="908" 
d="M495 776l73 124h76l-89 -124h-60zM632 0h-67l-76 520h-4l-259 -520h-67l-79 716h66l64 -609h4l255 513h66l76 -513h4l271 609h68z" />
    <glyph glyph-name="wacute" unicode="&#x1e83;" horiz-adv-x="732" 
d="M382 592l73 124h76l-89 -124h-60zM440 0l-65 414l-210 -414h-63l-75 490h64l56 -403h1l205 403h69l64 -401h1l199 401h65l-248 -490h-63z" />
    <glyph glyph-name="Wdieresis" unicode="&#x1e84;" horiz-adv-x="908" 
d="M606 799q-18 0 -31.5 13t-13.5 31q0 20 13.5 32.5t31.5 12.5q19 0 31.5 -12.5t12.5 -32.5q0 -18 -12.5 -31t-31.5 -13zM452 799q-18 0 -31.5 13t-13.5 31q0 20 13.5 32.5t31.5 12.5q19 0 31.5 -12.5t12.5 -32.5q0 -18 -12.5 -31t-31.5 -13zM632 0h-67l-76 520h-4
l-259 -520h-67l-79 716h66l64 -609h4l255 513h66l76 -513h4l271 609h68z" />
    <glyph glyph-name="wdieresis" unicode="&#x1e85;" horiz-adv-x="732" 
d="M491 615q-18 0 -31.5 13t-13.5 31q0 20 13.5 32.5t31.5 12.5q19 0 31.5 -12.5t12.5 -32.5q0 -18 -12.5 -31t-31.5 -13zM337 615q-18 0 -31.5 13t-13.5 31q0 20 13.5 32.5t31.5 12.5q19 0 31.5 -12.5t12.5 -32.5q0 -18 -12.5 -31t-31.5 -13zM440 0l-65 414l-210 -414h-63
l-75 490h64l56 -403h1l205 403h69l64 -401h1l199 401h65l-248 -490h-63z" />
    <glyph glyph-name="Ygrave" unicode="&#x1ef2;" horiz-adv-x="579" 
d="M196 0l57 324l-177 392h72l144 -326h4l256 326h78l-313 -392l-57 -324h-64zM328 776l-46 124h72l29 -124h-55z" />
    <glyph glyph-name="ygrave" unicode="&#x1ef3;" horiz-adv-x="478" 
d="M11 -216l159 254l-125 452h68l101 -378h2l226 378h72l-434 -706h-69zM255 592l-46 124h72l29 -124h-55z" />
    <glyph glyph-name="endash" unicode="&#x2013;" horiz-adv-x="585" 
d="M56 337h466l-9 -54h-466z" />
    <glyph glyph-name="emdash" unicode="&#x2014;" horiz-adv-x="884" 
d="M56 337h765l-9 -54h-765z" />
    <glyph glyph-name="quoteleft" unicode="&#x2018;" horiz-adv-x="216" 
d="M219 708l-59 -67q9 -4 19.5 -15.5t10.5 -30.5q0 -23 -15 -37.5t-36 -14.5q-22 0 -37 14.5t-15 37.5q0 13 8.5 26t20.5 27l74 84z" />
    <glyph glyph-name="quoteright" unicode="&#x2019;" horiz-adv-x="216" 
d="M92 568l59 66q-9 4 -19.5 15.5t-10.5 31.5q0 22 15 36.5t36 14.5q22 0 37 -14.5t15 -36.5q0 -13 -8.5 -26t-20.5 -27l-74 -85z" />
    <glyph glyph-name="quotesinglbase" unicode="&#x201a;" horiz-adv-x="216" 
d="M-17 -65l59 66q-9 4 -19.5 15.5t-10.5 31.5q0 22 15 36.5t36 14.5q22 0 37 -14.5t15 -36.5q0 -13 -8.5 -26t-20.5 -27l-74 -85z" />
    <glyph glyph-name="quotedblleft" unicode="&#x201c;" horiz-adv-x="364" 
d="M219 708l-59 -67q9 -4 19.5 -15.5t10.5 -30.5q0 -23 -15 -37.5t-36 -14.5q-22 0 -37 14.5t-15 37.5q0 13 8.5 26t20.5 27l74 84zM367 708l-59 -67q9 -4 19.5 -15.5t10.5 -30.5q0 -23 -15 -37.5t-36 -14.5q-22 0 -37 14.5t-15 37.5q0 13 8.5 26t20.5 27l74 84z" />
    <glyph glyph-name="quotedblright" unicode="&#x201d;" horiz-adv-x="364" 
d="M92 568l59 66q-9 4 -19.5 15.5t-10.5 31.5q0 22 15 36.5t36 14.5q22 0 37 -14.5t15 -36.5q0 -13 -8.5 -26t-20.5 -27l-74 -85zM240 568l59 66q-9 4 -19.5 15.5t-10.5 31.5q0 22 15 36.5t36 14.5q22 0 37 -14.5t15 -36.5q0 -13 -8.5 -26t-20.5 -27l-74 -85z" />
    <glyph glyph-name="quotedblbase" unicode="&#x201e;" horiz-adv-x="364" 
d="M-17 -65l59 66q-9 4 -19.5 15.5t-10.5 31.5q0 22 15 36.5t36 14.5q22 0 37 -14.5t15 -36.5q0 -13 -8.5 -26t-20.5 -27l-74 -85zM131 -65l59 66q-9 4 -19.5 15.5t-10.5 31.5q0 22 15 36.5t36 14.5q22 0 37 -14.5t15 -36.5q0 -13 -8.5 -26t-20.5 -27l-74 -85z" />
    <glyph glyph-name="bullet" unicode="&#x2022;" horiz-adv-x="355" 
d="M172 232q-19 0 -36 7t-29.5 19.5t-19.5 29.5t-7 36t7 36t19.5 29.5t29.5 19.5t36 7t35.5 -7t29 -19.5t20 -29.5t7.5 -36t-7.5 -36t-20 -29.5t-29 -19.5t-35.5 -7z" />
    <glyph glyph-name="ellipsis" unicode="&#x2026;" horiz-adv-x="633" 
d="M48 -6q-22 0 -37 15t-15 37t15 36.5t37 14.5t37 -14.5t15 -36.5t-15 -37t-37 -15zM262 -6q-22 0 -37 15t-15 37t15 36.5t37 14.5t37 -14.5t15 -36.5t-15 -37t-37 -15zM476 -6q-22 0 -37 15t-15 37t15 36.5t37 14.5t37 -14.5t15 -36.5t-15 -37t-37 -15z" />
    <glyph glyph-name="guilsinglleft" unicode="&#x2039;" horiz-adv-x="340" 
d="M225 95l-43 -35l-157 211l231 211l35 -38l-193 -177z" />
    <glyph glyph-name="guilsinglright" unicode="&#x203a;" horiz-adv-x="340" 
d="M82 448l43 34l157 -211l-231 -211l-35 39l193 176z" />
    <glyph glyph-name="fraction" unicode="&#x2044;" horiz-adv-x="181" 
d="M-224 29l590 691l39 -32l-589 -692z" />
    <glyph glyph-name="uni2074" unicode="&#x2074;" horiz-adv-x="334" 
d="M200 350l14 80h-172l6 33l225 253h43l-42 -241h51l-8 -45h-52l-14 -80h-51zM223 475l26 149h-4l-132 -149h110z" />
    <glyph glyph-name="uni20A3" unicode="&#x20a3;" horiz-adv-x="536" 
d="M38 0l22 125h-76l10 54h76l89 505h396l-11 -61h-332l-45 -259h299l-10 -60h-300l-22 -125h142l-10 -54h-142l-22 -125h-64z" />
    <glyph glyph-name="uni20A4" unicode="&#x20a4;" horiz-adv-x="508" 
d="M445 105q-26 -53 -64.5 -79t-104.5 -26h-305l9 52q48 26 81.5 57.5t50.5 67.5h-107l8 54h114q1 8 1 10v4q0 28 -4 50t-9 42h-83l9 54h56q-8 22 -12.5 46t-4.5 55q0 41 15.5 78.5t44 66.5t69 46t90.5 17q42 0 72.5 -12t51.5 -32t34 -45t20 -50l-63 -24q-11 43 -39 72.5
t-82 29.5q-34 0 -61 -12t-46.5 -32t-30 -47.5t-10.5 -57.5q0 -26 5 -50.5t12 -48.5h168l-9 -54h-144q5 -20 8 -41t3 -45v-7t-1 -13h115l-9 -54h-120q-14 -37 -39 -65t-51 -48l2 -3h202q47 0 69.5 17t39.5 49z" />
    <glyph glyph-name="uni20A9" unicode="&#x20a9;" horiz-adv-x="963" 
d="M810 337l-148 -337h-66l-40 337h-151l-161 -337h-66l-31 337h-117l9 54h103l-26 293h68l22 -293h161l139 293h69l34 -293h159l125 293h69l-129 -293h101l-9 -54h-115zM231 104l110 233h-131l18 -233h3zM646 104l99 233h-129l27 -233h3zM431 391h119l-23 193h-4z" />
    <glyph glyph-name="uni20AB" unicode="&#x20ab;" horiz-adv-x="558" 
d="M205 -16q-41 0 -76.5 15t-61.5 43.5t-41.5 69t-15.5 91.5q0 54 19.5 105.5t55.5 92t86.5 65t111.5 24.5q35 0 62.5 -8.5t47.5 -22.5t33.5 -31.5t21.5 -34.5h4l8 68l15 89h-153l9 52h154l14 82h64l-14 -82h66l-9 -52h-67l-96 -550h-60l14 82h-4q-26 -40 -72.5 -69
t-115.5 -29zM221 42q48 0 86.5 20.5t65.5 54t41.5 76t14.5 86.5q0 75 -40.5 114t-102.5 39q-47 0 -85.5 -19t-67 -51t-44 -73t-15.5 -86q0 -39 11.5 -69t31 -50.5t46.5 -31t58 -10.5zM0 -84h428l-10 -54h-427z" />
    <glyph glyph-name="Euro" unicode="&#x20ac;" horiz-adv-x="619" 
d="M42 450h85q21 52 56 97.5t81 79.5t102.5 53.5t121.5 19.5q44 0 81.5 -12t63.5 -32l-35 -52q-21 16 -50 25.5t-69 9.5q-50 0 -93.5 -14.5t-79.5 -39.5t-64 -60t-47 -75h245l-9 -54h-256q-14 -51 -14 -101v-7h251l-9 -54h-237q8 -47 28.5 -82t49 -58.5t64 -35.5t74.5 -12
q38 0 70.5 8.5t64.5 26.5l26 -53q-38 -23 -79 -33.5t-89 -10.5q-53 0 -99.5 17t-83.5 49t-61.5 78.5t-32.5 105.5h-93l9 54h81q0 54 14 108h-76z" />
    <glyph glyph-name="uni20AE" unicode="&#x20ae;" horiz-adv-x="514" 
d="M82 323l151 85l38 215h-199l11 61h463l-11 -61h-200l-31 -177l149 84l-12 -67l-149 -85l-22 -123l150 85l-12 -67l-149 -85l-34 -188h-64l27 150l-151 -84l12 66l150 85l22 124l-150 -85z" />
    <glyph glyph-name="uni20B1" unicode="&#x20b1;" horiz-adv-x="617" 
d="M40 0l80 452h-78l10 54h77l32 178h215q41 0 75.5 -13t60 -36.5t40 -56t15.5 -72.5h59l-10 -54h-55q-9 -40 -31 -71.5t-54.5 -53.5t-73 -33.5t-86.5 -11.5h-162l-50 -282h-64zM193 506h307q-3 53 -37 85t-91 32h-158zM326 343q60 0 106 29t62 80h-310l-19 -109h161z" />
    <glyph glyph-name="uni20B8" unicode="&#x20b8;" horiz-adv-x="514" 
d="M161 0l81 459h-199l10 55h463l-10 -55h-200l-81 -459h-64zM73 629l10 55h463l-10 -55h-463z" />
    <glyph glyph-name="uni20B9" unicode="&#x20b9;" horiz-adv-x="545" 
d="M405 4l-1 -4h-80l-234 283l10 63h141q67 0 114 29.5t61 82.5h-373l10 55h370q-3 49 -37 83t-92 34h-221l10 54h494l-10 -54h-131q24 -23 37.5 -52t14.5 -65h59l-10 -55h-55q-9 -41 -32 -72.5t-55.5 -53.5t-73.5 -33.5t-86 -11.5h-57l-3 -3z" />
    <glyph glyph-name="uni20BA" unicode="&#x20ba;" horiz-adv-x="522" 
d="M29 380l149 84l39 220h64l-32 -182l151 85l-12 -67l-150 -85l-22 -124l150 86l-11 -67l-151 -86l-33 -184q48 1 89.5 16.5t74.5 42.5t54.5 63.5t29.5 78.5h60q-11 -59 -39 -107t-70 -82t-96 -53t-117 -19h-61l37 206l-149 -83l12 66l148 84l22 124l-149 -84z" />
    <glyph glyph-name="uni20BD" unicode="&#x20bd;" horiz-adv-x="567" 
d="M39 0l22 125h-77l10 55h77l18 102h-77l10 55h77l61 347h218q42 0 76.5 -12.5t59 -36t38.5 -57t14 -75.5q0 -48 -19 -89t-53 -70t-80 -45.5t-101 -16.5h-159l-19 -102h144l-10 -55h-144l-22 -125h-64zM325 343q37 0 69.5 11.5t56 32.5t37 49.5t13.5 62.5q0 57 -35.5 90.5
t-93.5 33.5h-159l-49 -280h161z" />
    <glyph glyph-name="uni2116" unicode="&#x2116;" horiz-adv-x="1075" 
d="M882 390q-32 0 -59 11.5t-46.5 31.5t-31 47.5t-11.5 59.5q0 42 15 77t41 60.5t61.5 40t77.5 14.5q32 0 59.5 -11.5t47 -31.5t30.5 -47t11 -59q0 -44 -15.5 -79.5t-42 -61t-62 -39t-75.5 -13.5zM888 440q29 0 53.5 10.5t42.5 29t28 43.5t10 54q0 48 -27 77t-73 29
q-29 0 -53 -11.5t-42 -30.5t-28 -44.5t-10 -53.5q0 -46 28 -74.5t71 -28.5zM709 238l10 53h280l-10 -53h-280zM140 716h77l288 -604h4l21 138l82 466h64l-127 -716h-60l-300 631h-4l-20 -138l-88 -493h-64z" />
    <glyph glyph-name="minus" unicode="&#x2212;" horiz-adv-x="544" 
d="M39 244l10 54h425l-10 -54h-425z" />
    <glyph glyph-name="uni2215" unicode="&#x2215;" horiz-adv-x="415" 
d="M-36 0l423 716h63l-424 -716h-62z" />
    <glyph glyph-name="uniF8FF" horiz-adv-x="1000" 
d="M891 451q4 -21 5.5 -42t1.5 -44q0 -89 -28.5 -163.5t-81 -128.5t-126 -84t-163.5 -30q-86 0 -162 32.5t-132.5 89t-89 132.5t-32.5 162t32.5 162t89 132.5t132.5 89t162 32.5q85 0 154.5 -28.5t123.5 -79.5l-119 -120q-65 62 -159 62q-51 0 -96 -20t-78 -54t-52.5 -79.5
t-19.5 -96.5t19.5 -96.5t52.5 -80t78 -54.5t96 -20q46 0 84 12.5t67 34.5t47.5 52.5t25.5 66.5h-224v161h392z" />
    <glyph glyph-name="one.numerator" horiz-adv-x="230" 
d="M113 350l53 301l-70 -30l-18 42l123 53h28l-65 -366h-51z" />
    <glyph glyph-name="two.denominator" horiz-adv-x="296" 
d="M-36 0l8 45q42 36 76 65q15 12 29 25q14 12 26 22t21 17q8 7 11 10q21 17 41.5 39t20.5 51q0 25 -17 39t-43 14q-27 0 -48 -16t-35 -51l-43 18q14 47 50 71.5t80 24.5q48 0 78 -26.5t30 -68.5q0 -38 -20.5 -66t-55.5 -57q-9 -8 -30 -25q-21 -18 -43 -37q-26 -22 -55 -47
h167l-9 -47h-239z" />
    <glyph glyph-name="two.numerator" horiz-adv-x="296" 
d="M24 350l9 45q41 36 75 65q15 12 29 25q14 12 26 22t21 17q8 7 11 10q21 17 41.5 39t20.5 51q0 25 -17 39t-43 14q-27 0 -48 -16t-35 -51l-43 18q14 47 50 71.5t80 24.5q48 0 78 -26.5t30 -68.5q0 -38 -20.5 -66t-55.5 -57q-9 -8 -30 -25q-21 -18 -43 -37q-26 -22 -55 -47
h167l-9 -47h-239z" />
    <glyph glyph-name="three.numerator" horiz-adv-x="319" 
d="M160 342q-20 0 -39.5 6t-36 18t-28 30.5t-15.5 43.5l47 17q18 -68 78 -68q34 0 58.5 19t24.5 51q0 29 -19.5 44t-50.5 15h-33l8 45h33q32 0 55 17t23 48q0 23 -16 36t-41 13q-32 0 -49 -15t-28 -35l-42 18q14 36 47 57.5t78 21.5q47 0 75.5 -25t28.5 -63
q0 -34 -20.5 -59.5t-48.5 -35.5q22 -10 37 -29.5t15 -48.5q0 -26 -10.5 -48.5t-29.5 -38.5t-45 -25t-56 -9z" />
    <glyph glyph-name="four.denominator" horiz-adv-x="334" 
d="M138 0l14 80h-173l6 33l225 253h44l-43 -241h52l-9 -45h-51l-14 -80h-51zM160 125l26 149h-4l-132 -149h110z" />
    <glyph glyph-name="four.numerator" horiz-adv-x="334" 
d="M200 350l14 80h-172l6 33l225 253h43l-42 -241h51l-8 -45h-52l-14 -80h-51zM223 475l26 149h-4l-132 -149h110z" />
    <glyph glyph-name="r.alt" horiz-adv-x="328" 
d="M128 407h4q23 46 66 71.5t94 25.5q11 0 19.5 -0.5t16.5 -2.5l-12 -64q-16 4 -40 4q-29 0 -56.5 -13t-50 -36t-39 -54.5t-22.5 -67.5l-48 -270h-64l87 490h60z" />
    <glyph glyph-name="uni03BC" 
d="M354 0l16 92h-4q-28 -45 -76 -76.5t-115 -31.5q-38 0 -66.5 17t-42.5 41h-4l-8 -72l-34 -186h-64l124 706h64l-52 -297q-2 -13 -3.5 -23.5t-1.5 -21.5q0 -50 28 -78t82 -28q36 0 68 15t57.5 41t43 60.5t24.5 73.5l46 258h64l-86 -490h-60z" />
    <glyph glyph-name="uni2103" horiz-adv-x="971" 
d="M605 -16q-67 0 -121.5 23.5t-93 65t-59.5 98.5t-21 124q0 78 28.5 151.5t81 129.5t126 90t162.5 34q80 0 136.5 -31.5t96.5 -83.5l-51 -43q-32 44 -77.5 70.5t-111.5 26.5q-71 0 -130.5 -27.5t-102.5 -74t-67.5 -109t-24.5 -131.5q0 -59 18.5 -105.5t50.5 -79t76 -49.5
t95 -17q71 0 123.5 25.5t103.5 75.5l36 -44q-56 -59 -121 -89t-153 -30zM184 442q-24 0 -45 8.5t-36.5 24t-24.5 36t-9 44.5q0 30 10.5 56.5t30 46t46.5 31t60 11.5q24 0 45 -8.5t36.5 -23.5t24.5 -36t9 -45q0 -30 -10.5 -56.5t-30 -46t-46.5 -31t-60 -11.5zM189 489
q18 0 34.5 7.5t29 20t20 29.5t7.5 37q0 31 -19.5 50.5t-49.5 19.5q-18 0 -34.5 -7t-29 -20t-20 -30t-7.5 -36q0 -32 19.5 -51.5t49.5 -19.5z" />
    <glyph glyph-name="uni2109" horiz-adv-x="811" 
d="M322 0l121 684h391l-11 -61h-327l-45 -259h295l-11 -60h-295l-54 -304h-64zM184 442q-24 0 -45 8.5t-36.5 24t-24.5 36t-9 44.5q0 30 10.5 56.5t30 46t46.5 31t60 11.5q24 0 45 -8.5t36.5 -23.5t24.5 -36t9 -45q0 -30 -10.5 -56.5t-30 -46t-46.5 -31t-60 -11.5zM189 489
q18 0 34.5 7.5t29 20t20 29.5t7.5 37q0 31 -19.5 50.5t-49.5 19.5q-18 0 -34.5 -7t-29 -20t-20 -30t-7.5 -36q0 -32 19.5 -51.5t49.5 -19.5z" />
    <glyph glyph-name="uni2190" horiz-adv-x="1066" 
d="M205 283v-127l-154 154l154 154v-127h801v-54h-801z" />
    <glyph glyph-name="uni2191" horiz-adv-x="393" 
d="M224 -109h-54v764h-127l154 154l154 -154h-127v-764z" />
    <glyph glyph-name="uni2192" horiz-adv-x="1066" 
d="M60 283v54h801v127l154 -154l-154 -154v127h-801z" />
    <glyph glyph-name="uni2193" horiz-adv-x="393" 
d="M224 18h127l-154 -155l-154 155h127v763h54v-763z" />
    <glyph glyph-name="uni2196" horiz-adv-x="748" 
d="M745 40l-38 -38l-575 575l-89 -90v218h217l-89 -90z" />
    <glyph glyph-name="uni2197" horiz-adv-x="748" 
d="M577 615l-89 90h217v-218l-89 90l-575 -575l-38 38z" />
    <glyph glyph-name="uni2198" horiz-adv-x="748" 
d="M171 100l89 -90h-217v218l89 -90l575 575l38 -38z" />
    <glyph glyph-name="uni2199" horiz-adv-x="748" 
d="M3 675l38 38l575 -575l89 90v-218h-217l89 90z" />
    <glyph glyph-name="uni2639" horiz-adv-x="842" 
d="M290 404q-20 0 -33.5 14t-13.5 34t13.5 33.5t33.5 13.5t34 -13.5t14 -33.5t-14 -34t-34 -14zM552 404q-20 0 -33.5 14t-13.5 34t13.5 33.5t33.5 13.5t34 -13.5t14 -33.5t-14 -34t-34 -14zM421 -16q-77 0 -145 29.5t-119 80.5t-80.5 119t-29.5 145t29.5 145t80.5 119
t119 80.5t145 29.5t145 -29.5t119 -80.5t80.5 -119t29.5 -145t-29.5 -145t-80.5 -119t-119 -80.5t-145 -29.5zM421 33q68 0 127 26t103 70t69.5 103.5t25.5 125.5q0 67 -25.5 126t-69.5 103.5t-103 70t-127 25.5q-67 0 -126 -25.5t-103.5 -70t-70 -103.5t-25.5 -126
q0 -66 25.5 -125.5t70 -103.5t103.5 -70t126 -26zM421 296q63 0 111 -31t72 -84l-50 -22q-18 38 -52.5 60.5t-80.5 22.5q-45 0 -80 -22.5t-52 -60.5l-50 22q23 53 71.5 84t110.5 31z" />
    <glyph glyph-name="uni263A" horiz-adv-x="842" 
d="M552 404q-20 0 -33.5 14t-13.5 34t13.5 33.5t33.5 13.5t34 -13.5t14 -33.5t-14 -34t-34 -14zM290 404q-20 0 -33.5 14t-13.5 34t13.5 33.5t33.5 13.5t34 -13.5t14 -33.5t-14 -34t-34 -14zM421 157q-62 0 -110.5 31t-71.5 84l50 23q17 -39 52 -61t80 -22q46 0 80.5 22
t52.5 61l50 -23q-24 -53 -72 -84t-111 -31zM421 -16q-77 0 -145 29.5t-119 80.5t-80.5 119t-29.5 145t29.5 145t80.5 119t119 80.5t145 29.5t145 -29.5t119 -80.5t80.5 -119t29.5 -145t-29.5 -145t-80.5 -119t-119 -80.5t-145 -29.5zM421 33q68 0 127 26t103 70t69.5 103.5
t25.5 125.5q0 67 -25.5 126t-69.5 103.5t-103 70t-127 25.5q-67 0 -126 -25.5t-103.5 -70t-70 -103.5t-25.5 -126q0 -66 25.5 -125.5t70 -103.5t103.5 -70t126 -26z" />
    <glyph glyph-name="uni2780" horiz-adv-x="842" 
d="M411 177v303l-71 -31l-18 41l112 53h28v-366h-51zM421 -16q-77 0 -145 29.5t-119 80.5t-80.5 119t-29.5 145t29.5 145t80.5 119t119 80.5t145 29.5t145 -29.5t119 -80.5t80.5 -119t29.5 -145t-29.5 -145t-80.5 -119t-119 -80.5t-145 -29.5zM421 33q68 0 127 26t103 70
t69.5 103.5t25.5 125.5q0 67 -25.5 126t-69.5 103.5t-103 70t-127 25.5q-67 0 -126 -25.5t-103.5 -70t-70 -103.5t-25.5 -126q0 -66 25.5 -125.5t70 -103.5t103.5 -70t126 -26z" />
    <glyph glyph-name="uni2781" horiz-adv-x="842" 
d="M302 177v45l64 64q25 25 46 47l25 25q22 23 36 42t14 45q0 25 -18 42t-47 17q-27 0 -47 -15.5t-29 -51.5l-46 19q11 45 44.5 70t75.5 25q24 0 45.5 -7.5t38 -21t26 -33.5t9.5 -44q0 -18 -6 -34.5t-14.5 -30t-18.5 -24.5t-19 -20l-65 -65q-22 -22 -48 -47h173v-47h-239z
M421 -16q-77 0 -145 29.5t-119 80.5t-80.5 119t-29.5 145t29.5 145t80.5 119t119 80.5t145 29.5t145 -29.5t119 -80.5t80.5 -119t29.5 -145t-29.5 -145t-80.5 -119t-119 -80.5t-145 -29.5zM421 33q68 0 127 26t103 70t69.5 103.5t25.5 125.5q0 67 -25.5 126t-69.5 103.5
t-103 70t-127 25.5q-67 0 -126 -25.5t-103.5 -70t-70 -103.5t-25.5 -126q0 -66 25.5 -125.5t70 -103.5t103.5 -70t126 -26z" />
    <glyph glyph-name="uni2782" horiz-adv-x="842" 
d="M421 -16q-77 0 -145 29.5t-119 80.5t-80.5 119t-29.5 145t29.5 145t80.5 119t119 80.5t145 29.5t145 -29.5t119 -80.5t80.5 -119t29.5 -145t-29.5 -145t-80.5 -119t-119 -80.5t-145 -29.5zM421 33q68 0 127 26t103 70t69.5 103.5t25.5 125.5q0 67 -25.5 126t-69.5 103.5
t-103 70t-127 25.5q-67 0 -126 -25.5t-103.5 -70t-70 -103.5t-25.5 -126q0 -66 25.5 -125.5t70 -103.5t103.5 -70t126 -26zM419 169q-21 0 -41.5 5.5t-38.5 17.5t-31.5 30.5t-19.5 44.5l46 18q11 -37 33.5 -53t52.5 -16q32 0 53.5 19t21.5 48q0 31 -22.5 46.5t-52.5 15.5
h-38v45h33q27 0 47 15.5t20 42.5q0 26 -18.5 41t-44.5 15q-32 0 -47.5 -15t-23.5 -35l-45 18q13 36 43 57.5t72 21.5q53 0 84.5 -29t31.5 -72q0 -28 -15 -47.5t-35 -31.5q26 -12 44.5 -33t18.5 -53q0 -27 -10.5 -48.5t-28 -36.5t-40.5 -23t-49 -8z" />
    <glyph glyph-name="uni2783" horiz-adv-x="842" 
d="M436 177v80h-173v33l180 253h44v-241h51v-45h-51v-80h-51zM436 456h-4l-110 -154h114v154zM421 -16q-77 0 -145 29.5t-119 80.5t-80.5 119t-29.5 145t29.5 145t80.5 119t119 80.5t145 29.5t145 -29.5t119 -80.5t80.5 -119t29.5 -145t-29.5 -145t-80.5 -119t-119 -80.5
t-145 -29.5zM421 33q68 0 127 26t103 70t69.5 103.5t25.5 125.5q0 67 -25.5 126t-69.5 103.5t-103 70t-127 25.5q-67 0 -126 -25.5t-103.5 -70t-70 -103.5t-25.5 -126q0 -66 25.5 -125.5t70 -103.5t103.5 -70t126 -26z" />
    <glyph glyph-name="uni2784" horiz-adv-x="842" 
d="M421 -16q-77 0 -145 29.5t-119 80.5t-80.5 119t-29.5 145t29.5 145t80.5 119t119 80.5t145 29.5t145 -29.5t119 -80.5t80.5 -119t29.5 -145t-29.5 -145t-80.5 -119t-119 -80.5t-145 -29.5zM421 33q68 0 127 26t103 70t69.5 103.5t25.5 125.5q0 67 -25.5 126t-69.5 103.5
t-103 70t-127 25.5q-67 0 -126 -25.5t-103.5 -70t-70 -103.5t-25.5 -126q0 -66 25.5 -125.5t70 -103.5t103.5 -70t126 -26zM422 169q-20 0 -40.5 5t-38 16t-31 28t-20.5 42l48 19q8 -31 29.5 -47t53.5 -16q33 0 55 23t22 58q0 36 -22.5 58.5t-55.5 22.5q-43 0 -75 -43
l-43 18l25 189h201v-45h-158l-14 -101q12 11 30.5 18t40.5 7q26 0 48.5 -9t39 -25.5t26 -39.5t9.5 -51t-10.5 -51t-28 -40t-41 -26.5t-50.5 -9.5z" />
    <glyph glyph-name="uni2785" horiz-adv-x="842" 
d="M421 -16q-77 0 -145 29.5t-119 80.5t-80.5 119t-29.5 145t29.5 145t80.5 119t119 80.5t145 29.5t145 -29.5t119 -80.5t80.5 -119t29.5 -145t-29.5 -145t-80.5 -119t-119 -80.5t-145 -29.5zM421 33q68 0 127 26t103 70t69.5 103.5t25.5 125.5q0 67 -25.5 126t-69.5 103.5
t-103 70t-127 25.5q-67 0 -126 -25.5t-103.5 -70t-70 -103.5t-25.5 -126q0 -66 25.5 -125.5t70 -103.5t103.5 -70t126 -26zM417 169q-28 0 -51.5 10t-41 27t-27.5 40t-10 49q0 31 12.5 58.5t32.5 55.5q9 13 27 38l36 50q21 29 45 62l40 -28l-96 -123q16 11 42 11t48 -10.5
t38.5 -27.5t25.5 -39.5t9 -46.5q0 -26 -10.5 -49t-28 -40t-41 -27t-50.5 -10zM416 216q35 0 57 23.5t22 55.5t-22 55.5t-57 23.5q-34 0 -55.5 -23.5t-21.5 -55.5t21 -55.5t56 -23.5z" />
    </font>
</defs>
</svg>
