<?xml version="1.0" standalone="no"?>
<!DOCTYPE svg PUBLIC "-//W3C//DTD SVG 1.1//EN" "http://www.w3.org/Graphics/SVG/1.1/DTD/svg11.dtd" >
<svg xmlns="http://www.w3.org/2000/svg" xmlns:xlink="http://www.w3.org/1999/xlink" version="1.1">
<metadata>
Created by FontForge 20170731 at Mon Sep  3 20:55:22 2018
 By Aleksey,,,
</metadata>
<defs>
<font id="ProductSans-Light" horiz-adv-x="535" >
  <font-face 
    font-family="Product Sans Light"
    font-weight="300"
    font-stretch="normal"
    units-per-em="1000"
    panose-1="2 11 3 3 3 5 2 4 2 3"
    ascent="800"
    descent="-200"
    x-height="490"
    cap-height="716"
    bbox="-164 -253 3284 958"
    underline-thickness="50"
    underline-position="-325"
    unicode-range="U+000D-2215"
  />
<missing-glyph horiz-adv-x="566" 
d="M77 716h412v-716h-412v716zM127 47h312v622h-312v-622z" />
    <glyph glyph-name="f_i" unicode="fi" horiz-adv-x="531" 
d="M182 0h-64v432h-92v58h92v85q0 36 12 64t32.5 47t46.5 28.5t55 9.5q27 0 46.5 -5.5t32.5 -13.5l-18 -56q-11 7 -25.5 11.5t-33.5 4.5q-34 0 -59 -24.5t-25 -71.5v-79h284v-490h-64v432h-220v-432zM434 610q-21 0 -35.5 14.5t-14.5 34.5q0 21 14.5 35.5t35.5 14.5
q20 0 34.5 -14.5t14.5 -35.5q0 -20 -14.5 -34.5t-34.5 -14.5z" />
    <glyph glyph-name="f_l" unicode="fl" horiz-adv-x="525" 
d="M402 0v662h-129q-39 0 -65 -24t-26 -71v-77h128v-58h-128v-432h-64v432h-92v58h92v78q0 35 12 63.5t32.5 48t49 30t61.5 10.5h193v-720h-64z" />
    <glyph glyph-name="f_b" unicode="fb" horiz-adv-x="911" 
d="M402 662h-129q-39 0 -65 -24t-26 -71v-77h128v-58h-128v-432h-64v432h-92v58h92v78q0 35 12 63.5t32.5 48t49 30t61.5 10.5h193v-247l-4 -68h4q12 20 29 38.5t40 32.5t52 22t64 8q47 0 89 -19.5t73.5 -54t50 -82.5t18.5 -105t-18.5 -105t-50 -82.5t-73.5 -54t-89 -19.5
q-35 0 -64 8.5t-52 22.5t-40 32.5t-29 38.5h-4v-86h-60v662zM640 42q35 0 67.5 14t57 40t39 64t14.5 85t-14.5 84.5t-39 64t-57 40.5t-67.5 14t-67.5 -13.5t-57 -39.5t-39 -64t-14.5 -86t14.5 -85.5t39 -64t57 -40t67.5 -13.5z" />
    <glyph glyph-name="f_f" unicode="ff" horiz-adv-x="631" 
d="M548 724q27 0 46.5 -5.5t32.5 -13.5l-18 -56q-11 7 -25.5 11.5t-33.5 4.5q-34 0 -59 -24.5t-25 -71.5v-79h128v-58h-128v-432h-64v432h-220v-432h-64v432h-92v58h92v85q0 36 12 64t32.5 47t46.5 28.5t55 9.5q27 0 46.5 -5.5t32.5 -13.5l-18 -56q-11 7 -25.5 11.5
t-33.5 4.5q-34 0 -59 -24.5t-25 -71.5v-79h220v85q0 36 12 64t32.5 47t46.5 28.5t55 9.5z" />
    <glyph glyph-name="f_f_b" unicode="ffb" horiz-adv-x="1195" 
d="M686 662h-129q-39 0 -65 -24t-26 -71v-77h128v-58h-128v-432h-64v432h-220v-432h-64v432h-92v58h92v85q0 36 12 64t32.5 47t46.5 28.5t55 9.5q27 0 46.5 -5.5t32.5 -13.5l-18 -56q-11 7 -25.5 11.5t-33.5 4.5q-34 0 -59 -24.5t-25 -71.5v-79h220v78q0 35 12 63.5t32.5 48
t49 30t61.5 10.5h193v-247l-4 -68h4q12 20 29 38.5t40 32.5t52 22t64 8q47 0 89 -19.5t73.5 -54t50 -82.5t18.5 -105t-18.5 -105t-50 -82.5t-73.5 -54t-89 -19.5q-35 0 -64 8.5t-52 22.5t-40 32.5t-29 38.5h-4v-86h-60v662zM924 42q35 0 67.5 14t57 40t39 64t14.5 85
t-14.5 84.5t-39 64t-57 40.5t-67.5 14t-67.5 -13.5t-57 -39.5t-39 -64t-14.5 -86t14.5 -85.5t39 -64t57 -40t67.5 -13.5z" />
    <glyph glyph-name="f_f_h" unicode="ffh" horiz-adv-x="1161" 
d="M686 662h-129q-39 0 -65 -24t-26 -71v-77h128v-58h-128v-432h-64v432h-220v-432h-64v432h-92v58h92v85q0 36 12 64t32.5 47t46.5 28.5t55 9.5q27 0 46.5 -5.5t32.5 -13.5l-18 -56q-11 7 -25.5 11.5t-33.5 4.5q-34 0 -59 -24.5t-25 -71.5v-79h220v78q0 35 12 63.5t32.5 48
t49 30t61.5 10.5h193v-246l-4 -78h4q23 48 68 79t108 31q46 0 80 -15t56.5 -41.5t33 -63t10.5 -79.5v-307h-64v296q0 77 -35 114.5t-96 37.5q-35 0 -64 -16t-51 -42t-34 -61t-12 -72v-257h-64v662z" />
    <glyph glyph-name="f_f_i" unicode="ffi" horiz-adv-x="815" 
d="M264 724q27 0 46.5 -5.5t32.5 -13.5l-18 -56q-11 7 -25.5 11.5t-33.5 4.5q-34 0 -59 -24.5t-25 -71.5v-79h220v85q0 36 12 64t32.5 47t46.5 28.5t55 9.5q27 0 46.5 -5.5t32.5 -13.5l-18 -56q-11 7 -25.5 11.5t-33.5 4.5q-34 0 -59 -24.5t-25 -71.5v-79h284v-490h-64v432
h-220v-432h-64v432h-220v-432h-64v432h-92v58h92v85q0 36 12 64t32.5 47t46.5 28.5t55 9.5zM718 610q-21 0 -35.5 14.5t-14.5 34.5q0 21 14.5 35.5t35.5 14.5q20 0 34.5 -14.5t14.5 -35.5q0 -20 -14.5 -34.5t-34.5 -14.5z" />
    <glyph glyph-name="f_f_j" unicode="ffj" horiz-adv-x="815" 
d="M594 -161q13 -7 31 -7q32 0 46.5 21t14.5 59v520h-220v-432h-64v432h-220v-432h-64v432h-92v58h92v85q0 36 12 64t32.5 47t46.5 28.5t55 9.5q27 0 46.5 -5.5t32.5 -13.5l-18 -56q-11 7 -25.5 11.5t-33.5 4.5q-34 0 -59 -24.5t-25 -71.5v-79h220v85q0 36 11.5 64t31 47
t45 28.5t53.5 9.5q26 0 45 -5.5t32 -13.5l-17 -56q-14 8 -27 12t-31 4q-33 0 -56 -24.5t-23 -69.5v-81h284v-579q0 -67 -32 -102t-91 -35q-29 0 -49 10zM718 610q-21 0 -35.5 14.5t-14.5 34.5q0 21 14.5 35.5t35.5 14.5q20 0 34.5 -14.5t14.5 -35.5q0 -20 -14.5 -34.5
t-34.5 -14.5z" />
    <glyph glyph-name="f_f_k" unicode="ffk" horiz-adv-x="1095" 
d="M686 662h-129q-39 0 -65 -24t-26 -71v-77h128v-58h-128v-432h-64v432h-220v-432h-64v432h-92v58h92v85q0 36 12 64t32.5 47t46.5 28.5t55 9.5q27 0 46.5 -5.5t32.5 -13.5l-18 -56q-11 7 -25.5 11.5t-33.5 4.5q-34 0 -59 -24.5t-25 -71.5v-79h220v78q0 35 12 63.5t32.5 48
t49 30t61.5 10.5h193v-479l248 249h81v-4l-184 -185l202 -297v-4h-75l-173 256l-99 -99v-157h-64v662z" />
    <glyph glyph-name="f_f_l" unicode="ffl" horiz-adv-x="809" 
d="M686 0v662h-129q-39 0 -65 -24t-26 -71v-77h128v-58h-128v-432h-64v432h-220v-432h-64v432h-92v58h92v85q0 36 12 64t32.5 47t46.5 28.5t55 9.5q27 0 46.5 -5.5t32.5 -13.5l-18 -56q-11 7 -25.5 11.5t-33.5 4.5q-34 0 -59 -24.5t-25 -71.5v-79h220v78q0 35 12 63.5
t32.5 48t49 30t61.5 10.5h193v-720h-64z" />
    <glyph glyph-name="f_f_t" unicode="fft" horiz-adv-x="909" 
d="M686 432h-220v-432h-64v432h-220v-432h-64v432h-92v58h92v85q0 36 12 64t32.5 47t46.5 28.5t55 9.5q27 0 46.5 -5.5t32.5 -13.5l-18 -56q-11 7 -25.5 11.5t-33.5 4.5q-34 0 -59 -24.5t-25 -71.5v-79h220v85q0 36 12 64t32.5 47t46.5 28.5t55 9.5q27 0 46.5 -5.5
t32.5 -13.5l-18 -56q-11 7 -25.5 11.5t-33.5 4.5q-34 0 -59 -24.5t-25 -71.5v-79h220v150h64v-150h122v-58h-122v-295q0 -43 21 -64q20 -22 48 -22q15 0 25.5 2.5t23.5 8.5l20 -55q-17 -8 -34.5 -11.5t-41.5 -3.5q-52 0 -88 33q-18 17 -28 41.5t-10 59.5v306z" />
    <glyph glyph-name="f_h" unicode="fh" horiz-adv-x="877" 
d="M402 662h-129q-39 0 -65 -24t-26 -71v-77h128v-58h-128v-432h-64v432h-92v58h92v78q0 35 12 63.5t32.5 48t49 30t61.5 10.5h193v-246l-4 -78h4q23 48 68 79t108 31q46 0 80 -15t56.5 -41.5t33 -63t10.5 -79.5v-307h-64v296q0 77 -35 114.5t-96 37.5q-35 0 -64 -16
t-51 -42t-34 -61t-12 -72v-257h-64v662z" />
    <glyph glyph-name="f_j" unicode="fj" horiz-adv-x="531" 
d="M182 432v-432h-64v432h-92v58h92v85q0 36 12 64t32.5 47t46.5 28.5t55 9.5q27 0 46.5 -5.5t32.5 -13.5l-18 -56q-11 7 -25.5 11.5t-33.5 4.5q-34 0 -59 -24.5t-25 -71.5v-79h284v-579q0 -67 -32 -102t-91 -35q-29 0 -49 10l16 55q13 -7 31 -7q32 0 46.5 21t14.5 59v520
h-220zM434 610q-21 0 -35.5 14.5t-14.5 34.5q0 21 14.5 35.5t35.5 14.5q20 0 34.5 -14.5t14.5 -35.5q0 -20 -14.5 -34.5t-34.5 -14.5z" />
    <glyph glyph-name="f_k" unicode="fk" horiz-adv-x="811" 
d="M402 662h-129q-39 0 -65 -24t-26 -71v-77h128v-58h-128v-432h-64v432h-92v58h92v78q0 35 12 63.5t32.5 48t49 30t61.5 10.5h193v-479l248 249h81v-4l-184 -185l202 -297v-4h-75l-173 256l-99 -99v-157h-64v662z" />
    <glyph glyph-name="f_t" unicode="ft" horiz-adv-x="625" 
d="M402 432h-220v-432h-64v432h-92v58h92v85q0 36 12 64t32.5 47t46.5 28.5t55 9.5q27 0 46.5 -5.5t32.5 -13.5l-18 -56q-11 7 -25.5 11.5t-33.5 4.5q-34 0 -59 -24.5t-25 -71.5v-79h220v150h64v-150h122v-58h-122v-295q0 -43 21 -64q20 -22 48 -22q15 0 25.5 2.5t23.5 8.5
l20 -55q-17 -8 -34.5 -11.5t-41.5 -3.5q-52 0 -88 33q-18 17 -28 41.5t-10 59.5v306z" />
    <glyph glyph-name="r_f" unicode="rf" horiz-adv-x="690" 
d="M120 407h4q18 45 56 71t86 26q12 0 19.5 -0.5t16.5 -2.5v-64q-19 4 -42 4q-29 0 -54 -12.5t-43 -34.5t-28.5 -52.5t-10.5 -66.5v-275h-64v490h60v-83zM607 724q27 0 46.5 -5.5t32.5 -13.5l-18 -56q-11 7 -25.5 11.5t-33.5 4.5q-34 0 -59 -24.5t-25 -71.5v-79h128v-58
h-128v-432h-64v432h-92v58h92v85q0 36 12 64t32.5 47t46.5 28.5t55 9.5z" />
    <glyph glyph-name="r_f_f" unicode="rff" horiz-adv-x="974" 
d="M891 724q27 0 46.5 -5.5t32.5 -13.5l-18 -56q-11 7 -25.5 11.5t-33.5 4.5q-34 0 -59 -24.5t-25 -71.5v-79h128v-58h-128v-432h-64v432h-220v-432h-64v432h-92v58h92v85q0 36 12 64t32.5 47t46.5 28.5t55 9.5q27 0 46.5 -5.5t32.5 -13.5l-18 -56q-11 7 -25.5 11.5
t-33.5 4.5q-34 0 -59 -24.5t-25 -71.5v-79h220v85q0 36 12 64t32.5 47t46.5 28.5t55 9.5zM120 407h4q18 45 56 71t86 26q12 0 19.5 -0.5t16.5 -2.5v-64q-19 4 -42 4q-29 0 -54 -12.5t-43 -34.5t-28.5 -52.5t-10.5 -66.5v-275h-64v490h60v-83z" />
    <glyph glyph-name="r_t" unicode="rt" horiz-adv-x="681" 
d="M120 407h4q18 45 56 71t86 26q12 0 19.5 -0.5t16.5 -2.5v-64q-19 4 -42 4q-29 0 -54 -12.5t-43 -34.5t-28.5 -52.5t-10.5 -66.5v-275h-64v490h60v-83zM458 432h-89v58h89v150h64v-150h122v-58h-122v-295q0 -43 21 -64q20 -22 48 -22q15 0 25.5 2.5t23.5 8.5l20 -55
q-17 -8 -34.5 -11.5t-41.5 -3.5q-52 0 -88 33q-18 17 -28 41.5t-10 59.5v306z" />
    <glyph glyph-name="t_f" unicode="tf" horiz-adv-x="628" 
d="M545 724q27 0 46.5 -5.5t32.5 -13.5l-18 -56q-11 7 -25.5 11.5t-33.5 4.5q-34 0 -59 -24.5t-25 -71.5v-79h128v-58h-128v-432h-64v432h-220v-295q0 -43 21 -64q20 -22 48 -22q15 0 25.5 2.5t23.5 8.5l20 -55q-17 -8 -34.5 -11.5t-41.5 -3.5q-52 0 -88 33q-18 17 -28 41.5
t-10 59.5v306h-89v58h89v150h64v-150h220v85q0 36 12 64t32.5 47t46.5 28.5t55 9.5z" />
    <glyph glyph-name="t_t" unicode="tt" horiz-adv-x="626" 
d="M179 137q0 -43 21 -64q20 -22 48 -22q15 0 25.5 2.5t23.5 8.5l20 -55q-17 -8 -34.5 -11.5t-41.5 -3.5q-52 0 -88 33q-18 17 -28 41.5t-10 59.5v306h-89v58h89v150h64v-150h224v150h64v-150h122v-58h-122v-295q0 -43 21 -64q20 -22 48 -22q15 0 25.5 2.5t23.5 8.5l20 -55
q-17 -8 -34.5 -11.5t-41.5 -3.5q-52 0 -88 33q-18 17 -28 41.5t-10 59.5v306h-224v-295z" />
    <glyph glyph-name=".notdef" horiz-adv-x="566" 
d="M77 716h412v-716h-412v716zM127 47h312v622h-312v-622z" />
    <glyph glyph-name=".null" horiz-adv-x="0" 
 />
    <glyph glyph-name="uni000D" horiz-adv-x="0" 
d="M0 0z" />
    <glyph glyph-name="NULL" horiz-adv-x="0" 
d="M0 0z" />
    <glyph glyph-name="NULL" horiz-adv-x="0" 
d="M0 0z" />
    <glyph glyph-name="nonmarkingreturn" unicode="&#xd;" horiz-adv-x="333" 
 />
    <glyph glyph-name="space" unicode=" " horiz-adv-x="235" 
d="M0 0z" />
    <glyph glyph-name="exclam" unicode="!" horiz-adv-x="205" 
d="M103 -6q-22 0 -37 15t-15 37t15 36.5t37 14.5t36.5 -14.5t14.5 -36.5t-14.5 -37t-36.5 -15zM71 425v291h64v-291l-9 -243h-46z" />
    <glyph glyph-name="quotedbl" unicode="&#x22;" horiz-adv-x="281" 
d="M176 510v206h58v-206h-58zM47 510v206h58v-206h-58z" />
    <glyph glyph-name="numbersign" unicode="#" horiz-adv-x="615" 
d="M119 0l32 213h-126l10 54h124l23 159h-124l9 54h123l31 204h58l-31 -204h158l31 204h58l-31 -204h126l-9 -54h-125l-23 -159h125l-9 -54h-124l-32 -213h-58l32 213h-158l-32 -213h-58zM217 267h158l23 159h-158z" />
    <glyph glyph-name="dollar" unicode="$" horiz-adv-x="525" 
d="M240 -15q-33 3 -66.5 16.5t-62.5 36t-51.5 54.5t-33.5 73l57 24q17 -58 59.5 -96.5t97.5 -46.5v281q-42 17 -76.5 36t-59 42t-37.5 52.5t-13 67.5q0 33 13 63.5t37 54t58.5 38.5t77.5 18v85h54v-86q39 -5 68 -19t50 -33t34.5 -41t20.5 -41l-58 -24q-11 31 -38.5 59.5
t-76.5 36.5v-264q38 -16 72.5 -34.5t60.5 -41.5t41 -53t15 -69q0 -44 -15.5 -77.5t-42 -56.5t-60.5 -36.5t-71 -17.5v-86h-54v85zM419 171q0 24 -9 43t-25 34.5t-39.5 29t-51.5 26.5v-257q55 7 90 38.5t35 85.5zM118 526q0 -48 32 -77.5t90 -54.5v244q-54 -5 -88 -34.5
t-34 -77.5z" />
    <glyph glyph-name="percent" unicode="%" horiz-adv-x="810" 
d="M161 25l445 662l43 -28l-445 -663zM201 358q-36 0 -66.5 14t-53 37t-35 54t-12.5 66q0 34 12.5 65.5t35 54.5t53 37t66.5 14t66.5 -14t53 -37t35 -54.5t12.5 -65.5q0 -35 -12.5 -66t-35 -54t-53 -37t-66.5 -14zM201 407q24 0 45 9t36.5 25.5t24 39t8.5 48.5
q0 27 -8.5 49.5t-24 39t-36.5 25.5t-45 9t-45 -9t-36 -25.5t-24 -39t-9 -49.5q0 -26 9 -48.5t24 -39t36 -25.5t45 -9zM609 -16q-36 0 -66.5 14t-53 37t-35 54t-12.5 66q0 34 12.5 65.5t35 54.5t53 37t66.5 14t66.5 -14t53 -37t35 -54.5t12.5 -65.5q0 -35 -12.5 -66t-35 -54
t-53 -37t-66.5 -14zM609 33q24 0 45 9t36.5 25.5t24 39t8.5 48.5q0 27 -8.5 49.5t-24 39t-36.5 25.5t-45 9t-45 -9t-36 -25.5t-24 -39t-9 -49.5q0 -26 9 -48.5t24 -39t36 -25.5t45 -9z" />
    <glyph glyph-name="ampersand" unicode="&#x26;" horiz-adv-x="604" 
d="M495 113l71 -92l-49 -37l-57 75q-34 -38 -75 -56.5t-95 -18.5t-100 19.5t-79.5 52.5t-52.5 78t-19 96q0 66 36 122t93 91l-6 8q-20 26 -35 57t-15 66q0 33 12.5 61.5t34.5 50t51.5 34t64.5 12.5q31 0 56.5 -10t44.5 -26.5t32 -39t21 -46.5l-55 -29q-5 16 -13.5 32.5
t-20.5 29t-28 20.5t-37 8q-45 0 -72 -27t-27 -69q0 -23 8.5 -45t22.5 -39l250 -327l74 130l51 -31zM291 43q42 0 74.5 16.5t57.5 47.5l-220 289q-45 -25 -74.5 -68t-29.5 -94q0 -41 14.5 -76t40.5 -60.5t61 -40t76 -14.5z" />
    <glyph glyph-name="quotesingle" unicode="'" horiz-adv-x="152" 
d="M47 510v206h58v-206h-58z" />
    <glyph glyph-name="parenleft" unicode="(" horiz-adv-x="315" 
d="M246 -136q-30 34 -61.5 82t-57.5 106.5t-42.5 126.5t-16.5 143q0 76 16.5 144t42.5 126.5t57.5 105.5t61.5 82l48 -34q-32 -38 -61.5 -84.5t-52 -100.5t-36 -114t-13.5 -125t13.5 -125t36 -114t52 -101t61.5 -84z" />
    <glyph glyph-name="parenright" unicode=")" horiz-adv-x="315" 
d="M21 -102q32 37 61.5 84t52 101t36 114t13.5 125t-13.5 125t-36 114t-52 100.5t-61.5 84.5l48 34q30 -35 61.5 -82t57.5 -105.5t42.5 -126.5t16.5 -144q0 -75 -16.5 -143t-42.5 -126.5t-57.5 -106.5t-61.5 -82z" />
    <glyph glyph-name="asterisk" unicode="*" horiz-adv-x="413" 
d="M61 633l110 -39l8 4v118h56v-118l7 -4l111 39l18 -53l-113 -39l-2 -9l75 -102l-46 -33l-74 102h-9l-73 -102l-46 33l75 102l-3 9l-112 39z" />
    <glyph glyph-name="plus" unicode="+" horiz-adv-x="544" 
d="M299 298h186v-54h-186v-185h-54v185h-185v54h185v186h54v-186z" />
    <glyph glyph-name="comma" unicode="," horiz-adv-x="217" 
d="M47 -82l51 81q-13 4 -24 16t-11 31q0 22 14.5 36.5t36.5 14.5t37 -14.5t15 -36.5q0 -14 -6 -25.5t-14 -24.5l-66 -99z" />
    <glyph glyph-name="hyphen" unicode="-" horiz-adv-x="429" 
d="M60 337h310v-54h-310v54z" />
    <glyph glyph-name="period" unicode="." horiz-adv-x="205" 
d="M103 -6q-22 0 -37 15t-15 37t15 36.5t37 14.5t36.5 -14.5t14.5 -36.5t-14.5 -37t-36.5 -15z" />
    <glyph glyph-name="slash" unicode="/" horiz-adv-x="415" 
d="M29 0l297 716h61l-297 -716h-61z" />
    <glyph glyph-name="zero" unicode="0" horiz-adv-x="630" 
d="M315 -16q-62 0 -111.5 28t-84.5 76t-53.5 113.5t-18.5 140.5t18.5 140.5t53.5 114t84.5 76t111.5 27.5t111.5 -27.5t84.5 -76t53.5 -114t18.5 -140.5t-18.5 -140.5t-53.5 -113.5t-84.5 -76t-111.5 -28zM315 45q47 0 84.5 23t64 63t40.5 94t14 117t-14 117.5t-40.5 94
t-64 62.5t-84.5 23t-84.5 -23t-64 -62.5t-40.5 -94t-14 -117.5t14 -117t40.5 -94t64 -63t84.5 -23z" />
    <glyph glyph-name="one" unicode="1" horiz-adv-x="351" 
d="M198 0v605l-130 -62l-25 53l178 88h41v-684h-64z" />
    <glyph glyph-name="two" unicode="2" horiz-adv-x="512" 
d="M43 0v65l101 101q21 21 42 42.5t41 42.5t38 39q17 18 29 32q27 29 45.5 51.5t30 43t17 41.5t5.5 47q0 24 -9 48t-27 43t-45 31t-64 12q-33 0 -58 -11t-42 -28t-27.5 -36.5t-14.5 -36.5l-59 24q6 21 21 47t39.5 48.5t60 38t83.5 15.5t86.5 -16t65 -43t41 -62t14.5 -73
q0 -35 -9.5 -65.5t-25.5 -58t-36.5 -52.5t-42.5 -48l-23 -23q-14 -15 -31 -32l-36 -36q-19 -20 -37 -38q-43 -43 -91 -92h340v-61h-422z" />
    <glyph glyph-name="three" unicode="3" horiz-adv-x="520" 
d="M254 -16q-31 0 -64 9.5t-62.5 30t-53 53t-35.5 77.5l58 24q17 -63 59 -98t98 -35q34 0 63 11t50.5 30.5t33.5 46.5t12 59q0 30 -12.5 55.5t-34 44.5t-50.5 29.5t-63 10.5h-58v60h57q58 0 97.5 33t39.5 92q0 26 -10.5 48.5t-29 39t-43.5 25.5t-54 9q-31 0 -54.5 -9.5
t-40.5 -24.5t-27.5 -34t-16.5 -37l-58 25q7 23 22.5 48t40 45.5t58 34t76.5 13.5q44 0 81 -14t64 -38t42 -57.5t15 -72.5q0 -30 -8.5 -54.5t-22.5 -43t-32 -32t-37 -22.5v-4q51 -19 87.5 -62t36.5 -107q0 -46 -17.5 -84.5t-48 -66t-71.5 -43t-87 -15.5z" />
    <glyph glyph-name="four" unicode="4" horiz-adv-x="579" 
d="M380 0v157h-337v44l329 483h72v-467h88v-60h-88v-157h-64zM380 590h-4l-255 -373h259v373z" />
    <glyph glyph-name="five" unicode="5" horiz-adv-x="550" 
d="M267 -16q-36 0 -71 11t-65 34t-53 57.5t-35 81.5l57 23q18 -70 61 -108t104 -38q38 0 69.5 12t54 34.5t34.5 53t12 68.5q0 37 -12 67.5t-33.5 53t-52 35t-67.5 12.5q-39 0 -74.5 -17.5t-58.5 -49.5l-69 30l44 340h342v-61h-288l-33 -238l4 -1q25 25 61 40.5t83 15.5
q45 0 84.5 -17t69 -47t47 -71.5t17.5 -90.5q0 -48 -17 -90t-47.5 -73t-73.5 -49t-94 -18z" />
    <glyph glyph-name="six" unicode="6" horiz-adv-x="548" 
d="M289 434q41 0 80 -16.5t69.5 -46t49 -70.5t18.5 -89q0 -45 -18 -86.5t-49 -73t-73.5 -50t-90.5 -18.5q-54 0 -97 19.5t-73 52t-46 73.5t-16 84q0 61 26 113t61 104l180 270l52 -36l-182 -259l2 -2q20 14 48 22.5t59 8.5zM275 45q34 0 64.5 12.5t53 35t35.5 53t13 65.5
t-13 65t-35.5 52.5t-53 35t-64.5 12.5q-35 0 -65 -12.5t-53 -35t-36 -52.5t-13 -65t13 -65.5t35.5 -53t53 -35t65.5 -12.5z" />
    <glyph glyph-name="seven" unicode="7" horiz-adv-x="516" 
d="M85 13l323 610h-365l2 61h429v-66l-332 -634z" />
    <glyph glyph-name="eight" unicode="8" horiz-adv-x="541" 
d="M162 363q-41 23 -68 62.5t-27 87.5q0 40 15 74t42 59t64.5 39.5t82.5 14.5q44 0 81.5 -14.5t64.5 -39.5t42.5 -59t15.5 -74q0 -48 -27.5 -87.5t-67.5 -62.5v-4q51 -24 85 -67t34 -106q0 -42 -17 -79t-47.5 -64.5t-72.5 -43t-91 -15.5q-50 0 -92 15.5t-72 43t-47 64.5
t-17 79q0 63 33.5 106t85.5 67v4zM108 189q0 -32 13 -58.5t35 -45.5t52 -29.5t63 -10.5t62.5 10.5t52 29.5t35.5 45.5t13 58.5t-12.5 58t-34.5 45t-52 29t-64 10t-64 -10t-52 -29t-34.5 -45t-12.5 -58zM132 516q0 -59 39 -93t100 -34q60 0 99.5 34t39.5 93q0 29 -11.5 52
t-30.5 38.5t-44 24t-53 8.5t-53.5 -8.5t-44.5 -24t-30 -38.5t-11 -52z" />
    <glyph glyph-name="nine" unicode="9" horiz-adv-x="548" 
d="M260 250q-41 0 -80 16.5t-69.5 46t-49 70.5t-18.5 89q0 45 18 86.5t49 73t73.5 50t90.5 18.5q54 0 97 -20t73 -52t46 -73t16 -84q0 -61 -26 -113t-61 -104l-181 -270l-51 36l181 259l-2 2q-20 -14 -47.5 -22.5t-58.5 -8.5zM274 639q-35 0 -65 -12.5t-53 -35t-36 -53
t-13 -65.5t13.5 -65t36 -52.5t53 -35t64.5 -12.5t64.5 12.5t53 35t36 52.5t13.5 65t-13 65.5t-35.5 53t-53 35t-65.5 12.5z" />
    <glyph glyph-name="colon" unicode=":" horiz-adv-x="205" 
d="M103 -6q-22 0 -37 15t-15 37t15 36.5t37 14.5t36.5 -14.5t14.5 -36.5t-14.5 -37t-36.5 -15zM103 393q-22 0 -37 15t-15 37t15 36.5t37 14.5t36.5 -14.5t14.5 -36.5t-14.5 -37t-36.5 -15z" />
    <glyph glyph-name="semicolon" unicode=";" horiz-adv-x="203" 
d="M101 393q-22 0 -37 15t-15 37t15 36.5t37 14.5t36.5 -14.5t14.5 -36.5t-14.5 -37t-36.5 -15zM34 -72l51 81q-14 3 -25 15.5t-11 30.5q0 22 15 37t37 15t36.5 -15t14.5 -37q0 -14 -5.5 -25t-13.5 -24l-66 -100z" />
    <glyph glyph-name="less" unicode="&#x3c;" horiz-adv-x="490" 
d="M60 247v48l366 180v-61l-294 -141v-4l294 -141v-61z" />
    <glyph glyph-name="equal" unicode="=" horiz-adv-x="556" 
d="M60 441h437v-54h-437v54zM60 251h437v-54h-437v54z" />
    <glyph glyph-name="greater" unicode="&#x3e;" horiz-adv-x="490" 
d="M64 67v61l294 141v4l-294 141v61l366 -180v-48z" />
    <glyph glyph-name="question" unicode="?" horiz-adv-x="485" 
d="M202 233q0 33 5 57.5t15.5 44.5t27.5 38.5t42 41.5q37 34 57 63t20 70q0 54 -35.5 88.5t-97.5 34.5q-30 0 -52.5 -9t-39 -24t-28 -34.5t-18.5 -40.5l-59 25q8 24 23.5 49.5t39.5 46.5t57 34.5t76 13.5q46 0 83 -14.5t63 -39t39.5 -58t13.5 -71.5q0 -32 -9 -57.5t-23 -46
t-31 -37t-33 -31.5q-19 -17 -32.5 -32.5t-22 -32t-12.5 -36.5t-4 -46v-48h-65v51zM234 -6q-22 0 -36.5 15t-14.5 37t14.5 36.5t36.5 14.5t37 -14.5t15 -36.5t-15 -37t-37 -15z" />
    <glyph glyph-name="at" unicode="@" horiz-adv-x="869" 
d="M436 690q82 0 152.5 -30t122.5 -82.5t81.5 -123t29.5 -150.5q0 -45 -9.5 -83t-27.5 -65.5t-44.5 -43.5t-60.5 -16q-42 0 -71 25t-40 60q-24 -40 -62 -62.5t-87 -22.5q-40 0 -74.5 15t-60 42t-40.5 64.5t-15 82.5t15 82.5t40.5 64.5t60 42t72.5 15q45 0 81 -20.5t57 -51.5
h4v58h53v-261q0 -35 17.5 -60t52.5 -25q23 0 39.5 13.5t27 36t15 51t4.5 59.5q0 69 -26 130t-71 106t-105.5 71t-130.5 26q-69 0 -129.5 -26t-106 -71t-71.5 -105.5t-26 -130.5q0 -69 26 -130t71.5 -106t106 -71t129.5 -26q36 0 68 7t61 23l21 -51q-35 -16 -71.5 -24
t-78.5 -8q-83 0 -154 30.5t-123.5 83t-82 122.5t-29.5 150q0 79 30 149.5t82.5 123t123.5 83t153 30.5zM424 150q28 0 53 10.5t43.5 30t29.5 47t11 62.5t-11 63t-30 47.5t-44 29.5t-52 10t-52 -10.5t-43.5 -30t-30 -47t-11.5 -62.5t11 -62.5t29.5 -47t43.5 -30t53 -10.5z
" />
    <glyph glyph-name="A" unicode="A" horiz-adv-x="653" 
d="M290 716h74l277 -716h-70l-78 207h-332l-78 -207h-70zM470 267l-141 371h-4l-141 -371h286z" />
    <glyph glyph-name="B" unicode="B" horiz-adv-x="587" 
d="M77 716h253q40 0 76 -14t63.5 -39t43.5 -59.5t16 -75.5q0 -54 -28 -94t-74 -62v-4q55 -17 90.5 -62.5t35.5 -105.5q0 -44 -17 -81t-45.5 -63.5t-67 -41t-80.5 -14.5h-266v716zM329 396q31 0 56 11t43 29t27.5 41.5t9.5 48.5t-9.5 48t-27 41t-41.5 29t-54 11h-192v-259
h188zM350 61q29 0 54 11t44 30t29.5 44t10.5 53t-11 52.5t-30 43.5t-45 30t-56 11h-205v-275h209z" />
    <glyph glyph-name="C" unicode="C" horiz-adv-x="725" 
d="M686 114q-48 -58 -117.5 -94t-161.5 -36q-79 0 -146 29t-116 79.5t-77 119t-28 146.5t28 146.5t77 119t116 79.5t146 29q83 0 147 -30.5t112 -86.5l-46 -44q-82 100 -213 100q-62 0 -117 -23t-96 -64t-65 -98.5t-24 -127.5t24 -127.5t65 -99t96 -64t117 -22.5
q75 0 132 30t101 83z" />
    <glyph glyph-name="D" unicode="D" horiz-adv-x="685" 
d="M77 716h208q84 0 151 -26.5t113.5 -73.5t71 -113t24.5 -145t-24.5 -145t-71 -113t-113.5 -73.5t-151 -26.5h-208v716zM285 61q67 0 121.5 20t93 58t59.5 93t21 126q0 70 -21 125.5t-59.5 93.5t-93 58t-121.5 20h-144v-594h144z" />
    <glyph glyph-name="E" unicode="E" horiz-adv-x="537" 
d="M141 655v-267h308v-60h-308v-267h340v-61h-404v716h404v-61h-340z" />
    <glyph glyph-name="F" unicode="F" horiz-adv-x="515" 
d="M77 716h404v-61h-340v-275h308v-60h-308v-320h-64v716z" />
    <glyph glyph-name="G" unicode="G" horiz-adv-x="798" 
d="M415 375h337q2 -12 3 -23.5t1 -23.5q0 -64 -20 -125.5t-65 -110.5q-48 -51 -113.5 -79.5t-148.5 -28.5q-77 0 -144 28.5t-117 79t-79 118.5t-29 148q0 79 29 147.5t79 119t117 79t144 28.5q79 0 147 -27.5t113 -78.5l-47 -47q-37 45 -92 68.5t-120 23.5
q-60 0 -115.5 -22.5t-97.5 -63.5t-67 -98.5t-25 -128.5t25.5 -128.5t67.5 -98.5t97 -63.5t115 -22.5q78 0 131.5 26t86.5 64t47.5 82t16.5 98h-277v60z" />
    <glyph glyph-name="H" unicode="H" horiz-adv-x="682" 
d="M77 716h64v-320h400v320h64v-716h-64v336h-400v-336h-64v716z" />
    <glyph glyph-name="I" unicode="I" horiz-adv-x="218" 
d="M77 716h64v-716h-64v716z" />
    <glyph glyph-name="J" unicode="J" horiz-adv-x="514" 
d="M240 -16q-76 0 -133.5 43t-80.5 124l58 24q23 -73 64 -101.5t92 -28.5q66 0 106 45t40 123v503h64v-497q0 -57 -16 -100.5t-44 -73.5t-66.5 -45.5t-83.5 -15.5z" />
    <glyph glyph-name="K" unicode="K" horiz-adv-x="595" 
d="M77 716h64v-399h4l344 399h81v-4l-262 -303l285 -405v-4h-77l-252 359l-123 -142v-217h-64v716z" />
    <glyph glyph-name="L" unicode="L" horiz-adv-x="491" 
d="M77 716h64v-655h324v-61h-388v716z" />
    <glyph glyph-name="M" unicode="M" horiz-adv-x="825" 
d="M77 716h63l271 -473h4l270 473h63v-716h-63v477l4 120h-4l-254 -445h-37l-254 445h-4l4 -120v-477h-63v716z" />
    <glyph glyph-name="N" unicode="N" horiz-adv-x="690" 
d="M77 716h83l389 -604h4l-4 138v466h64v-716h-66l-406 631h-4l4 -138v-493h-64v716z" />
    <glyph glyph-name="O" unicode="O" horiz-adv-x="809" 
d="M405 -16q-79 0 -146 29.5t-115.5 80.5t-76 119t-27.5 145t27.5 145t76 119t115.5 80.5t146 29.5q78 0 145 -29.5t116 -80.5t76.5 -119t27.5 -145t-27.5 -145t-76.5 -119t-116 -80.5t-145 -29.5zM405 45q61 0 116 23t95.5 64.5t64.5 99t24 126.5t-24 126.5t-64.5 99
t-95.5 64.5t-116 23q-62 0 -116.5 -23t-95.5 -64.5t-64.5 -99t-23.5 -126.5t23.5 -126.5t64.5 -99t95.5 -64.5t116.5 -23z" />
    <glyph glyph-name="P" unicode="P" horiz-adv-x="557" 
d="M77 0v716h232q46 0 86.5 -15t70.5 -42.5t47.5 -66t17.5 -85.5t-17.5 -85.5t-47.5 -66t-70.5 -42.5t-86.5 -15h-168v-298h-64zM312 359q33 0 61 11.5t48.5 31.5t32.5 47t12 58t-12 58.5t-32.5 47t-48.5 31t-61 11.5h-171v-296h171z" />
    <glyph glyph-name="Q" unicode="Q" horiz-adv-x="809" 
d="M588 33q-40 -23 -86 -36t-97 -13q-79 0 -146 29.5t-115.5 80.5t-76 119t-27.5 145t27.5 145t76 119t115.5 80.5t146 29.5q78 0 145 -29.5t116 -80.5t76.5 -119t27.5 -145q0 -89 -35.5 -164t-97.5 -127l47 -72l-49 -32zM405 45q41 0 78 10.5t70 29.5l-95 142l50 34
l93 -141q48 42 76 102.5t28 135.5q0 69 -24 126.5t-64.5 99t-95.5 64.5t-116 23q-62 0 -116.5 -23t-95.5 -64.5t-64.5 -99t-23.5 -126.5t23.5 -126.5t64.5 -99t95.5 -64.5t116.5 -23z" />
    <glyph glyph-name="R" unicode="R" horiz-adv-x="569" 
d="M77 716h237q45 0 84.5 -15.5t69 -43t46.5 -66t17 -84.5q0 -38 -13.5 -71.5t-37 -59.5t-55.5 -44.5t-69 -26.5l-2 -3l204 -298v-4h-73l-202 298h-142v-298h-64v716zM305 358q32 0 61 11t51.5 30.5t35.5 47t13 60.5q0 31 -12 58.5t-32.5 47t-48.5 31t-61 11.5h-171v-297
h164z" />
    <glyph glyph-name="S" unicode="S" horiz-adv-x="542" 
d="M270 -16q-39 0 -77 12.5t-71 37t-58.5 60.5t-37.5 83l60 25q9 -34 26.5 -63t41.5 -50t54 -32.5t64 -11.5q33 0 63 9.5t52.5 28t35.5 45t13 59.5q0 57 -42 92.5t-122 63.5l-45 16q-32 11 -63 26.5t-55.5 37.5t-39.5 52.5t-15 71.5q0 37 15.5 71t43.5 59t67 40t85 15
q49 0 86 -14.5t63.5 -36t42 -46.5t22.5 -46l-60 -25q-5 18 -16.5 36.5t-30.5 34.5t-45 26t-61 10q-30 0 -56.5 -9t-47 -25.5t-32 -39.5t-11.5 -50q0 -26 10.5 -45.5t29.5 -35t45 -28t57 -23.5l46 -17q40 -14 75.5 -32t61.5 -42.5t41.5 -57.5t15.5 -76q0 -54 -21 -93t-54 -64
t-74.5 -37t-81.5 -12z" />
    <glyph glyph-name="T" unicode="T" horiz-adv-x="521" 
d="M229 0v655h-203v61h470v-61h-203v-655h-64z" />
    <glyph glyph-name="U" unicode="U" horiz-adv-x="635" 
d="M318 -16q-58 0 -105.5 20t-81.5 57t-52.5 88t-18.5 113v454h64v-458q0 -45 13 -84t37.5 -67.5t60.5 -45t83 -16.5q46 0 82 16.5t61 45t38 67.5t13 84v458h64v-454q0 -62 -17.5 -113t-51 -88t-81.5 -57t-108 -20z" />
    <glyph glyph-name="V" unicode="V" horiz-adv-x="613" 
d="M13 716h71l217 -616h4l225 616h71l-268 -716h-62z" />
    <glyph glyph-name="W" unicode="W" horiz-adv-x="908" 
d="M694 0h-67l-167 520h-4l-167 -520h-67l-205 716h67l171 -609h4l167 513h64l167 -513h4l163 609h67z" />
    <glyph glyph-name="X" unicode="X" horiz-adv-x="612" 
d="M265 370l-235 346h79l195 -294h4l197 294h77l-234 -346l247 -370h-77l-210 315h-4l-210 -315h-77z" />
    <glyph glyph-name="Y" unicode="Y" horiz-adv-x="579" 
d="M260 0v324l-247 392h75l202 -326h4l198 326h75l-243 -392v-324h-64z" />
    <glyph glyph-name="Z" unicode="Z" horiz-adv-x="553" 
d="M34 69l400 586h-384v61h456v-69l-400 -586h404v-61h-476v69z" />
    <glyph glyph-name="bracketleft" unicode="[" horiz-adv-x="304" 
d="M77 792h193v-53h-135v-810h135v-53h-193v916z" />
    <glyph glyph-name="backslash" unicode="\" horiz-adv-x="415" 
d="M326 0l-297 716h61l297 -716h-61z" />
    <glyph glyph-name="bracketright" unicode="]" horiz-adv-x="304" 
d="M227 -124h-193v53h135v810h-135v53h193v-916z" />
    <glyph glyph-name="asciicircum" unicode="^" horiz-adv-x="451" 
d="M370 410l-142 242h-4l-142 -242h-69l187 306h52l187 -306h-69z" />
    <glyph glyph-name="underscore" unicode="_" horiz-adv-x="468" 
d="M1 -162h466v-54h-466v54z" />
    <glyph glyph-name="grave" unicode="`" horiz-adv-x="390" 
d="M170 592l-67 124h73l52 -124h-58z" />
    <glyph glyph-name="a" unicode="a" horiz-adv-x="506" 
d="M393 87h-4q-25 -43 -69.5 -73t-103.5 -30q-40 0 -74 12.5t-59 34t-39 51.5t-14 65q0 40 16.5 71t45 52t66 31.5t79.5 10.5q50 0 90 -11.5t66 -26.5v30q0 33 -12 60t-32 46t-47.5 29t-57.5 10q-45 0 -80 -19.5t-58 -56.5l-56 35q29 45 79 71.5t113 26.5q49 0 88 -14.5
t67 -41t43 -63t15 -81.5v-306h-62v87zM393 218q-30 18 -65.5 29.5t-80.5 11.5q-33 0 -60.5 -8t-48 -22.5t-32 -35.5t-11.5 -47q0 -24 10.5 -43.5t28.5 -33t40.5 -21t46.5 -7.5q33 0 64 14t55 38.5t38.5 56.5t14.5 68z" />
    <glyph glyph-name="b" unicode="b" horiz-adv-x="569" 
d="M60 716h64v-243l-4 -68h4q12 20 29 38.5t40 32.5t52 22t64 8q47 0 89 -19.5t73.5 -54t50 -82.5t18.5 -105t-18.5 -105t-50 -82.5t-73.5 -54t-89 -19.5q-35 0 -64 8.5t-52 22.5t-40 32.5t-29 38.5h-4v-86h-60v716zM298 42q35 0 67.5 14t57 40t39 64t14.5 85t-14.5 84.5
t-39 64t-57 40.5t-67.5 14t-67.5 -13.5t-57 -39.5t-39 -64t-14.5 -86t14.5 -85.5t39 -64t57 -40t67.5 -13.5z" />
    <glyph glyph-name="c" unicode="c" horiz-adv-x="513" 
d="M488 124q-13 -30 -32.5 -55.5t-45.5 -44t-60 -29.5t-75 -11q-53 0 -98 20t-77.5 55t-51 82.5t-18.5 103.5t18.5 103.5t51 82.5t77.5 55t98 20q41 0 74.5 -10.5t60 -29.5t45.5 -44t31 -55l-57 -25q-22 51 -61 78.5t-96 27.5q-34 0 -66 -14.5t-57 -41t-40 -64t-15 -83.5
t15 -83.5t40 -64t57 -41t66 -14.5q57 0 97 27.5t62 78.5z" />
    <glyph glyph-name="d" unicode="d" horiz-adv-x="569" 
d="M450 86h-4q-12 -20 -29 -38.5t-40 -32.5t-52 -22.5t-64 -8.5q-47 0 -89 19.5t-73.5 54t-50 82.5t-18.5 105t18.5 105t50 82.5t73.5 54t89 19.5q70 0 116 -30t69 -71h4l-4 68v243h64v-716h-60v86zM272 42q35 0 67.5 13.5t57 40t39 64t14.5 85.5t-14.5 86t-39 64t-57 39.5
t-67.5 13.5t-67.5 -14t-57 -40.5t-39 -64t-14.5 -84.5t14.5 -85t39 -64t57 -40t67.5 -14z" />
    <glyph glyph-name="e" unicode="e" horiz-adv-x="528" 
d="M489 116q-13 -27 -33 -51t-46.5 -42t-60.5 -28.5t-75 -10.5q-53 0 -98 19.5t-77.5 54.5t-50.5 82.5t-18 104.5q0 53 16.5 100.5t47.5 83t75 56.5t99 21q53 0 95.5 -18.5t72.5 -52t46.5 -80.5t16.5 -104v-6q-1 -3 -1 -5v-6h-403q1 -51 18 -87t43 -59.5t58 -34.5t62 -11
q62 0 98 28.5t60 72.5zM432 288q-1 24 -10 52t-28 52t-50.5 40t-77.5 16q-30 0 -58 -10.5t-50.5 -30.5t-38 -50t-20.5 -69h333z" />
    <glyph glyph-name="f" unicode="f" horiz-adv-x="347" 
d="M264 724q27 0 46.5 -5.5t32.5 -13.5l-18 -56q-11 7 -25.5 11.5t-33.5 4.5q-34 0 -59 -24.5t-25 -71.5v-79h128v-58h-128v-432h-64v432h-92v58h92v85q0 36 12 64t32.5 47t46.5 28.5t55 9.5z" />
    <glyph glyph-name="g" unicode="g" horiz-adv-x="567" 
d="M268 -232q-48 0 -84 13t-62.5 33t-43.5 45.5t-26 50.5l60 24q16 -50 58 -79t98 -29q88 0 133 51.5t45 142.5v64h-5q-23 -39 -68.5 -69.5t-111.5 -30.5q-47 0 -88.5 19.5t-73.5 54.5t-50.5 83t-18.5 104t18.5 104t50.5 83t73.5 54.5t88.5 19.5q66 0 111.5 -30t68.5 -69h5
v83h62v-474q0 -62 -18.5 -108.5t-51 -77.5t-76.5 -46.5t-94 -15.5zM270 42q34 0 66.5 13.5t57 39.5t39.5 63.5t15 86.5t-15 86.5t-39.5 63.5t-57 39.5t-66.5 13.5t-65.5 -14t-56 -40t-39.5 -63.5t-15 -85.5q0 -47 15 -85t39.5 -64t56 -40t65.5 -14z" />
    <glyph glyph-name="h" unicode="h" 
d="M60 716h64v-242l-4 -78h4q23 48 68 79t108 31q46 0 80 -15t56.5 -41.5t33 -63t10.5 -79.5v-307h-64v296q0 77 -35 114.5t-96 37.5q-35 0 -64 -16t-51 -42t-34 -61t-12 -72v-257h-64v716z" />
    <glyph glyph-name="i" unicode="i" horiz-adv-x="195" 
d="M98 610q-21 0 -35.5 14.5t-14.5 34.5q0 21 14.5 35.5t35.5 14.5q20 0 34.5 -14.5t14.5 -35.5q0 -20 -14.5 -34.5t-34.5 -14.5zM66 0v490h64v-490h-64z" />
    <glyph glyph-name="j" unicode="j" horiz-adv-x="195" 
d="M-26 -161q13 -7 31 -7q32 0 46.5 21t14.5 59v578h64v-579q0 -67 -32 -102t-91 -35q-28 0 -50 10zM98 610q-21 0 -35.5 14.5t-14.5 34.5q0 21 14.5 35.5t35.5 14.5q20 0 34.5 -14.5t14.5 -35.5q0 -20 -14.5 -34.5t-34.5 -14.5z" />
    <glyph glyph-name="k" unicode="k" horiz-adv-x="469" 
d="M60 716h64v-475l248 249h81v-4l-184 -185l202 -297v-4h-75l-173 256l-99 -99v-157h-64v716z" />
    <glyph glyph-name="l" unicode="l" horiz-adv-x="183" 
d="M60 0v716h64v-716h-64z" />
    <glyph glyph-name="m" unicode="m" horiz-adv-x="841" 
d="M60 490h60v-92h4q10 22 27 41.5t38.5 34.5t47 23.5t52.5 8.5q61 0 100 -32t53 -81q24 48 69 80.5t108 32.5q44 0 75.5 -14.5t52 -40.5t30 -62t9.5 -78v-311h-64v300q0 73 -28 110.5t-91 37.5q-33 0 -60.5 -15.5t-47 -41t-30 -59t-10.5 -69.5v-263h-64v298
q0 75 -28.5 112.5t-89.5 37.5q-34 0 -61.5 -16t-47 -43t-30 -61.5t-10.5 -71.5v-256h-64v490z" />
    <glyph glyph-name="n" unicode="n" 
d="M120 398h4q12 22 29 41.5t39.5 34.5t49.5 23.5t58 8.5q45 0 79 -14.5t56.5 -41t33.5 -63t11 -80.5v-307h-64v296q0 79 -35 115.5t-98 36.5q-35 0 -64 -15.5t-50 -42t-33 -60.5t-12 -71v-259h-64v490h60v-92z" />
    <glyph glyph-name="o" unicode="o" horiz-adv-x="554" 
d="M277 506q54 0 99.5 -20t78.5 -55t51.5 -82.5t18.5 -103.5t-18.5 -103.5t-51.5 -82.5t-78.5 -55t-99.5 -20q-53 0 -98.5 20t-78.5 55t-51.5 82.5t-18.5 103.5t18.5 103.5t51.5 82.5t78.5 55t98.5 20zM277 42q36 0 69 14.5t58.5 41t41 64t15.5 83.5t-15.5 83.5t-41 64
t-58.5 41t-69 14.5t-69 -14.5t-58.5 -41t-40.5 -64t-15 -83.5t15 -83.5t40.5 -64t58.5 -41t69 -14.5z" />
    <glyph glyph-name="p" unicode="p" horiz-adv-x="565" 
d="M56 490h60v-85h4q12 20 29 38.5t40 32.5t52 22t64 8q47 0 89 -19.5t73.5 -54t50 -82.5t18.5 -105t-18.5 -105t-50 -82.5t-73.5 -54t-89 -19.5q-35 0 -64 8.5t-52 22.5t-40 32.5t-29 38.5h-4l4 -68v-234h-64v706zM294 42q35 0 67.5 14t57 40t39 64t14.5 85t-14.5 84.5
t-39 64t-57 40.5t-67.5 14t-67.5 -13.5t-57 -39.5t-39 -64t-14.5 -86t14.5 -85.5t39 -64t57 -40t67.5 -13.5z" />
    <glyph glyph-name="q" unicode="q" horiz-adv-x="565" 
d="M446 18l4 68h-4q-12 -20 -29 -38.5t-40 -32.5t-52 -22.5t-64 -8.5q-47 0 -89 19.5t-73.5 54t-50 82.5t-18.5 105t18.5 105t50 82.5t73.5 54t89 19.5q70 0 116 -30t69 -71h4v85h60v-706h-64v234zM272 42q35 0 67.5 13.5t57 40t39 64t14.5 85.5t-14.5 86t-39 64t-57 39.5
t-67.5 13.5t-67.5 -14t-57 -40.5t-39 -64t-14.5 -84.5t14.5 -85t39 -64t57 -40t67.5 -14z" />
    <glyph glyph-name="r" unicode="r" horiz-adv-x="335" 
d="M60 0v490h60v-86h4q7 22 22.5 40.5t35 32t41 20.5t41.5 7q23 0 38 -3t29 -10l-20 -60q-20 10 -55 10q-26 0 -50 -12.5t-42 -34.5t-29 -52.5t-11 -66.5v-275h-64z" />
    <glyph glyph-name="s" unicode="s" horiz-adv-x="448" 
d="M231 -16q-40 0 -73.5 11.5t-59 31t-44 45t-28.5 53.5l57 24q20 -53 60.5 -80.5t87.5 -27.5q59 0 93 26t34 62q0 15 -5 28t-18 24.5t-35 21t-56 17.5l-68 16q-23 6 -47.5 15.5t-44.5 25t-32.5 37.5t-12.5 51q0 34 15.5 60t42 44t60.5 27.5t70 9.5q31 0 60 -7.5t53.5 -21.5
t43.5 -35.5t30 -49.5l-56 -23q-20 42 -54.5 61t-79.5 19q-22 0 -43.5 -5.5t-38.5 -16t-27.5 -26t-10.5 -34.5q0 -31 26.5 -48t74.5 -29l72 -18q75 -19 110.5 -54.5t35.5 -83.5q0 -31 -13.5 -58t-39 -47.5t-61 -32.5t-78.5 -12z" />
    <glyph glyph-name="t" unicode="t" horiz-adv-x="338" 
d="M115 432h-89v58h89v150h64v-150h122v-58h-122v-295q0 -43 21 -64q20 -22 48 -22q15 0 25.5 2.5t23.5 8.5l20 -55q-17 -8 -34.5 -11.5t-41.5 -3.5q-52 0 -88 33q-18 17 -28 41.5t-10 59.5v306z" />
    <glyph glyph-name="u" unicode="u" 
d="M416 92h-4q-12 -22 -29 -41.5t-39.5 -34.5t-50 -23.5t-58.5 -8.5q-45 0 -79 14.5t-56 41t-33 63t-11 80.5v307h64v-296q0 -78 34.5 -115t97.5 -37q35 0 64.5 16t50.5 42t33 60.5t12 71.5v258h64v-490h-60v92z" />
    <glyph glyph-name="v" unicode="v" horiz-adv-x="481" 
d="M5 490h68l167 -418h2l168 418h67l-202 -490h-70z" />
    <glyph glyph-name="w" unicode="w" horiz-adv-x="732" 
d="M504 0l-139 414l-137 -414h-62l-162 490h65l129 -403h1l134 403h68l135 -401h1l128 401h63l-162 -490h-62z" />
    <glyph glyph-name="x" unicode="x" horiz-adv-x="447" 
d="M364 0l-141 202l-139 -202h-75l177 249l-171 241h74l135 -193l133 193h76l-173 -241l179 -249h-75z" />
    <glyph glyph-name="y" unicode="y" horiz-adv-x="478" 
d="M98 -216l113 252l-206 454h71l166 -378h2l159 378h70l-309 -706h-66z" />
    <glyph glyph-name="z" unicode="z" horiz-adv-x="450" 
d="M34 54l300 378h-292v58h370v-54l-300 -378h304v-58h-382v54z" />
    <glyph glyph-name="braceleft" unicode="{" horiz-adv-x="309" 
d="M140.5 -80q-40.5 44 -40.5 114v186q0 43 -19.5 64.5t-54.5 21.5v56q35 0 54.5 22t19.5 65v186q0 69 40.5 113t112.5 44h22v-53h-18q-47 0 -73 -28.5t-26 -79.5v-186q0 -86 -62 -109v-4q62 -21 62 -108v-187q0 -51 26 -79.5t73 -28.5h18v-53h-22q-72 0 -112.5 44z" />
    <glyph glyph-name="bar" unicode="|" horiz-adv-x="212" 
d="M77 792h58v-912h-58v912z" />
    <glyph glyph-name="braceright" unicode="}" horiz-adv-x="309" 
d="M34 -124v53h18q47 0 73 28.5t26 79.5v187q0 87 62 108v4q-62 23 -62 109v186q0 51 -26 79.5t-73 28.5h-18v53h22q72 0 112.5 -44t40.5 -113v-186q0 -43 19.5 -65t54.5 -22v-56q-35 0 -54.5 -21.5t-19.5 -64.5v-186q0 -70 -40.5 -114t-112.5 -44h-22z" />
    <glyph glyph-name="asciitilde" unicode="~" horiz-adv-x="518" 
d="M370 242q-29 0 -58 11.5t-57 25.5t-54.5 25.5t-50.5 11.5q-29 0 -45.5 -19t-18.5 -45h-52q0 29 10 52t26.5 38.5t37 24t41.5 8.5q29 0 58 -11.5t57 -25.5q28 -15 54.5 -26.5t50.5 -11.5q29 0 45 19t18 45h52q0 -29 -10 -51.5t-26 -38.5t-36.5 -24t-41.5 -8z" />
    <glyph glyph-name="uni00A0" unicode="&#xa0;" horiz-adv-x="220" 
d="M0 0z" />
    <glyph glyph-name="exclamdown" unicode="&#xa1;" horiz-adv-x="205" 
d="M103 505.999q-22 0 -37 -14.998t-15 -36.9951q0 -21.998 15 -36.4961t37 -14.498t36.5 14.498t14.5 36.4961q0 21.9971 -14.5 36.9951t-36.5 14.998zM71 75.0518v-290.964h64v290.964l-9 242.971h-46z" />
    <glyph glyph-name="cent" unicode="&#xa2;" horiz-adv-x="511" 
d="M246 84q-47 5 -86.5 26.5t-68.5 56t-45 79t-16 96.5t16 97t45 79t68.5 55t86.5 26v85h54v-84q70 -7 115.5 -45t68.5 -92l-58 -24q-19 44 -50 70t-76 33v-400q45 7 77.5 33.5t51.5 70.5l56 -25q-23 -54 -69 -92t-116 -45v-84h-54v84zM94 342q0 -41 12.5 -75.5t33.5 -60.5
t48.5 -42.5t57.5 -21.5v400q-30 -5 -57.5 -21t-48.5 -42t-33.5 -60.5t-12.5 -76.5z" />
    <glyph glyph-name="sterling" unicode="&#xa3;" horiz-adv-x="508" 
d="M199 257q3 -11 3 -27q0 -45 -20 -90t-52 -76l3 -3h207q46 0 66 17t31 49l54 -22q-17 -51 -52.5 -78t-98.5 -27h-306v52q25 12 44 31.5t32.5 42.5t20.5 47.5t7 48.5q0 10 -1 19t-3 16h-98v54h77q-11 22 -24 44q-14 21 -25.5 44.5t-19.5 49.5t-8 56q0 38 14 73.5t40.5 62.5
t63.5 43t82 16q43 0 75 -12.5t55.5 -32.5t38.5 -45t23 -49l-59 -24q-6 19 -16.5 37.5t-26.5 32.5t-38 23t-52 9q-33 0 -58 -11.5t-42.5 -30.5t-26.5 -43t-9 -49q0 -30 8.5 -54.5t21 -47.5t27.5 -45q14 -23 25 -47h145v-54h-128z" />
    <glyph glyph-name="currency" unicode="&#xa4;" horiz-adv-x="592" 
d="M296 106q-38 0 -72.5 12.5t-60.5 35.5l-59 -56l-40 40l60 59q-20 27 -30.5 59.5t-10.5 68.5t10.5 69t30.5 60l-60 59l40 40l59 -57q26 23 60.5 35.5t72.5 12.5t72.5 -12.5t61.5 -35.5l58 57l40 -40l-59 -59q19 -27 29.5 -59.5t10.5 -69.5q0 -36 -10.5 -68.5t-29.5 -59.5
l59 -59l-40 -40l-58 56q-27 -23 -61.5 -35.5t-72.5 -12.5zM296 163q32 0 60 13t48.5 35t32.5 51.5t12 62.5t-12 62.5t-32.5 51.5t-48.5 35t-60 13t-60 -13t-48.5 -35t-32.5 -51.5t-12 -62.5t12 -62.5t32.5 -51.5t48.5 -35t60 -13z" />
    <glyph glyph-name="yen" unicode="&#xa5;" horiz-adv-x="548" 
d="M76 231h168v87h-168v54h134l-197 312h73l188 -308h4l184 308h74l-194 -312h131v-54h-165v-87h165v-54h-165v-177h-64v177h-168v54z" />
    <glyph glyph-name="brokenbar" unicode="&#xa6;" horiz-adv-x="212" 
d="M77 376v380h58v-380h-58zM77 -120v412h58v-412h-58z" />
    <glyph glyph-name="section" unicode="&#xa7;" horiz-adv-x="524" 
d="M266 -232q-82 0 -141 48t-82 133l61 25q18 -63 57.5 -104t104.5 -41q31 0 58.5 9.5t47.5 26t31.5 39.5t11.5 49q0 30 -11 52.5t-33.5 40.5t-55.5 32.5t-78 28.5q-79 25 -125 65t-46 107q0 44 24.5 80.5t68.5 59.5q-47 25 -72.5 60t-25.5 86q0 30 13 60t38.5 53.5
t62.5 38.5t85 15q45 0 79 -14.5t59 -36t40 -46.5t22 -46l-61 -25q-6 19 -16.5 38t-27.5 34.5t-40 25t-54 9.5q-30 0 -54.5 -9t-42.5 -23.5t-28 -33.5t-10 -39q0 -24 9.5 -42.5t27.5 -32.5t44 -25.5t58 -22.5q48 -16 88 -33.5t68.5 -40.5t44 -54t15.5 -73q0 -47 -22 -83
t-55 -59q37 -26 56.5 -61t19.5 -85q0 -42 -17.5 -76.5t-47 -59t-68.5 -37.5t-81 -13zM264 163q24 -8 45 -16t41 -17q31 17 48.5 48t17.5 61q0 29 -12 50.5t-34.5 39t-56 31.5t-75.5 27l-13 4q-21 -6 -38.5 -17.5t-30 -26.5t-19 -32t-6.5 -33q0 -45 33 -71t100 -48z" />
    <glyph glyph-name="dieresis" unicode="&#xa8;" horiz-adv-x="369" 
d="M262 615q-18 0 -31.5 13t-13.5 31q0 20 13.5 32.5t31.5 12.5q19 0 31.5 -12.5t12.5 -32.5q0 -18 -12.5 -31t-31.5 -13zM108 615q-18 0 -31.5 13t-13.5 31q0 20 13.5 32.5t31.5 12.5q19 0 31.5 -12.5t12.5 -32.5q0 -18 -12.5 -31t-31.5 -13z" />
    <glyph glyph-name="copyright" unicode="&#xa9;" horiz-adv-x="537" 
d="M269 272q-48 0 -89.5 18t-73 49.5t-49.5 73t-18 89.5q0 47 18 89t49.5 73.5t73 49.5t89.5 18q47 0 89 -18t73.5 -49.5t49.5 -73.5t18 -89q0 -48 -18 -89.5t-49.5 -73t-73.5 -49.5t-89 -18zM269 311q39 0 74 15t61 41.5t41 61t15 73.5q0 40 -15 74.5t-41 60.5t-61 41
t-74 15t-74 -15t-61 -41t-41 -60.5t-15 -74.5q0 -39 15 -73.5t41 -61t61 -41.5t74 -15zM273 383q-25 0 -46.5 9.5t-37.5 25.5t-25 38t-9 46q0 25 9 46.5t25 37.5t37.5 25.5t46.5 9.5q30 0 49.5 -10.5t35.5 -27.5l-27 -25q-11 12 -24 19t-34 7q-31 0 -55 -22.5t-24 -59.5
q0 -36 24 -59t55 -23q23 0 38 9t26 24l28 -23q-16 -21 -38 -34t-54 -13z" />
    <glyph glyph-name="ordfeminine" unicode="&#xaa;" horiz-adv-x="462" 
d="M203 272q-34 0 -63 11t-50.5 30.5t-34 46t-12.5 58.5q0 36 15 63.5t39.5 46.5t57.5 28.5t69 9.5q43 0 77.5 -10t57.5 -24v19q0 60 -36 93.5t-90 33.5q-80 0 -116 -64l-54 27q20 36 61 63.5t107 27.5q40 0 74.5 -12.5t60 -35.5t39.5 -56t14 -75v-267h-60v78h-4
q-22 -42 -61.5 -67t-90.5 -25zM210 326q28 0 55 11.5t48 32t33.5 48.5t12.5 62q-16 9 -47 23t-76 14q-64 0 -96.5 -28t-32.5 -73q0 -21 8.5 -38t23 -28.5t33 -17.5t38.5 -6z" />
    <glyph glyph-name="guillemotleft" unicode="&#xab;" horiz-adv-x="540" 
d="M276 96l-39 -36l-194 211l194 211l39 -36l-163 -175zM476 96l-39 -36l-194 211l194 211l39 -36l-163 -175z" />
    <glyph glyph-name="logicalnot" unicode="&#xac;" horiz-adv-x="557" 
d="M51 374h420v-269h-54v215h-366v54z" />
    <glyph glyph-name="uni00AD" unicode="&#xad;" horiz-adv-x="429" 
d="M60 337h310v-54h-310v54z" />
    <glyph glyph-name="registered" unicode="&#xae;" horiz-adv-x="537" 
d="M269 272q-48 0 -89.5 18t-73 49.5t-49.5 73t-18 89.5q0 47 18 89t49.5 73.5t73 49.5t89.5 18q47 0 89 -18t73.5 -49.5t49.5 -73.5t18 -89q0 -48 -18 -89.5t-49.5 -73t-73.5 -49.5t-89 -18zM269 311q39 0 74 15t61 41.5t41 61t15 73.5q0 40 -15 74.5t-41 60.5t-61 41
t-74 15t-74 -15t-61 -41t-41 -60.5t-15 -74.5q0 -39 15 -73.5t41 -61t61 -41.5t74 -15zM194 389v226h92q29 0 51.5 -19.5t22.5 -50.5q0 -25 -15 -42.5t-36 -23.5l-2 -2l60 -86v-2h-44l-58 86h-32v-86h-39zM282 511q15 0 27 8.5t12 25.5q0 15 -11 24t-27 9h-50v-67h49z" />
    <glyph glyph-name="macron" unicode="&#xaf;" horiz-adv-x="396" 
d="M64 633v52h268v-52h-268z" />
    <glyph glyph-name="degree" unicode="&#xb0;" horiz-adv-x="326" 
d="M163 442q-27 0 -50.5 10t-41 27t-27.5 41t-10 51t10 51t27.5 41t41 27t50.5 10t50.5 -10t41 -27t27.5 -41t10 -51t-10 -51t-27.5 -41t-41 -27t-50.5 -10zM163 489q34 0 56.5 23.5t22.5 58.5t-22.5 58.5t-56.5 23.5t-56.5 -23.5t-22.5 -58.5t22.5 -58.5t56.5 -23.5z" />
    <glyph glyph-name="plusminus" unicode="&#xb1;" horiz-adv-x="544" 
d="M299 361h186v-54h-186v-158h-54v158h-185v54h185v159h54v-159zM60 0v54h425v-54h-425z" />
    <glyph glyph-name="twosuperior" unicode="&#xb2;" horiz-adv-x="296" 
d="M21 350v45l136 136q22 23 36 42t14 45q0 25 -18 42t-47 17q-27 0 -47.5 -15.5t-28.5 -51.5l-46 19q10 45 43.5 70t75.5 25q24 0 45.5 -7.5t38 -21t26 -33.5t9.5 -44q0 -18 -6 -34.5t-14.5 -30t-18.5 -24.5t-19 -20l-112 -112h172v-47h-239z" />
    <glyph glyph-name="threesuperior" unicode="&#xb3;" horiz-adv-x="319" 
d="M153 342q-21 0 -41.5 5.5t-38.5 17.5t-31.5 30.5t-19.5 44.5l46 18q10 -37 32.5 -53t52.5 -16q33 0 54.5 19t21.5 48q0 31 -22.5 46.5t-53.5 15.5h-37v45h32q27 0 47.5 15.5t20.5 42.5q0 26 -19 41t-45 15q-31 0 -47 -15t-23 -35l-45 18q13 36 42.5 57.5t71.5 21.5
q54 0 85.5 -29t31.5 -72q0 -28 -15 -47.5t-35 -31.5q26 -12 44.5 -33t18.5 -53q0 -27 -10.5 -48.5t-28 -36.5t-40.5 -23t-49 -8z" />
    <glyph glyph-name="acute" unicode="&#xb4;" horiz-adv-x="390" 
d="M163 592l52 124h73l-67 -124h-58z" />
    <glyph glyph-name="mu" unicode="&#xb5;" 
d="M416 0v92h-4q-12 -22 -28.5 -41.5t-38 -34.5t-48.5 -23.5t-60 -8.5q-36 0 -66.5 17.5t-50.5 41.5h-4l4 -73v-186h-64v706h64v-291q0 -79 36 -118t96 -39q35 0 64.5 16t50.5 42t33 60.5t12 71.5v258h64v-490h-60z" />
    <glyph glyph-name="paragraph" unicode="&#xb6;" horiz-adv-x="602" 
d="M294 -216v512h-44q-45 0 -85.5 14.5t-71 41.5t-49 66t-18.5 88t18.5 88t49 66t71 41.5t85.5 14.5h266v-932h-60v871h-102v-871h-60z" />
    <glyph glyph-name="periodcentered" unicode="&#xb7;" horiz-adv-x="145" 
d="M73 273q-22 0 -37 14.5t-15 36.5t15 37t37 15t36.5 -15t14.5 -37t-14.5 -36.5t-36.5 -14.5z" />
    <glyph glyph-name="cedilla" unicode="&#xb8;" horiz-adv-x="412" 
d="M169 -237q-33 0 -58 19.5t-35 47.5l42 18q6 -17 19 -29t32 -12q23 0 37 14.5t14 37.5q0 22 -13.5 37.5t-36.5 15.5q-26 0 -42 -21l-36 17l35 92h45l-24 -54q5 3 12.5 5.5t18.5 2.5q37 0 63.5 -26.5t26.5 -68.5q0 -20 -7.5 -37t-21 -30.5t-31.5 -21t-40 -7.5z" />
    <glyph glyph-name="onesuperior" unicode="&#xb9;" horiz-adv-x="230" 
d="M115 350v303l-71 -31l-18 41l112 53h28v-366h-51z" />
    <glyph glyph-name="ordmasculine" unicode="&#xba;" horiz-adv-x="513" 
d="M257 272q-47 0 -87 17.5t-69 48.5t-45.5 73t-16.5 91t16.5 91t45.5 73t69 48.5t87 17.5t87 -17.5t69 -48.5t45.5 -73t16.5 -91t-16.5 -91t-45.5 -73t-69 -48.5t-87 -17.5zM257 328q30 0 58 12.5t49.5 35.5t34.5 55t13 71t-13 71t-34.5 55t-49.5 35.5t-58 12.5t-58 -12.5
t-49.5 -35.5t-34.5 -55t-13 -71t13 -71t34.5 -55t49.5 -35.5t58 -12.5z" />
    <glyph glyph-name="guillemotright" unicode="&#xbb;" horiz-adv-x="540" 
d="M227 271l-163 175l39 36l195 -211l-195 -211l-39 36zM427 271l-163 175l39 36l195 -211l-195 -211l-39 36z" />
    <glyph glyph-name="onequarter" unicode="&#xbc;" horiz-adv-x="723" 
d="M99 25l467 695l42 -29l-466 -695zM141 350v303l-71 -31l-18 41l112 53h28v-366h-51zM389 114l180 253h43v-241h52v-45h-52v-80h-51v80h-172v33zM561 126v154h-4l-109 -154h113z" />
    <glyph glyph-name="onehalf" unicode="&#xbd;" horiz-adv-x="769" 
d="M470 1v45l136 136q22 23 36 42t14 45q0 25 -18 42t-47 17q-27 0 -47.5 -15.5t-28.5 -51.5l-46 19q10 45 43.5 70t75.5 25q24 0 45.5 -7.5t38 -21t26 -33.5t9.5 -44q0 -18 -6 -34.5t-14.5 -30t-18.5 -24.5t-19 -20l-112 -112h172v-47h-239zM93 25l467 695l42 -29
l-466 -695zM141 350v303l-71 -31l-18 41l112 53h28v-366h-51z" />
    <glyph glyph-name="threequarters" unicode="&#xbe;" horiz-adv-x="823" 
d="M183 342q-21 0 -41.5 5.5t-38.5 17.5t-31.5 30.5t-19.5 44.5l46 18q10 -37 32.5 -53t52.5 -16q33 0 54.5 19t21.5 48q0 31 -22.5 46.5t-53.5 15.5h-37v45h32q27 0 47.5 15.5t20.5 42.5q0 26 -19 41t-45 15q-31 0 -47 -15t-23 -35l-45 18q13 36 42.5 57.5t71.5 21.5
q54 0 85.5 -29t31.5 -72q0 -28 -15 -47.5t-35 -31.5q26 -12 44.5 -33t18.5 -53q0 -27 -10.5 -48.5t-28 -36.5t-40.5 -23t-49 -8zM487 114l180 253h43v-241h52v-45h-52v-80h-51v80h-172v33zM659 126v154h-4l-109 -154h113zM183 25l467 695l42 -29l-466 -695z" />
    <glyph glyph-name="questiondown" unicode="&#xbf;" horiz-adv-x="473" 
d="M266.024 267.028q0 -32.9961 -4.99902 -57.4932q-5 -24.4971 -15.498 -44.4941q-10.499 -19.998 -27.4971 -38.4951q-16.998 -18.498 -41.9951 -41.4951q-36.9951 -33.9961 -56.9922 -62.9922q-19.998 -28.9971 -19.998 -69.9922q0 -53.9932 35.4961 -88.4883
q35.4951 -34.4961 97.4883 -34.4961q29.9961 0 52.4932 8.99902t38.9951 23.9971t27.9971 34.4951q11.498 19.498 18.4971 40.4951l58.9932 -24.9961q-7.99902 -23.998 -23.4971 -49.4941q-15.498 -25.4971 -39.4951 -46.4941q-23.9971 -20.998 -56.9932 -34.4961
t-75.9912 -13.498q-45.9941 0 -82.9893 14.498q-36.9961 14.498 -62.9922 38.9951q-25.9971 24.4971 -39.4951 57.9932q-13.499 33.4951 -13.499 71.4912q0 31.9961 8.99902 57.4922q8.99902 25.4971 22.9971 45.9951q13.998 20.4971 30.9961 36.9951t32.9961 31.4961
q18.998 16.998 32.4961 32.4961t21.9971 31.9961t12.499 36.4951q3.99902 19.998 3.99902 45.9951v47.9941h64.9922v-50.9941zM234.028 505.999q21.9971 0 36.4961 -14.998q14.498 -14.998 14.498 -36.9951q0 -21.998 -14.498 -36.4961q-14.499 -14.498 -36.4961 -14.498
t-36.9951 14.498t-14.998 36.4961q0 21.9971 14.998 36.9951t36.9951 14.998z" />
    <glyph glyph-name="Agrave" unicode="&#xc0;" horiz-adv-x="653" 
d="M290 716h74l277 -716h-70l-78 207h-332l-78 -207h-70zM470 267l-141 371h-4l-141 -371h286zM294 776l-67 124h73l52 -124h-58z" />
    <glyph glyph-name="Aacute" unicode="&#xc1;" horiz-adv-x="653" 
d="M290 716h74l277 -716h-70l-78 207h-332l-78 -207h-70zM470 267l-141 371h-4l-141 -371h286zM302 776l52 124h73l-67 -124h-58z" />
    <glyph glyph-name="Acircumflex" unicode="&#xc2;" horiz-adv-x="653" 
d="M290 716h74l277 -716h-70l-78 207h-332l-78 -207h-70zM470 267l-141 371h-4l-141 -371h286zM197 786l100 114h59l101 -114v-5h-64l-62 72h-8l-63 -72h-63v5z" />
    <glyph glyph-name="Atilde" unicode="&#xc3;" horiz-adv-x="653" 
d="M290 716h74l277 -716h-70l-78 207h-332l-78 -207h-70zM470 267l-141 371h-4l-141 -371h286zM391 786q-20 0 -37.5 8.5t-32.5 18.5t-29 18.5t-26 8.5q-40 0 -46 -44h-54q0 26 9.5 45.5t23.5 32t32 18.5t35 6q20 0 37.5 -8.5t32.5 -17.5q15 -10 29 -18.5t26 -8.5
q40 0 45 43h54q0 -26 -9.5 -45.5t-23.5 -32t-31.5 -18.5t-34.5 -6z" />
    <glyph glyph-name="Adieresis" unicode="&#xc4;" horiz-adv-x="653" 
d="M290 716h74l277 -716h-70l-78 207h-332l-78 -207h-70zM470 267l-141 371h-4l-141 -371h286zM404 799q-18 0 -31.5 13t-13.5 31q0 20 13.5 32.5t31.5 12.5q19 0 31.5 -12.5t12.5 -32.5q0 -18 -12.5 -31t-31.5 -13zM250 799q-18 0 -31.5 13t-13.5 31q0 20 13.5 32.5
t31.5 12.5q19 0 31.5 -12.5t12.5 -32.5q0 -18 -12.5 -31t-31.5 -13z" />
    <glyph glyph-name="Aring" unicode="&#xc5;" horiz-adv-x="653" 
d="M272 670q-21 14 -34 36.5t-13 49.5q0 43 29.5 72.5t72.5 29.5q21 0 39.5 -8t32.5 -21.5t22 -32.5t8 -40q0 -27 -13 -49.5t-34 -36.5l259 -670h-70l-78 207h-332l-78 -207h-70zM470 267l-141 371h-4l-141 -371h286zM327 702q22 0 37.5 15.5t15.5 38.5t-15.5 38.5
t-37.5 15.5t-37.5 -15.5t-15.5 -38.5t15.5 -38.5t37.5 -15.5z" />
    <glyph glyph-name="AE" unicode="&#xc6;" horiz-adv-x="936" 
d="M4 0l433 716h444v-61h-340v-267h308v-60h-308v-267h340v-61h-404v207h-274l-125 -207h-74zM239 267h238v388h-4z" />
    <glyph glyph-name="Ccedilla" unicode="&#xc7;" horiz-adv-x="725" 
d="M413 -237q-33 0 -58 19.5t-35 47.5l42 18q6 -17 19 -29t32 -12q23 0 37 14.5t14 37.5q0 22 -13.5 37.5t-36.5 15.5q-26 0 -42 -21l-36 17l30 78q-71 7 -130.5 39t-103 81.5t-68 114t-24.5 137.5q0 78 28 146.5t77 119t116 79.5t146 29q83 0 147 -30.5t112 -86.5l-46 -44
q-82 100 -213 100q-62 0 -117 -23t-96 -64t-65 -98.5t-24 -127.5t24 -127.5t65 -99t96 -64t117 -22.5q75 0 132 30t101 83l46 -44q-48 -58 -117 -93.5t-160 -36.5l-17 -38q5 3 12.5 5.5t18.5 2.5q37 0 63.5 -26.5t26.5 -68.5q0 -20 -7.5 -37t-21 -30.5t-31.5 -21t-40 -7.5z
" />
    <glyph glyph-name="Egrave" unicode="&#xc8;" horiz-adv-x="537" 
d="M141 655v-267h308v-60h-308v-267h340v-61h-404v716h404v-61h-340zM257 776l-67 124h73l52 -124h-58z" />
    <glyph glyph-name="Eacute" unicode="&#xc9;" horiz-adv-x="537" 
d="M247 776l52 124h73l-67 -124h-58zM141 655v-267h308v-60h-308v-267h340v-61h-404v716h404v-61h-340z" />
    <glyph glyph-name="Ecircumflex" unicode="&#xca;" horiz-adv-x="537" 
d="M150 786l100 114h59l101 -114v-5h-64l-62 72h-8l-63 -72h-63v5zM141 655v-267h308v-60h-308v-267h340v-61h-404v716h404v-61h-340z" />
    <glyph glyph-name="Edieresis" unicode="&#xcb;" horiz-adv-x="537" 
d="M353 799q-18 0 -31.5 13t-13.5 31q0 20 13.5 32.5t31.5 12.5q19 0 31.5 -12.5t12.5 -32.5q0 -18 -12.5 -31t-31.5 -13zM199 799q-18 0 -31.5 13t-13.5 31q0 20 13.5 32.5t31.5 12.5q19 0 31.5 -12.5t12.5 -32.5q0 -18 -12.5 -31t-31.5 -13zM141 655v-267h308v-60h-308
v-267h340v-61h-404v716h404v-61h-340z" />
    <glyph glyph-name="Igrave" unicode="&#xcc;" horiz-adv-x="218" 
d="M77 716h64v-716h-64v716zM80 776l-67 124h73l52 -124h-58z" />
    <glyph glyph-name="Iacute" unicode="&#xcd;" horiz-adv-x="218" 
d="M77 716h64v-716h-64v716zM82 776l52 124h73l-67 -124h-58z" />
    <glyph glyph-name="Icircumflex" unicode="&#xce;" horiz-adv-x="218" 
d="M77 716h64v-716h-64v716zM-20 786l100 114h59l101 -114v-5h-64l-62 72h-8l-63 -72h-63v5z" />
    <glyph glyph-name="Idieresis" unicode="&#xcf;" horiz-adv-x="218" 
d="M47 799q-18 0 -31 13.5t-13 31.5q0 19 13 31.5t31 12.5q20 0 32.5 -12.5t12.5 -31.5q0 -18 -12.5 -31.5t-32.5 -13.5zM171 799q-18 0 -31 13.5t-13 31.5q0 19 13 31.5t31 12.5q20 0 32.5 -12.5t12.5 -31.5q0 -18 -12.5 -31.5t-32.5 -13.5zM77 716h64v-716h-64v716z" />
    <glyph glyph-name="Eth" unicode="&#xd0;" horiz-adv-x="743" 
d="M136 331h-76v53h76v332h208q84 0 151 -26.5t113.5 -73.5t71 -113t24.5 -145t-24.5 -145t-71 -113t-113.5 -73.5t-151 -26.5h-208v331zM344 61q67 0 121.5 20t93 58t59.5 93t21 126q0 70 -21 125.5t-59.5 93.5t-93 58t-121.5 20h-144v-271h212v-53h-212v-270h144z" />
    <glyph glyph-name="Ntilde" unicode="&#xd1;" horiz-adv-x="690" 
d="M77 716h83l389 -604h4l-4 138v466h64v-716h-66l-406 631h-4l4 -138v-493h-64v716zM417 786q-20 0 -37.5 8.5t-32.5 18.5t-29 18.5t-26 8.5q-40 0 -46 -44h-54q0 26 9.5 45.5t23.5 32t32 18.5t35 6q20 0 37.5 -8.5t32.5 -17.5q15 -10 29 -18.5t26 -8.5q40 0 45 43h54
q0 -26 -9.5 -45.5t-23.5 -32t-31.5 -18.5t-34.5 -6z" />
    <glyph glyph-name="Ograve" unicode="&#xd2;" horiz-adv-x="809" 
d="M405 -16q-79 0 -146 29.5t-115.5 80.5t-76 119t-27.5 145t27.5 145t76 119t115.5 80.5t146 29.5q78 0 145 -29.5t116 -80.5t76.5 -119t27.5 -145t-27.5 -145t-76.5 -119t-116 -80.5t-145 -29.5zM405 45q61 0 116 23t95.5 64.5t64.5 99t24 126.5t-24 126.5t-64.5 99
t-95.5 64.5t-116 23q-62 0 -116.5 -23t-95.5 -64.5t-64.5 -99t-23.5 -126.5t23.5 -126.5t64.5 -99t95.5 -64.5t116.5 -23zM374 776l-67 124h73l52 -124h-58z" />
    <glyph glyph-name="Oacute" unicode="&#xd3;" horiz-adv-x="809" 
d="M377 776l52 124h73l-67 -124h-58zM405 -16q-79 0 -146 29.5t-115.5 80.5t-76 119t-27.5 145t27.5 145t76 119t115.5 80.5t146 29.5q78 0 145 -29.5t116 -80.5t76.5 -119t27.5 -145t-27.5 -145t-76.5 -119t-116 -80.5t-145 -29.5zM405 45q61 0 116 23t95.5 64.5t64.5 99
t24 126.5t-24 126.5t-64.5 99t-95.5 64.5t-116 23q-62 0 -116.5 -23t-95.5 -64.5t-64.5 -99t-23.5 -126.5t23.5 -126.5t64.5 -99t95.5 -64.5t116.5 -23z" />
    <glyph glyph-name="Ocircumflex" unicode="&#xd4;" horiz-adv-x="809" 
d="M275 787l100 114h59l101 -114v-5h-64l-62 72h-8l-63 -72h-63v5zM405 -16q-79 0 -146 29.5t-115.5 80.5t-76 119t-27.5 145t27.5 145t76 119t115.5 80.5t146 29.5q78 0 145 -29.5t116 -80.5t76.5 -119t27.5 -145t-27.5 -145t-76.5 -119t-116 -80.5t-145 -29.5zM405 45
q61 0 116 23t95.5 64.5t64.5 99t24 126.5t-24 126.5t-64.5 99t-95.5 64.5t-116 23q-62 0 -116.5 -23t-95.5 -64.5t-64.5 -99t-23.5 -126.5t23.5 -126.5t64.5 -99t95.5 -64.5t116.5 -23z" />
    <glyph glyph-name="Otilde" unicode="&#xd5;" horiz-adv-x="809" 
d="M405 -16q-79 0 -146 29.5t-115.5 80.5t-76 119t-27.5 145t27.5 145t76 119t115.5 80.5t146 29.5q78 0 145 -29.5t116 -80.5t76.5 -119t27.5 -145t-27.5 -145t-76.5 -119t-116 -80.5t-145 -29.5zM405 45q61 0 116 23t95.5 64.5t64.5 99t24 126.5t-24 126.5t-64.5 99
t-95.5 64.5t-116 23q-62 0 -116.5 -23t-95.5 -64.5t-64.5 -99t-23.5 -126.5t23.5 -126.5t64.5 -99t95.5 -64.5t116.5 -23zM468 786q-20 0 -37.5 8.5t-32.5 18.5t-29 18.5t-26 8.5q-40 0 -46 -44h-54q0 26 9.5 45.5t23.5 32t32 18.5t35 6q20 0 37.5 -8.5t32.5 -17.5
q15 -10 29 -18.5t26 -8.5q40 0 45 43h54q0 -26 -9.5 -45.5t-23.5 -32t-31.5 -18.5t-34.5 -6z" />
    <glyph glyph-name="Odieresis" unicode="&#xd6;" horiz-adv-x="809" 
d="M482 799q-18 0 -31.5 13t-13.5 31q0 20 13.5 32.5t31.5 12.5q19 0 31.5 -12.5t12.5 -32.5q0 -18 -12.5 -31t-31.5 -13zM328 799q-18 0 -31.5 13t-13.5 31q0 20 13.5 32.5t31.5 12.5q19 0 31.5 -12.5t12.5 -32.5q0 -18 -12.5 -31t-31.5 -13zM405 -16q-79 0 -146 29.5
t-115.5 80.5t-76 119t-27.5 145t27.5 145t76 119t115.5 80.5t146 29.5q78 0 145 -29.5t116 -80.5t76.5 -119t27.5 -145t-27.5 -145t-76.5 -119t-116 -80.5t-145 -29.5zM405 45q61 0 116 23t95.5 64.5t64.5 99t24 126.5t-24 126.5t-64.5 99t-95.5 64.5t-116 23
q-62 0 -116.5 -23t-95.5 -64.5t-64.5 -99t-23.5 -126.5t23.5 -126.5t64.5 -99t95.5 -64.5t116.5 -23z" />
    <glyph glyph-name="multiply" unicode="&#xd7;" horiz-adv-x="522" 
d="M223 271l-159 156l37 37l160 -156l160 156l37 -37l-160 -156l160 -155l-37 -37l-160 156l-160 -156l-37 37z" />
    <glyph glyph-name="Oslash" unicode="&#xd8;" horiz-adv-x="809" 
d="M148 -3l37 60q-68 51 -106.5 129t-38.5 172q0 77 27.5 145t76 119t115.5 80.5t146 29.5q48 0 92 -11.5t82 -31.5l37 60l46 -30l-37 -60q67 -51 106 -129.5t39 -171.5q0 -77 -27.5 -145t-76.5 -119t-116 -80.5t-145 -29.5q-48 0 -92 11.5t-82 31.5l-36 -59zM105 358
q0 -79 30.5 -142.5t82.5 -105.5l328 526q-64 35 -141 35q-62 0 -116.5 -23t-95.5 -64.5t-64.5 -99t-23.5 -126.5zM405 45q61 0 116 23t95.5 64.5t64.5 99t24 126.5q0 78 -31 142t-82 106l-327 -526q64 -35 140 -35z" />
    <glyph glyph-name="Ugrave" unicode="&#xd9;" horiz-adv-x="635" 
d="M318 -16q-58 0 -105.5 20t-81.5 57t-52.5 88t-18.5 113v454h64v-458q0 -45 13 -84t37.5 -67.5t60.5 -45t83 -16.5q46 0 82 16.5t61 45t38 67.5t13 84v458h64v-454q0 -62 -17.5 -113t-51 -88t-81.5 -57t-108 -20zM292 776l-67 124h73l52 -124h-58z" />
    <glyph glyph-name="Uacute" unicode="&#xda;" horiz-adv-x="635" 
d="M285 776l52 124h73l-67 -124h-58zM318 -16q-58 0 -105.5 20t-81.5 57t-52.5 88t-18.5 113v454h64v-458q0 -45 13 -84t37.5 -67.5t60.5 -45t83 -16.5q46 0 82 16.5t61 45t38 67.5t13 84v458h64v-454q0 -62 -17.5 -113t-51 -88t-81.5 -57t-108 -20z" />
    <glyph glyph-name="Ucircumflex" unicode="&#xdb;" horiz-adv-x="635" 
d="M188 786l100 114h59l101 -114v-5h-64l-62 72h-8l-63 -72h-63v5zM318 -16q-58 0 -105.5 20t-81.5 57t-52.5 88t-18.5 113v454h64v-458q0 -45 13 -84t37.5 -67.5t60.5 -45t83 -16.5q46 0 82 16.5t61 45t38 67.5t13 84v458h64v-454q0 -62 -17.5 -113t-51 -88t-81.5 -57
t-108 -20z" />
    <glyph glyph-name="Udieresis" unicode="&#xdc;" horiz-adv-x="635" 
d="M395 799q-18 0 -31.5 13t-13.5 31q0 20 13.5 32.5t31.5 12.5q19 0 31.5 -12.5t12.5 -32.5q0 -18 -12.5 -31t-31.5 -13zM241 799q-18 0 -31.5 13t-13.5 31q0 20 13.5 32.5t31.5 12.5q19 0 31.5 -12.5t12.5 -32.5q0 -18 -12.5 -31t-31.5 -13zM318 -16q-58 0 -105.5 20
t-81.5 57t-52.5 88t-18.5 113v454h64v-458q0 -45 13 -84t37.5 -67.5t60.5 -45t83 -16.5q46 0 82 16.5t61 45t38 67.5t13 84v458h64v-454q0 -62 -17.5 -113t-51 -88t-81.5 -57t-108 -20z" />
    <glyph glyph-name="Yacute" unicode="&#xdd;" horiz-adv-x="579" 
d="M260 0v324l-247 392h75l202 -326h4l198 326h75l-243 -392v-324h-64zM257 776l52 124h73l-67 -124h-58z" />
    <glyph glyph-name="Thorn" unicode="&#xde;" horiz-adv-x="557" 
d="M77 0v716h64v-126h168q46 0 86.5 -15t70.5 -42.5t47.5 -66t17.5 -85.5t-17.5 -85.5t-47.5 -66t-70.5 -42.5t-86.5 -15h-168v-172h-64zM141 529v-296h171q33 0 61 11.5t48.5 31.5t32.5 47t12 58t-12 58.5t-32.5 47t-48.5 31t-61 11.5h-171z" />
    <glyph glyph-name="germandbls" unicode="&#xdf;" horiz-adv-x="549" 
d="M384 384q25 -9 48.5 -24.5t42 -38t29.5 -51.5t11 -65q0 -46 -16 -85t-45.5 -67.5t-70.5 -44.5t-90 -16q-14 0 -29.5 1.5t-30.5 4.5v60q33 -6 60 -6q34 0 63 11t50 31.5t32.5 48t11.5 60.5q0 31 -12.5 58.5t-34.5 48t-52.5 32.5t-67.5 12h-42v59h32q69 0 107 37t38 95
q0 30 -11 53.5t-29.5 40t-43 25t-51.5 8.5q-63 0 -102 -41t-39 -116v-515h-65v516q0 47 14 86.5t40 68.5t64.5 45t87.5 16q44 0 81 -14t63.5 -39t41 -58.5t14.5 -73.5q0 -64 -28.5 -101.5t-70.5 -57.5v-4z" />
    <glyph glyph-name="agrave" unicode="&#xe0;" horiz-adv-x="506" 
d="M393 87h-4q-25 -43 -69.5 -73t-103.5 -30q-40 0 -74 12.5t-59 34t-39 51.5t-14 65q0 40 16.5 71t45 52t66 31.5t79.5 10.5q50 0 90 -11.5t66 -26.5v30q0 33 -12 60t-32 46t-47.5 29t-57.5 10q-45 0 -80 -19.5t-58 -56.5l-56 35q29 45 79 71.5t113 26.5q49 0 88 -14.5
t67 -41t43 -63t15 -81.5v-306h-62v87zM393 218q-30 18 -65.5 29.5t-80.5 11.5q-33 0 -60.5 -8t-48 -22.5t-32 -35.5t-11.5 -47q0 -24 10.5 -43.5t28.5 -33t40.5 -21t46.5 -7.5q33 0 64 14t55 38.5t38.5 56.5t14.5 68zM231 592l-67 124h73l52 -124h-58z" />
    <glyph glyph-name="aacute" unicode="&#xe1;" horiz-adv-x="506" 
d="M393 87h-4q-25 -43 -69.5 -73t-103.5 -30q-40 0 -74 12.5t-59 34t-39 51.5t-14 65q0 40 16.5 71t45 52t66 31.5t79.5 10.5q50 0 90 -11.5t66 -26.5v30q0 33 -12 60t-32 46t-47.5 29t-57.5 10q-45 0 -80 -19.5t-58 -56.5l-56 35q29 45 79 71.5t113 26.5q49 0 88 -14.5
t67 -41t43 -63t15 -81.5v-306h-62v87zM393 218q-30 18 -65.5 29.5t-80.5 11.5q-33 0 -60.5 -8t-48 -22.5t-32 -35.5t-11.5 -47q0 -24 10.5 -43.5t28.5 -33t40.5 -21t46.5 -7.5q33 0 64 14t55 38.5t38.5 56.5t14.5 68zM216 592l52 124h73l-67 -124h-58z" />
    <glyph glyph-name="acircumflex" unicode="&#xe2;" horiz-adv-x="506" 
d="M393 87h-4q-25 -43 -69.5 -73t-103.5 -30q-40 0 -74 12.5t-59 34t-39 51.5t-14 65q0 40 16.5 71t45 52t66 31.5t79.5 10.5q50 0 90 -11.5t66 -26.5v30q0 33 -12 60t-32 46t-47.5 29t-57.5 10q-45 0 -80 -19.5t-58 -56.5l-56 35q29 45 79 71.5t113 26.5q49 0 88 -14.5
t67 -41t43 -63t15 -81.5v-306h-62v87zM393 218q-30 18 -65.5 29.5t-80.5 11.5q-33 0 -60.5 -8t-48 -22.5t-32 -35.5t-11.5 -47q0 -24 10.5 -43.5t28.5 -33t40.5 -21t46.5 -7.5q33 0 64 14t55 38.5t38.5 56.5t14.5 68zM116 602l100 114h59l101 -114v-5h-64l-62 72h-8l-63 -72
h-63v5z" />
    <glyph glyph-name="atilde" unicode="&#xe3;" horiz-adv-x="506" 
d="M393 87h-4q-25 -43 -69.5 -73t-103.5 -30q-40 0 -74 12.5t-59 34t-39 51.5t-14 65q0 40 16.5 71t45 52t66 31.5t79.5 10.5q50 0 90 -11.5t66 -26.5v30q0 33 -12 60t-32 46t-47.5 29t-57.5 10q-45 0 -80 -19.5t-58 -56.5l-56 35q29 45 79 71.5t113 26.5q49 0 88 -14.5
t67 -41t43 -63t15 -81.5v-306h-62v87zM393 218q-30 18 -65.5 29.5t-80.5 11.5q-33 0 -60.5 -8t-48 -22.5t-32 -35.5t-11.5 -47q0 -24 10.5 -43.5t28.5 -33t40.5 -21t46.5 -7.5q33 0 64 14t55 38.5t38.5 56.5t14.5 68zM319 603q-20 0 -37.5 8.5t-32.5 18.5t-29 18.5t-26 8.5
q-40 0 -46 -44h-54q0 26 9.5 45.5t23.5 32t32 18.5t35 6q20 0 37.5 -8.5t32.5 -17.5q15 -10 29 -18.5t26 -8.5q40 0 45 43h54q0 -26 -9.5 -45.5t-23.5 -32t-31.5 -18.5t-34.5 -6z" />
    <glyph glyph-name="adieresis" unicode="&#xe4;" horiz-adv-x="506" 
d="M393 87h-4q-25 -43 -69.5 -73t-103.5 -30q-40 0 -74 12.5t-59 34t-39 51.5t-14 65q0 40 16.5 71t45 52t66 31.5t79.5 10.5q50 0 90 -11.5t66 -26.5v30q0 33 -12 60t-32 46t-47.5 29t-57.5 10q-45 0 -80 -19.5t-58 -56.5l-56 35q29 45 79 71.5t113 26.5q49 0 88 -14.5
t67 -41t43 -63t15 -81.5v-306h-62v87zM393 218q-30 18 -65.5 29.5t-80.5 11.5q-33 0 -60.5 -8t-48 -22.5t-32 -35.5t-11.5 -47q0 -24 10.5 -43.5t28.5 -33t40.5 -21t46.5 -7.5q33 0 64 14t55 38.5t38.5 56.5t14.5 68zM331 615q-18 0 -31.5 13t-13.5 31q0 20 13.5 32.5
t31.5 12.5q19 0 31.5 -12.5t12.5 -32.5q0 -18 -12.5 -31t-31.5 -13zM177 615q-18 0 -31.5 13t-13.5 31q0 20 13.5 32.5t31.5 12.5q19 0 31.5 -12.5t12.5 -32.5q0 -18 -12.5 -31t-31.5 -13z" />
    <glyph glyph-name="aring" unicode="&#xe5;" horiz-adv-x="506" 
d="M393 87h-4q-25 -43 -69.5 -73t-103.5 -30q-40 0 -74 12.5t-59 34t-39 51.5t-14 65q0 40 16.5 71t45 52t66 31.5t79.5 10.5q50 0 90 -11.5t66 -26.5v30q0 33 -12 60t-32 46t-47.5 29t-57.5 10q-45 0 -80 -19.5t-58 -56.5l-56 35q29 45 79 71.5t113 26.5q49 0 88 -14.5
t67 -41t43 -63t15 -81.5v-306h-62v87zM393 218q-30 18 -65.5 29.5t-80.5 11.5q-33 0 -60.5 -8t-48 -22.5t-32 -35.5t-11.5 -47q0 -24 10.5 -43.5t28.5 -33t40.5 -21t46.5 -7.5q33 0 64 14t55 38.5t38.5 56.5t14.5 68zM255 567q-21 0 -40 8t-32.5 22t-21.5 32.5t-8 39.5
q0 43 29.5 72.5t72.5 29.5q21 0 39.5 -8t32.5 -21.5t22 -32.5t8 -40t-8 -39.5t-22 -32.5t-32.5 -22t-39.5 -8zM255 613q23 0 39 16t16 40t-16 40t-39 16t-39 -16t-16 -40t16 -40t39 -16z" />
    <glyph glyph-name="ae" unicode="&#xe6;" horiz-adv-x="893" 
d="M639 -16q-75 0 -131 37.5t-84 101.5q-29 -65 -84 -102t-124 -37q-40 0 -74 12.5t-59 34t-39 51.5t-14 65q0 40 16.5 71t45 52t66 31.5t79.5 10.5q50 0 91 -11.5t67 -26.5v30q0 33 -11.5 60t-32 46t-47 29t-56.5 10q-46 0 -81.5 -21t-53.5 -58l-58 29q24 48 73 77.5
t118 29.5t118 -31.5t72 -83.5q30 51 80 83t117 32q53 0 95.5 -18.5t72.5 -52t46.5 -80.5t16.5 -104v-6q-1 -3 -1 -5v-6h-404q1 -51 18 -87t43.5 -59.5t58.5 -34.5t62 -11q62 0 98 28.5t60 72.5l55 -27q-13 -27 -33 -51t-46.5 -42t-60.5 -28.5t-75 -10.5zM221 41
q33 0 64 14.5t55.5 38.5t39.5 56t15 68q-20 11 -57 26t-91 15q-33 0 -60.5 -8t-48 -22.5t-32 -35.5t-11.5 -47q0 -24 10.5 -43.5t28.5 -33t40.5 -21t46.5 -7.5zM797 288q-1 24 -10 52t-28 52t-50.5 40t-77.5 16q-30 0 -58 -10.5t-51 -30.5t-38.5 -50t-20.5 -69h334z" />
    <glyph glyph-name="ccedilla" unicode="&#xe7;" horiz-adv-x="513" 
d="M279 -237q-33 0 -58 19.5t-35 47.5l42 18q6 -17 19 -29t32 -12q23 0 37 14.5t14 37.5q0 22 -13.5 37.5t-36.5 15.5q-26 0 -42 -21l-36 17l30 80q-45 7 -82 29.5t-63.5 56.5t-41.5 77.5t-15 93.5q0 56 18.5 103.5t51 82.5t77.5 55t98 20q41 0 74.5 -10.5t60 -29.5
t45.5 -44t31 -55l-57 -25q-22 51 -61 78.5t-96 27.5q-34 0 -66 -14.5t-57 -41t-40 -64t-15 -83.5t15 -83.5t40 -64t57 -41t66 -14.5q57 0 97 27.5t62 78.5l57 -24q-13 -30 -32.5 -55.5t-45.5 -44t-60 -29.5t-75 -11l-17 -38q5 3 12.5 5.5t18.5 2.5q37 0 63.5 -26.5
t26.5 -68.5q0 -20 -7.5 -37t-21 -30.5t-31.5 -21t-40 -7.5z" />
    <glyph glyph-name="egrave" unicode="&#xe8;" horiz-adv-x="528" 
d="M489 116q-13 -27 -33 -51t-46.5 -42t-60.5 -28.5t-75 -10.5q-53 0 -98 19.5t-77.5 54.5t-50.5 82.5t-18 104.5q0 53 16.5 100.5t47.5 83t75 56.5t99 21q53 0 95.5 -18.5t72.5 -52t46.5 -80.5t16.5 -104v-6q-1 -3 -1 -5v-6h-403q1 -51 18 -87t43 -59.5t58 -34.5t62 -11
q62 0 98 28.5t60 72.5zM432 288q-1 24 -10 52t-28 52t-50.5 40t-77.5 16q-30 0 -58 -10.5t-50.5 -30.5t-38 -50t-20.5 -69h333zM238 592l-67 124h73l52 -124h-58z" />
    <glyph glyph-name="eacute" unicode="&#xe9;" horiz-adv-x="528" 
d="M230 592l52 124h73l-67 -124h-58zM489 116q-13 -27 -33 -51t-46.5 -42t-60.5 -28.5t-75 -10.5q-53 0 -98 19.5t-77.5 54.5t-50.5 82.5t-18 104.5q0 53 16.5 100.5t47.5 83t75 56.5t99 21q53 0 95.5 -18.5t72.5 -52t46.5 -80.5t16.5 -104v-6q-1 -3 -1 -5v-6h-403
q1 -51 18 -87t43 -59.5t58 -34.5t62 -11q62 0 98 28.5t60 72.5zM432 288q-1 24 -10 52t-28 52t-50.5 40t-77.5 16q-30 0 -58 -10.5t-50.5 -30.5t-38 -50t-20.5 -69h333z" />
    <glyph glyph-name="ecircumflex" unicode="&#xea;" horiz-adv-x="528" 
d="M138 593l100 114h59l101 -114v-5h-64l-62 72h-8l-63 -72h-63v5zM489 116q-13 -27 -33 -51t-46.5 -42t-60.5 -28.5t-75 -10.5q-53 0 -98 19.5t-77.5 54.5t-50.5 82.5t-18 104.5q0 53 16.5 100.5t47.5 83t75 56.5t99 21q53 0 95.5 -18.5t72.5 -52t46.5 -80.5t16.5 -104v-6
q-1 -3 -1 -5v-6h-403q1 -51 18 -87t43 -59.5t58 -34.5t62 -11q62 0 98 28.5t60 72.5zM432 288q-1 24 -10 52t-28 52t-50.5 40t-77.5 16q-30 0 -58 -10.5t-50.5 -30.5t-38 -50t-20.5 -69h333z" />
    <glyph glyph-name="edieresis" unicode="&#xeb;" horiz-adv-x="528" 
d="M340 615q-18 0 -31.5 13t-13.5 31q0 20 13.5 32.5t31.5 12.5q19 0 31.5 -12.5t12.5 -32.5q0 -18 -12.5 -31t-31.5 -13zM186 615q-18 0 -31.5 13t-13.5 31q0 20 13.5 32.5t31.5 12.5q19 0 31.5 -12.5t12.5 -32.5q0 -18 -12.5 -31t-31.5 -13zM489 116q-13 -27 -33 -51
t-46.5 -42t-60.5 -28.5t-75 -10.5q-53 0 -98 19.5t-77.5 54.5t-50.5 82.5t-18 104.5q0 53 16.5 100.5t47.5 83t75 56.5t99 21q53 0 95.5 -18.5t72.5 -52t46.5 -80.5t16.5 -104v-6q-1 -3 -1 -5v-6h-403q1 -51 18 -87t43 -59.5t58 -34.5t62 -11q62 0 98 28.5t60 72.5zM432 288
q-1 24 -10 52t-28 52t-50.5 40t-77.5 16q-30 0 -58 -10.5t-50.5 -30.5t-38 -50t-20.5 -69h333z" />
    <glyph glyph-name="igrave" unicode="&#xec;" horiz-adv-x="195" 
d="M66 0v490h64v-490h-64zM71 592l-67 124h73l52 -124h-58z" />
    <glyph glyph-name="iacute" unicode="&#xed;" horiz-adv-x="195" 
d="M69 592l52 124h73l-67 -124h-58zM66 0v490h64v-490h-64z" />
    <glyph glyph-name="icircumflex" unicode="&#xee;" horiz-adv-x="195" 
d="M-31 602l100 114h59l101 -114v-5h-64l-62 72h-8l-63 -72h-63v5zM66 0v490h64v-490h-64z" />
    <glyph glyph-name="idieresis" unicode="&#xef;" horiz-adv-x="195" 
d="M36 615q-18 0 -31.5 13t-13.5 31q0 20 13.5 32.5t31.5 12.5q19 0 31.5 -12.5t12.5 -32.5q0 -18 -12.5 -31t-31.5 -13zM160 615q-18 0 -31.5 13t-13.5 31q0 20 13.5 32.5t31.5 12.5q19 0 31.5 -12.5t12.5 -32.5q0 -18 -12.5 -31t-31.5 -13zM66 0v490h64v-490h-64z" />
    <glyph glyph-name="eth" unicode="&#xf0;" horiz-adv-x="568" 
d="M158 562l119 53q-32 19 -65 31.5t-68 22.5l22 55q100 -28 175 -81l96 42l21 -50l-70 -31q137 -129 137 -343q0 -61 -17 -112t-48.5 -87.5t-76.5 -57t-100 -20.5q-50 0 -93.5 19t-76 52.5t-51.5 79t-19 97.5q0 55 19.5 100t52 76.5t74.5 48.5t88 17q31 0 56 -7t44.5 -17.5
t33.5 -22.5t23 -23l6 3q-15 51 -44.5 95t-67.5 75l-149 -66zM283 44q37 0 69 13.5t56 38.5t38 59t14 76q0 41 -14.5 75t-38.5 58.5t-56 38t-66 13.5q-37 0 -69 -13.5t-56 -38t-38 -58.5t-14 -75q0 -42 14 -76t38 -59t55.5 -38.5t67.5 -13.5z" />
    <glyph glyph-name="ntilde" unicode="&#xf1;" 
d="M120 398h4q12 22 29 41.5t39.5 34.5t49.5 23.5t58 8.5q45 0 79 -14.5t56.5 -41t33.5 -63t11 -80.5v-307h-64v296q0 79 -35 115.5t-98 36.5q-35 0 -64 -15.5t-50 -42t-33 -60.5t-12 -71v-259h-64v490h60v-92zM339 603q-20 0 -37.5 8.5t-32.5 18.5t-29 18.5t-26 8.5
q-40 0 -46 -44h-54q0 26 9.5 45.5t23.5 32t32 18.5t35 6q20 0 37.5 -8.5t32.5 -17.5q15 -10 29 -18.5t26 -8.5q40 0 45 43h54q0 -26 -9.5 -45.5t-23.5 -32t-31.5 -18.5t-34.5 -6z" />
    <glyph glyph-name="ograve" unicode="&#xf2;" horiz-adv-x="554" 
d="M277 506q54 0 99.5 -20t78.5 -55t51.5 -82.5t18.5 -103.5t-18.5 -103.5t-51.5 -82.5t-78.5 -55t-99.5 -20q-53 0 -98.5 20t-78.5 55t-51.5 82.5t-18.5 103.5t18.5 103.5t51.5 82.5t78.5 55t98.5 20zM277 42q36 0 69 14.5t58.5 41t41 64t15.5 83.5t-15.5 83.5t-41 64
t-58.5 41t-69 14.5t-69 -14.5t-58.5 -41t-40.5 -64t-15 -83.5t15 -83.5t40.5 -64t58.5 -41t69 -14.5zM241 592l-67 124h73l52 -124h-58z" />
    <glyph glyph-name="oacute" unicode="&#xf3;" horiz-adv-x="554" 
d="M246 592l52 124h73l-67 -124h-58zM277 506q54 0 99.5 -20t78.5 -55t51.5 -82.5t18.5 -103.5t-18.5 -103.5t-51.5 -82.5t-78.5 -55t-99.5 -20q-53 0 -98.5 20t-78.5 55t-51.5 82.5t-18.5 103.5t18.5 103.5t51.5 82.5t78.5 55t98.5 20zM277 42q36 0 69 14.5t58.5 41t41 64
t15.5 83.5t-15.5 83.5t-41 64t-58.5 41t-69 14.5t-69 -14.5t-58.5 -41t-40.5 -64t-15 -83.5t15 -83.5t40.5 -64t58.5 -41t69 -14.5z" />
    <glyph glyph-name="ocircumflex" unicode="&#xf4;" horiz-adv-x="554" 
d="M148 602l100 114h59l101 -114v-5h-64l-62 72h-8l-63 -72h-63v5zM277 506q54 0 99.5 -20t78.5 -55t51.5 -82.5t18.5 -103.5t-18.5 -103.5t-51.5 -82.5t-78.5 -55t-99.5 -20q-53 0 -98.5 20t-78.5 55t-51.5 82.5t-18.5 103.5t18.5 103.5t51.5 82.5t78.5 55t98.5 20zM277 42
q36 0 69 14.5t58.5 41t41 64t15.5 83.5t-15.5 83.5t-41 64t-58.5 41t-69 14.5t-69 -14.5t-58.5 -41t-40.5 -64t-15 -83.5t15 -83.5t40.5 -64t58.5 -41t69 -14.5z" />
    <glyph glyph-name="otilde" unicode="&#xf5;" horiz-adv-x="554" 
d="M277 506q54 0 99.5 -20t78.5 -55t51.5 -82.5t18.5 -103.5t-18.5 -103.5t-51.5 -82.5t-78.5 -55t-99.5 -20q-53 0 -98.5 20t-78.5 55t-51.5 82.5t-18.5 103.5t18.5 103.5t51.5 82.5t78.5 55t98.5 20zM277 42q36 0 69 14.5t58.5 41t41 64t15.5 83.5t-15.5 83.5t-41 64
t-58.5 41t-69 14.5t-69 -14.5t-58.5 -41t-40.5 -64t-15 -83.5t15 -83.5t40.5 -64t58.5 -41t69 -14.5zM340 603q-20 0 -37.5 8.5t-32.5 18.5t-29 18.5t-26 8.5q-40 0 -46 -44h-54q0 26 9.5 45.5t23.5 32t32 18.5t35 6q20 0 37.5 -8.5t32.5 -17.5q15 -10 29 -18.5t26 -8.5
q40 0 45 43h54q0 -26 -9.5 -45.5t-23.5 -32t-31.5 -18.5t-34.5 -6z" />
    <glyph glyph-name="odieresis" unicode="&#xf6;" horiz-adv-x="554" 
d="M355 615q-18 0 -31.5 13t-13.5 31q0 20 13.5 32.5t31.5 12.5q19 0 31.5 -12.5t12.5 -32.5q0 -18 -12.5 -31t-31.5 -13zM201 615q-18 0 -31.5 13t-13.5 31q0 20 13.5 32.5t31.5 12.5q19 0 31.5 -12.5t12.5 -32.5q0 -18 -12.5 -31t-31.5 -13zM277 506q54 0 99.5 -20
t78.5 -55t51.5 -82.5t18.5 -103.5t-18.5 -103.5t-51.5 -82.5t-78.5 -55t-99.5 -20q-53 0 -98.5 20t-78.5 55t-51.5 82.5t-18.5 103.5t18.5 103.5t51.5 82.5t78.5 55t98.5 20zM277 42q36 0 69 14.5t58.5 41t41 64t15.5 83.5t-15.5 83.5t-41 64t-58.5 41t-69 14.5t-69 -14.5
t-58.5 -41t-40.5 -64t-15 -83.5t15 -83.5t40.5 -64t58.5 -41t69 -14.5z" />
    <glyph glyph-name="divide" unicode="&#xf7;" horiz-adv-x="544" 
d="M60 244v54h425v-54h-425zM272 20q-22 0 -36.5 15t-14.5 37t14.5 36.5t36.5 14.5t37 -14.5t15 -36.5t-15 -37t-37 -15zM272 419q-22 0 -36.5 15t-14.5 37t14.5 36.5t36.5 14.5t37 -14.5t15 -36.5t-15 -37t-37 -15z" />
    <glyph glyph-name="oslash" unicode="&#xf8;" horiz-adv-x="554" 
d="M277 506q63 0 116 -28l27 43l44 -27l-28 -45q42 -35 65.5 -88t23.5 -116q0 -56 -18.5 -103.5t-51.5 -82.5t-78.5 -55t-99.5 -20q-32 0 -60.5 7t-53.5 20l-25 -40l-45 25l27 44q-42 35 -66 88t-24 117q0 56 18.5 103.5t51.5 82.5t78.5 55t98.5 20zM94 245
q0 -48 16.5 -86.5t43.5 -64.5l207 332q-41 22 -84 22q-36 0 -69 -14.5t-58.5 -41t-40.5 -64t-15 -83.5zM277 42q36 0 69 14.5t58.5 41t41 64t15.5 83.5q0 48 -16 85.5t-43 64.5l-207 -332q39 -21 82 -21z" />
    <glyph glyph-name="ugrave" unicode="&#xf9;" 
d="M416 92h-4q-12 -22 -29 -41.5t-39.5 -34.5t-50 -23.5t-58.5 -8.5q-45 0 -79 14.5t-56 41t-33 63t-11 80.5v307h64v-296q0 -78 34.5 -115t97.5 -37q35 0 64.5 16t50.5 42t33 60.5t12 71.5v258h64v-490h-60v92zM244 592l-67 124h73l52 -124h-58z" />
    <glyph glyph-name="uacute" unicode="&#xfa;" 
d="M232 592l52 124h73l-67 -124h-58zM416 92h-4q-12 -22 -29 -41.5t-39.5 -34.5t-50 -23.5t-58.5 -8.5q-45 0 -79 14.5t-56 41t-33 63t-11 80.5v307h64v-296q0 -78 34.5 -115t97.5 -37q35 0 64.5 16t50.5 42t33 60.5t12 71.5v258h64v-490h-60v92z" />
    <glyph glyph-name="ucircumflex" unicode="&#xfb;" 
d="M138 587l100 114h59l101 -114v-5h-64l-62 72h-8l-63 -72h-63v5zM416 92h-4q-12 -22 -29 -41.5t-39.5 -34.5t-50 -23.5t-58.5 -8.5q-45 0 -79 14.5t-56 41t-33 63t-11 80.5v307h64v-296q0 -78 34.5 -115t97.5 -37q35 0 64.5 16t50.5 42t33 60.5t12 71.5v258h64v-490h-60
v92z" />
    <glyph glyph-name="udieresis" unicode="&#xfc;" 
d="M347 615q-18 0 -31.5 13t-13.5 31q0 20 13.5 32.5t31.5 12.5q19 0 31.5 -12.5t12.5 -32.5q0 -18 -12.5 -31t-31.5 -13zM193 615q-18 0 -31.5 13t-13.5 31q0 20 13.5 32.5t31.5 12.5q19 0 31.5 -12.5t12.5 -32.5q0 -18 -12.5 -31t-31.5 -13zM416 92h-4q-12 -22 -29 -41.5
t-39.5 -34.5t-50 -23.5t-58.5 -8.5q-45 0 -79 14.5t-56 41t-33 63t-11 80.5v307h64v-296q0 -78 34.5 -115t97.5 -37q35 0 64.5 16t50.5 42t33 60.5t12 71.5v258h64v-490h-60v92z" />
    <glyph glyph-name="yacute" unicode="&#xfd;" horiz-adv-x="478" 
d="M98 -216l113 252l-206 454h71l166 -378h2l159 378h70l-309 -706h-66zM213 592l52 124h73l-67 -124h-58z" />
    <glyph glyph-name="thorn" unicode="&#xfe;" horiz-adv-x="569" 
d="M309 -16q-35 0 -64 8.5t-52 22.5t-40 32.5t-29 38.5h-4l4 -68v-234h-64v932h64v-243l-4 -68h4q12 20 29 38.5t40 32.5t52 22t64 8q47 0 89 -19.5t73.5 -54t50 -82.5t18.5 -105t-18.5 -105t-50 -82.5t-73.5 -54t-89 -19.5zM298 42q35 0 67.5 14t57 40t39 64t14.5 85
t-14.5 84.5t-39 64t-57 40.5t-67.5 14t-67.5 -13.5t-57 -39.5t-39 -64t-14.5 -86t14.5 -85.5t39 -64t57 -40t67.5 -13.5z" />
    <glyph glyph-name="ydieresis" unicode="&#xff;" horiz-adv-x="478" 
d="M98 -216l113 252l-206 454h71l166 -378h2l159 378h70l-309 -706h-66zM319 615q-18 0 -31.5 13t-13.5 31q0 20 13.5 32.5t31.5 12.5q19 0 31.5 -12.5t12.5 -32.5q0 -18 -12.5 -31t-31.5 -13zM165 615q-18 0 -31.5 13t-13.5 31q0 20 13.5 32.5t31.5 12.5q19 0 31.5 -12.5
t12.5 -32.5q0 -18 -12.5 -31t-31.5 -13z" />
    <glyph glyph-name="Amacron" unicode="&#x100;" horiz-adv-x="653" 
d="M290 716h74l277 -716h-70l-78 207h-332l-78 -207h-70zM470 267l-141 371h-4l-141 -371h286zM193 817v52h268v-52h-268z" />
    <glyph glyph-name="amacron" unicode="&#x101;" horiz-adv-x="506" 
d="M393 87h-4q-25 -43 -69.5 -73t-103.5 -30q-40 0 -74 12.5t-59 34t-39 51.5t-14 65q0 40 16.5 71t45 52t66 31.5t79.5 10.5q50 0 90 -11.5t66 -26.5v30q0 33 -12 60t-32 46t-47.5 29t-57.5 10q-45 0 -80 -19.5t-58 -56.5l-56 35q29 45 79 71.5t113 26.5q49 0 88 -14.5
t67 -41t43 -63t15 -81.5v-306h-62v87zM393 218q-30 18 -65.5 29.5t-80.5 11.5q-33 0 -60.5 -8t-48 -22.5t-32 -35.5t-11.5 -47q0 -24 10.5 -43.5t28.5 -33t40.5 -21t46.5 -7.5q33 0 64 14t55 38.5t38.5 56.5t14.5 68zM124 633v52h268v-52h-268z" />
    <glyph glyph-name="Abreve" unicode="&#x102;" horiz-adv-x="653" 
d="M290 716h74l277 -716h-70l-78 207h-332l-78 -207h-70zM470 267l-141 371h-4l-141 -371h286zM328 776q-24 0 -46 9t-39.5 25t-27.5 38t-10 48h55q0 -27 18 -48t50 -21q31 0 49.5 21t18.5 48h53q0 -26 -10 -48t-26.5 -38t-38.5 -25t-46 -9z" />
    <glyph glyph-name="abreve" unicode="&#x103;" horiz-adv-x="506" 
d="M393 87h-4q-25 -43 -69.5 -73t-103.5 -30q-40 0 -74 12.5t-59 34t-39 51.5t-14 65q0 40 16.5 71t45 52t66 31.5t79.5 10.5q50 0 90 -11.5t66 -26.5v30q0 33 -12 60t-32 46t-47.5 29t-57.5 10q-45 0 -80 -19.5t-58 -56.5l-56 35q29 45 79 71.5t113 26.5q49 0 88 -14.5
t67 -41t43 -63t15 -81.5v-306h-62v87zM393 218q-30 18 -65.5 29.5t-80.5 11.5q-33 0 -60.5 -8t-48 -22.5t-32 -35.5t-11.5 -47q0 -24 10.5 -43.5t28.5 -33t40.5 -21t46.5 -7.5q33 0 64 14t55 38.5t38.5 56.5t14.5 68zM255 592q-24 0 -46 9t-39.5 25t-27.5 38t-10 48h55
q0 -27 18 -48t50 -21q31 0 49.5 21t18.5 48h53q0 -26 -10 -48t-26.5 -38t-38.5 -25t-46 -9z" />
    <glyph glyph-name="Aogonek" unicode="&#x104;" horiz-adv-x="653" 
d="M290 716h74l277 -716q-33 -24 -53.5 -49.5t-20.5 -57.5q0 -29 17.5 -46t41.5 -17q20 0 34 7l20 -49q-13 -6 -26 -9t-32 -3q-54 0 -84 32.5t-30 79.5q0 39 20 67t43 45l-78 207h-332l-78 -207h-70zM470 267l-141 371h-4l-141 -371h286z" />
    <glyph glyph-name="aogonek" unicode="&#x105;" horiz-adv-x="506" 
d="M393 87h-4q-25 -43 -69.5 -73t-103.5 -30q-40 0 -74 12.5t-59 34t-39 51.5t-14 65q0 40 16.5 71t45 52t66 31.5t79.5 10.5q50 0 90 -11.5t66 -26.5v30q0 33 -12 60t-32 46t-47.5 29t-57.5 10q-45 0 -80 -19.5t-58 -56.5l-56 35q29 45 79 71.5t113 26.5q49 0 88 -14.5
t67 -41t43 -63t15 -81.5v-306q-33 -24 -53.5 -49.5t-20.5 -57.5q0 -29 17 -46t42 -17q19 0 34 7l20 -49q-13 -6 -26 -9t-32 -3q-54 0 -84 32t-30 78q0 20 6.5 37.5t16.5 32t23 25.5t25 19v87zM393 218q-30 18 -65.5 29.5t-80.5 11.5q-33 0 -60.5 -8t-48 -22.5t-32 -35.5
t-11.5 -47q0 -24 10.5 -43.5t28.5 -33t40.5 -21t46.5 -7.5q33 0 64 14t55 38.5t38.5 56.5t14.5 68z" />
    <glyph glyph-name="Cacute" unicode="&#x106;" horiz-adv-x="725" 
d="M372 776l52 124h73l-67 -124h-58zM686 114q-48 -58 -117.5 -94t-161.5 -36q-79 0 -146 29t-116 79.5t-77 119t-28 146.5t28 146.5t77 119t116 79.5t146 29q83 0 147 -30.5t112 -86.5l-46 -44q-82 100 -213 100q-62 0 -117 -23t-96 -64t-65 -98.5t-24 -127.5t24 -127.5
t65 -99t96 -64t117 -22.5q75 0 132 30t101 83z" />
    <glyph glyph-name="cacute" unicode="&#x107;" horiz-adv-x="513" 
d="M228 592l52 124h73l-67 -124h-58zM488 124q-13 -30 -32.5 -55.5t-45.5 -44t-60 -29.5t-75 -11q-53 0 -98 20t-77.5 55t-51 82.5t-18.5 103.5t18.5 103.5t51 82.5t77.5 55t98 20q41 0 74.5 -10.5t60 -29.5t45.5 -44t31 -55l-57 -25q-22 51 -61 78.5t-96 27.5
q-34 0 -66 -14.5t-57 -41t-40 -64t-15 -83.5t15 -83.5t40 -64t57 -41t66 -14.5q57 0 97 27.5t62 78.5z" />
    <glyph glyph-name="Ccircumflex" unicode="&#x108;" horiz-adv-x="725" 
d="M276 787l100 114h59l101 -114v-5h-64l-62 72h-8l-63 -72h-63v5zM686 114q-48 -58 -117.5 -94t-161.5 -36q-79 0 -146 29t-116 79.5t-77 119t-28 146.5t28 146.5t77 119t116 79.5t146 29q83 0 147 -30.5t112 -86.5l-46 -44q-82 100 -213 100q-62 0 -117 -23t-96 -64
t-65 -98.5t-24 -127.5t24 -127.5t65 -99t96 -64t117 -22.5q75 0 132 30t101 83z" />
    <glyph glyph-name="ccircumflex" unicode="&#x109;" horiz-adv-x="513" 
d="M139 602l100 114h59l101 -114v-5h-64l-62 72h-8l-63 -72h-63v5zM488 124q-13 -30 -32.5 -55.5t-45.5 -44t-60 -29.5t-75 -11q-53 0 -98 20t-77.5 55t-51 82.5t-18.5 103.5t18.5 103.5t51 82.5t77.5 55t98 20q41 0 74.5 -10.5t60 -29.5t45.5 -44t31 -55l-57 -25
q-22 51 -61 78.5t-96 27.5q-34 0 -66 -14.5t-57 -41t-40 -64t-15 -83.5t15 -83.5t40 -64t57 -41t66 -14.5q57 0 97 27.5t62 78.5z" />
    <glyph glyph-name="Cdotaccent" unicode="&#x10a;" horiz-adv-x="725" 
d="M391 814q-17 0 -29.5 12.5t-12.5 29.5q0 18 12.5 30t29.5 12q18 0 30 -12t12 -30q0 -17 -12 -29.5t-30 -12.5zM686 114q-48 -58 -117.5 -94t-161.5 -36q-79 0 -146 29t-116 79.5t-77 119t-28 146.5t28 146.5t77 119t116 79.5t146 29q83 0 147 -30.5t112 -86.5l-46 -44
q-82 100 -213 100q-62 0 -117 -23t-96 -64t-65 -98.5t-24 -127.5t24 -127.5t65 -99t96 -64t117 -22.5q75 0 132 30t101 83z" />
    <glyph glyph-name="cdotaccent" unicode="&#x10b;" horiz-adv-x="513" 
d="M488 124q-13 -30 -32.5 -55.5t-45.5 -44t-60 -29.5t-75 -11q-53 0 -98 20t-77.5 55t-51 82.5t-18.5 103.5t18.5 103.5t51 82.5t77.5 55t98 20q41 0 74.5 -10.5t60 -29.5t45.5 -44t31 -55l-57 -25q-22 51 -61 78.5t-96 27.5q-34 0 -66 -14.5t-57 -41t-40 -64t-15 -83.5
t15 -83.5t40 -64t57 -41t66 -14.5q57 0 97 27.5t62 78.5zM269 615q-18 0 -31.5 13t-13.5 31q0 20 13.5 32.5t31.5 12.5q19 0 31.5 -12.5t12.5 -32.5q0 -18 -12.5 -31t-31.5 -13z" />
    <glyph glyph-name="Ccaron" unicode="&#x10c;" horiz-adv-x="725" 
d="M264 900h63l63 -72h8l62 72h64v-5l-101 -114h-59l-100 114v5zM686 114q-48 -58 -117.5 -94t-161.5 -36q-79 0 -146 29t-116 79.5t-77 119t-28 146.5t28 146.5t77 119t116 79.5t146 29q83 0 147 -30.5t112 -86.5l-46 -44q-82 100 -213 100q-62 0 -117 -23t-96 -64
t-65 -98.5t-24 -127.5t24 -127.5t65 -99t96 -64t117 -22.5q75 0 132 30t101 83z" />
    <glyph glyph-name="ccaron" unicode="&#x10d;" horiz-adv-x="513" 
d="M144 716h63l63 -72h8l62 72h64v-5l-101 -114h-59l-100 114v5zM488 124q-13 -30 -32.5 -55.5t-45.5 -44t-60 -29.5t-75 -11q-53 0 -98 20t-77.5 55t-51 82.5t-18.5 103.5t18.5 103.5t51 82.5t77.5 55t98 20q41 0 74.5 -10.5t60 -29.5t45.5 -44t31 -55l-57 -25
q-22 51 -61 78.5t-96 27.5q-34 0 -66 -14.5t-57 -41t-40 -64t-15 -83.5t15 -83.5t40 -64t57 -41t66 -14.5q57 0 97 27.5t62 78.5z" />
    <glyph glyph-name="Dcaron" unicode="&#x10e;" horiz-adv-x="685" 
d="M182 900h63l63 -72h8l62 72h64v-5l-101 -114h-59l-100 114v5zM77 716h208q84 0 151 -26.5t113.5 -73.5t71 -113t24.5 -145t-24.5 -145t-71 -113t-113.5 -73.5t-151 -26.5h-208v716zM285 61q67 0 121.5 20t93 58t59.5 93t21 126q0 70 -21 125.5t-59.5 93.5t-93 58
t-121.5 20h-144v-594h144z" />
    <glyph glyph-name="dcaron" unicode="&#x10f;" horiz-adv-x="630" 
d="M585 513v203h68l-25 -203h-43zM450 86h-4q-12 -20 -29 -38.5t-40 -32.5t-52 -22.5t-64 -8.5q-47 0 -89 19.5t-73.5 54t-50 82.5t-18.5 105t18.5 105t50 82.5t73.5 54t89 19.5q70 0 116 -30t69 -71h4l-4 68v243h64v-716h-60v86zM272 42q35 0 67.5 13.5t57 40t39 64
t14.5 85.5t-14.5 86t-39 64t-57 39.5t-67.5 13.5t-67.5 -14t-57 -40.5t-39 -64t-14.5 -84.5t14.5 -85t39 -64t57 -40t67.5 -14z" />
    <glyph glyph-name="Dcroat" unicode="&#x110;" horiz-adv-x="681" 
d="M73 347h-84v51h84v318h208q84 0 151 -26.5t113.5 -73.5t71 -113t24.5 -145t-24.5 -145t-71 -113t-113.5 -73.5t-151 -26.5h-208v347zM281 61q67 0 121.5 20t93 58t59.5 93t21 126q0 70 -21 125.5t-59.5 93.5t-93 58t-121.5 20h-144v-257h197v-51h-197v-286h144z" />
    <glyph glyph-name="dcroat" unicode="&#x111;" horiz-adv-x="569" 
d="M450 86h-4q-12 -20 -29 -38.5t-40 -32.5t-52 -22.5t-64 -8.5q-47 0 -89 19.5t-73.5 54t-50 82.5t-18.5 105t18.5 105t50 82.5t73.5 54t89 19.5q70 0 116 -30t69 -71h4l-4 68v109h-161v52h161v82h64v-82h63v-52h-63v-582h-60v86zM272 42q35 0 67.5 13.5t57 40t39 64
t14.5 85.5t-14.5 86t-39 64t-57 39.5t-67.5 13.5t-67.5 -14t-57 -40.5t-39 -64t-14.5 -84.5t14.5 -85t39 -64t57 -40t67.5 -14z" />
    <glyph glyph-name="Emacron" unicode="&#x112;" horiz-adv-x="537" 
d="M141 655v-267h308v-60h-308v-267h340v-61h-404v716h404v-61h-340zM139 817v52h268v-52h-268z" />
    <glyph glyph-name="emacron" unicode="&#x113;" horiz-adv-x="528" 
d="M489 116q-13 -27 -33 -51t-46.5 -42t-60.5 -28.5t-75 -10.5q-53 0 -98 19.5t-77.5 54.5t-50.5 82.5t-18 104.5q0 53 16.5 100.5t47.5 83t75 56.5t99 21q53 0 95.5 -18.5t72.5 -52t46.5 -80.5t16.5 -104v-6q-1 -3 -1 -5v-6h-403q1 -51 18 -87t43 -59.5t58 -34.5t62 -11
q62 0 98 28.5t60 72.5zM432 288q-1 24 -10 52t-28 52t-50.5 40t-77.5 16q-30 0 -58 -10.5t-50.5 -30.5t-38 -50t-20.5 -69h333zM134 633v52h268v-52h-268z" />
    <glyph glyph-name="Ebreve" unicode="&#x114;" horiz-adv-x="537" 
d="M141 655v-267h308v-60h-308v-267h340v-61h-404v716h404v-61h-340zM281 776q-24 0 -46 9t-39.5 25t-27.5 38t-10 48h55q0 -27 18 -48t50 -21q31 0 49.5 21t18.5 48h53q0 -26 -10 -48t-26.5 -38t-38.5 -25t-46 -9z" />
    <glyph glyph-name="ebreve" unicode="&#x115;" horiz-adv-x="528" 
d="M489 116q-13 -27 -33 -51t-46.5 -42t-60.5 -28.5t-75 -10.5q-53 0 -98 19.5t-77.5 54.5t-50.5 82.5t-18 104.5q0 53 16.5 100.5t47.5 83t75 56.5t99 21q53 0 95.5 -18.5t72.5 -52t46.5 -80.5t16.5 -104v-6q-1 -3 -1 -5v-6h-403q1 -51 18 -87t43 -59.5t58 -34.5t62 -11
q62 0 98 28.5t60 72.5zM432 288q-1 24 -10 52t-28 52t-50.5 40t-77.5 16q-30 0 -58 -10.5t-50.5 -30.5t-38 -50t-20.5 -69h333zM268 592q-24 0 -46 9t-39.5 25t-27.5 38t-10 48h55q0 -27 18 -48t50 -21q31 0 49.5 21t18.5 48h53q0 -26 -10 -48t-26.5 -38t-38.5 -25t-46 -9z
" />
    <glyph glyph-name="Edotaccent" unicode="&#x116;" horiz-adv-x="537" 
d="M281 814q-17 0 -29.5 12.5t-12.5 29.5q0 18 12.5 30t29.5 12q18 0 30 -12t12 -30q0 -17 -12 -29.5t-30 -12.5zM141 655v-267h308v-60h-308v-267h340v-61h-404v716h404v-61h-340z" />
    <glyph glyph-name="edotaccent" unicode="&#x117;" horiz-adv-x="528" 
d="M489 116q-13 -27 -33 -51t-46.5 -42t-60.5 -28.5t-75 -10.5q-53 0 -98 19.5t-77.5 54.5t-50.5 82.5t-18 104.5q0 53 16.5 100.5t47.5 83t75 56.5t99 21q53 0 95.5 -18.5t72.5 -52t46.5 -80.5t16.5 -104v-6q-1 -3 -1 -5v-6h-403q1 -51 18 -87t43 -59.5t58 -34.5t62 -11
q62 0 98 28.5t60 72.5zM432 288q-1 24 -10 52t-28 52t-50.5 40t-77.5 16q-30 0 -58 -10.5t-50.5 -30.5t-38 -50t-20.5 -69h333zM269 615q-18 0 -31.5 13t-13.5 31q0 20 13.5 32.5t31.5 12.5q19 0 31.5 -12.5t12.5 -32.5q0 -18 -12.5 -31t-31.5 -13z" />
    <glyph glyph-name="Eogonek" unicode="&#x118;" horiz-adv-x="537" 
d="M141 655v-267h308v-60h-308v-267h340v-61q-32 -24 -53 -49.5t-21 -57.5q0 -29 17.5 -46t41.5 -17q20 0 34 7l20 -49q-13 -6 -26 -9t-32 -3q-53 0 -83.5 32t-30.5 78q0 20 6.5 37.5t16.5 32t22 25.5t24 19h-340v716h404v-61h-340z" />
    <glyph glyph-name="eogonek" unicode="&#x119;" horiz-adv-x="528" 
d="M489 116q-14 -29 -34 -52t-42 -38q-14 -9 -32.5 -24.5t-35.5 -33.5t-29 -37.5t-12 -37.5q0 -29 17 -46t42 -17q19 0 34 7l20 -49q-13 -6 -26 -9t-32 -3q-54 0 -84 32t-30 78q0 30 16.5 56t36.5 43q-11 -1 -14 -1h-10q-53 0 -98 19.5t-77.5 54.5t-50.5 82.5t-18 104.5
q0 53 16.5 100.5t47.5 83t75 56.5t99 21q53 0 95.5 -18.5t72.5 -52t46.5 -80.5t16.5 -104v-6q-1 -3 -1 -5v-6h-403q1 -51 18 -87t43 -59.5t58 -34.5t62 -11q62 0 98 28.5t60 72.5zM432 288q-1 24 -10 52t-28 52t-50.5 40t-77.5 16q-30 0 -58 -10.5t-50.5 -30.5t-38 -50
t-20.5 -69h333z" />
    <glyph glyph-name="Ecaron" unicode="&#x11a;" horiz-adv-x="537" 
d="M150 900h63l63 -72h8l62 72h64v-5l-101 -114h-59l-100 114v5zM141 655v-267h308v-60h-308v-267h340v-61h-404v716h404v-61h-340z" />
    <glyph glyph-name="ecaron" unicode="&#x11b;" horiz-adv-x="528" 
d="M135 716h63l63 -72h8l62 72h64v-5l-101 -114h-59l-100 114v5zM489 116q-13 -27 -33 -51t-46.5 -42t-60.5 -28.5t-75 -10.5q-53 0 -98 19.5t-77.5 54.5t-50.5 82.5t-18 104.5q0 53 16.5 100.5t47.5 83t75 56.5t99 21q53 0 95.5 -18.5t72.5 -52t46.5 -80.5t16.5 -104v-6
q-1 -3 -1 -5v-6h-403q1 -51 18 -87t43 -59.5t58 -34.5t62 -11q62 0 98 28.5t60 72.5zM432 288q-1 24 -10 52t-28 52t-50.5 40t-77.5 16q-30 0 -58 -10.5t-50.5 -30.5t-38 -50t-20.5 -69h333z" />
    <glyph glyph-name="Gcircumflex" unicode="&#x11c;" horiz-adv-x="798" 
d="M278 787l100 114h59l101 -114v-5h-64l-62 72h-8l-63 -72h-63v5zM415 375h337q2 -12 3 -23.5t1 -23.5q0 -64 -20 -125.5t-65 -110.5q-48 -51 -113.5 -79.5t-148.5 -28.5q-77 0 -144 28.5t-117 79t-79 118.5t-29 148q0 79 29 147.5t79 119t117 79t144 28.5q79 0 147 -27.5
t113 -78.5l-47 -47q-37 45 -92 68.5t-120 23.5q-60 0 -115.5 -22.5t-97.5 -63.5t-67 -98.5t-25 -128.5t25.5 -128.5t67.5 -98.5t97 -63.5t115 -22.5q78 0 131.5 26t86.5 64t47.5 82t16.5 98h-277v60z" />
    <glyph glyph-name="gcircumflex" unicode="&#x11d;" horiz-adv-x="567" 
d="M141 602l100 114h59l101 -114v-5h-64l-62 72h-8l-63 -72h-63v5zM268 -232q-48 0 -84 13t-62.5 33t-43.5 45.5t-26 50.5l60 24q16 -50 58 -79t98 -29q88 0 133 51.5t45 142.5v64h-5q-23 -39 -68.5 -69.5t-111.5 -30.5q-47 0 -88.5 19.5t-73.5 54.5t-50.5 83t-18.5 104
t18.5 104t50.5 83t73.5 54.5t88.5 19.5q66 0 111.5 -30t68.5 -69h5v83h62v-474q0 -62 -18.5 -108.5t-51 -77.5t-76.5 -46.5t-94 -15.5zM270 42q34 0 66.5 13.5t57 39.5t39.5 63.5t15 86.5t-15 86.5t-39.5 63.5t-57 39.5t-66.5 13.5t-65.5 -14t-56 -40t-39.5 -63.5t-15 -85.5
q0 -47 15 -85t39.5 -64t56 -40t65.5 -14z" />
    <glyph glyph-name="Gbreve" unicode="&#x11e;" horiz-adv-x="798" 
d="M415 375h337q2 -12 3 -23.5t1 -23.5q0 -64 -20 -125.5t-65 -110.5q-48 -51 -113.5 -79.5t-148.5 -28.5q-77 0 -144 28.5t-117 79t-79 118.5t-29 148q0 79 29 147.5t79 119t117 79t144 28.5q79 0 147 -27.5t113 -78.5l-47 -47q-37 45 -92 68.5t-120 23.5
q-60 0 -115.5 -22.5t-97.5 -63.5t-67 -98.5t-25 -128.5t25.5 -128.5t67.5 -98.5t97 -63.5t115 -22.5q78 0 131.5 26t86.5 64t47.5 82t16.5 98h-277v60zM406 776q-24 0 -46 9t-39.5 25t-27.5 38t-10 48h55q0 -27 18 -48t50 -21q31 0 49.5 21t18.5 48h53q0 -26 -10 -48
t-26.5 -38t-38.5 -25t-46 -9z" />
    <glyph glyph-name="gbreve" unicode="&#x11f;" horiz-adv-x="567" 
d="M268 -232q-48 0 -84 13t-62.5 33t-43.5 45.5t-26 50.5l60 24q16 -50 58 -79t98 -29q88 0 133 51.5t45 142.5v64h-5q-23 -39 -68.5 -69.5t-111.5 -30.5q-47 0 -88.5 19.5t-73.5 54.5t-50.5 83t-18.5 104t18.5 104t50.5 83t73.5 54.5t88.5 19.5q66 0 111.5 -30t68.5 -69h5
v83h62v-474q0 -62 -18.5 -108.5t-51 -77.5t-76.5 -46.5t-94 -15.5zM270 42q34 0 66.5 13.5t57 39.5t39.5 63.5t15 86.5t-15 86.5t-39.5 63.5t-57 39.5t-66.5 13.5t-65.5 -14t-56 -40t-39.5 -63.5t-15 -85.5q0 -47 15 -85t39.5 -64t56 -40t65.5 -14zM285 592q-24 0 -46 9
t-39.5 25t-27.5 38t-10 48h55q0 -27 18 -48t50 -21q31 0 49.5 21t18.5 48h53q0 -26 -10 -48t-26.5 -38t-38.5 -25t-46 -9z" />
    <glyph glyph-name="Gdotaccent" unicode="&#x120;" horiz-adv-x="798" 
d="M395 814q-17 0 -29.5 12.5t-12.5 29.5q0 18 12.5 30t29.5 12q18 0 30 -12t12 -30q0 -17 -12 -29.5t-30 -12.5zM415 375h337q2 -12 3 -23.5t1 -23.5q0 -64 -20 -125.5t-65 -110.5q-48 -51 -113.5 -79.5t-148.5 -28.5q-77 0 -144 28.5t-117 79t-79 118.5t-29 148
q0 79 29 147.5t79 119t117 79t144 28.5q79 0 147 -27.5t113 -78.5l-47 -47q-37 45 -92 68.5t-120 23.5q-60 0 -115.5 -22.5t-97.5 -63.5t-67 -98.5t-25 -128.5t25.5 -128.5t67.5 -98.5t97 -63.5t115 -22.5q78 0 131.5 26t86.5 64t47.5 82t16.5 98h-277v60z" />
    <glyph glyph-name="gdotaccent" unicode="&#x121;" horiz-adv-x="567" 
d="M268 -232q-48 0 -84 13t-62.5 33t-43.5 45.5t-26 50.5l60 24q16 -50 58 -79t98 -29q88 0 133 51.5t45 142.5v64h-5q-23 -39 -68.5 -69.5t-111.5 -30.5q-47 0 -88.5 19.5t-73.5 54.5t-50.5 83t-18.5 104t18.5 104t50.5 83t73.5 54.5t88.5 19.5q66 0 111.5 -30t68.5 -69h5
v83h62v-474q0 -62 -18.5 -108.5t-51 -77.5t-76.5 -46.5t-94 -15.5zM270 42q34 0 66.5 13.5t57 39.5t39.5 63.5t15 86.5t-15 86.5t-39.5 63.5t-57 39.5t-66.5 13.5t-65.5 -14t-56 -40t-39.5 -63.5t-15 -85.5q0 -47 15 -85t39.5 -64t56 -40t65.5 -14zM279 615q-18 0 -31.5 13
t-13.5 31q0 20 13.5 32.5t31.5 12.5q19 0 31.5 -12.5t12.5 -32.5q0 -18 -12.5 -31t-31.5 -13z" />
    <glyph glyph-name="uni0122" unicode="&#x122;" horiz-adv-x="798" 
d="M363 -201l42 63q-14 4 -23 16t-9 27q0 18 13 32.5t34 14.5t34 -14t13 -34q0 -11 -3 -19t-8 -17l-61 -91zM415 375h337q2 -12 3 -23.5t1 -23.5q0 -64 -20 -125.5t-65 -110.5q-48 -51 -113.5 -79.5t-148.5 -28.5q-77 0 -144 28.5t-117 79t-79 118.5t-29 148q0 79 29 147.5
t79 119t117 79t144 28.5q79 0 147 -27.5t113 -78.5l-47 -47q-37 45 -92 68.5t-120 23.5q-60 0 -115.5 -22.5t-97.5 -63.5t-67 -98.5t-25 -128.5t25.5 -128.5t67.5 -98.5t97 -63.5t115 -22.5q78 0 131.5 26t86.5 64t47.5 82t16.5 98h-277v60z" />
    <glyph glyph-name="uni0123" unicode="&#x123;" horiz-adv-x="567" 
d="M313.018 724.976l-41.9941 -62.9922q13.998 -4 22.9971 -15.998q8.99902 -11.999 8.99902 -26.9971q0 -17.998 -12.999 -32.4961q-12.998 -14.498 -33.9951 -14.498q-20.998 0 -33.9961 13.998t-12.998 33.9961q0 10.999 2.99902 18.998q3 7.99902 7.99902 16.998
l60.9922 90.9883zM268 -232q-48 0 -84 13t-62.5 33t-43.5 45.5t-26 50.5l60 24q16 -50 58 -79t98 -29q88 0 133 51.5t45 142.5v64h-5q-23 -39 -68.5 -69.5t-111.5 -30.5q-47 0 -88.5 19.5t-73.5 54.5t-50.5 83t-18.5 104t18.5 104t50.5 83t73.5 54.5t88.5 19.5
q66 0 111.5 -30t68.5 -69h5v83h62v-474q0 -62 -18.5 -108.5t-51 -77.5t-76.5 -46.5t-94 -15.5zM270 42q34 0 66.5 13.5t57 39.5t39.5 63.5t15 86.5t-15 86.5t-39.5 63.5t-57 39.5t-66.5 13.5t-65.5 -14t-56 -40t-39.5 -63.5t-15 -85.5q0 -47 15 -85t39.5 -64t56 -40
t65.5 -14z" />
    <glyph glyph-name="Hcircumflex" unicode="&#x124;" horiz-adv-x="682" 
d="M212 786l100 114h59l101 -114v-5h-64l-62 72h-8l-63 -72h-63v5zM77 716h64v-320h400v320h64v-716h-64v336h-400v-336h-64v716z" />
    <glyph glyph-name="hcircumflex" unicode="&#x125;" 
d="M149 786l100 114h59l101 -114v-5h-64l-62 72h-8l-63 -72h-63v5zM60 716h64v-242l-4 -78h4q23 48 68 79t108 31q46 0 80 -15t56.5 -41.5t33 -63t10.5 -79.5v-307h-64v296q0 77 -35 114.5t-96 37.5q-35 0 -64 -16t-51 -42t-34 -61t-12 -72v-257h-64v716z" />
    <glyph glyph-name="Hbar" unicode="&#x126;" horiz-adv-x="682" 
d="M77 516h-64v52h64v148h64v-148h400v148h64v-148h64v-52h-64v-516h-64v336h-400v-336h-64v516zM541 396v120h-400v-120h400z" />
    <glyph glyph-name="hbar" unicode="&#x127;" 
d="M60 582h-66v52h66v82h64v-82h159v-52h-159v-108l-4 -78h4q23 48 68 79t108 31q46 0 80 -15t56.5 -41.5t33 -63t10.5 -79.5v-307h-64v296q0 77 -35 114.5t-96 37.5q-35 0 -64 -16t-51 -42t-34 -61t-12 -72v-257h-64v582z" />
    <glyph glyph-name="Itilde" unicode="&#x128;" horiz-adv-x="218" 
d="M77 716h64v-716h-64v716zM173 786q-20 0 -37.5 8.5t-32.5 18.5t-29 18.5t-26 8.5q-40 0 -46 -44h-54q0 26 9.5 45.5t23.5 32t32 18.5t35 6q20 0 37.5 -8.5t32.5 -17.5q15 -10 29 -18.5t26 -8.5q40 0 45 43h54q0 -26 -9.5 -45.5t-23.5 -32t-31.5 -18.5t-34.5 -6z" />
    <glyph glyph-name="itilde" unicode="&#x129;" horiz-adv-x="195" 
d="M66 0v490h64v-490h-64zM161 602q-20 0 -37.5 8.5t-32.5 18.5t-29 18.5t-26 8.5q-40 0 -46 -44h-54q0 26 9.5 45.5t23.5 32t32 18.5t35 6q20 0 37.5 -8.5t32.5 -17.5q15 -10 29 -18.5t26 -8.5q40 0 45 43h54q0 -26 -9.5 -45.5t-23.5 -32t-31.5 -18.5t-34.5 -6z" />
    <glyph glyph-name="Imacron" unicode="&#x12a;" horiz-adv-x="218" 
d="M-11 817v52h240v-52h-240zM77 716h64v-716h-64v716z" />
    <glyph glyph-name="imacron" unicode="&#x12b;" horiz-adv-x="195" 
d="M66 0v490h64v-490h-64zM-36 633v52h268v-52h-268z" />
    <glyph glyph-name="Ibreve" unicode="&#x12c;" horiz-adv-x="218" 
d="M77 716h64v-716h-64v716zM111 776q-24 0 -46 9t-39.5 25t-27.5 38t-10 48h55q0 -27 18 -48t50 -21q31 0 49.5 21t18.5 48h53q0 -26 -10 -48t-26.5 -38t-38.5 -25t-46 -9z" />
    <glyph glyph-name="ibreve" unicode="&#x12d;" horiz-adv-x="195" 
d="M66 0v490h64v-490h-64zM99 592q-24 0 -46 9t-39.5 25t-27.5 38t-10 48h55q0 -27 18 -48t50 -21q31 0 49.5 21t18.5 48h53q0 -26 -10 -48t-26.5 -38t-38.5 -25t-46 -9z" />
    <glyph glyph-name="Iogonek" unicode="&#x12e;" horiz-adv-x="218" 
d="M77 716h64v-716q-32 -24 -53 -49.5t-21 -57.5q0 -29 17.5 -46t42.5 -17q19 0 34 7l20 -49q-13 -6 -26.5 -9t-32.5 -3q-53 0 -83.5 32t-30.5 78q0 20 6.5 37.5t16.5 32t22 25.5t24 19v716z" />
    <glyph glyph-name="iogonek" unicode="&#x12f;" horiz-adv-x="195" 
d="M98 610q-21 0 -35.5 14.5t-14.5 34.5q0 21 14.5 35.5t35.5 14.5q20 0 34.5 -14.5t14.5 -35.5q0 -20 -14.5 -34.5t-34.5 -14.5zM130 0q-33 -24 -53.5 -49.5t-20.5 -57.5q0 -29 17 -46t42 -17q19 0 34 7l20 -49q-13 -6 -26 -9t-32 -3q-54 0 -84.5 32t-30.5 78q0 41 23 70
t47 44v490h64v-490z" />
    <glyph glyph-name="Idotaccent" unicode="&#x130;" horiz-adv-x="218" 
d="M77 716h64v-716h-64v716zM110 814q-17 0 -29.5 12.5t-12.5 29.5q0 18 12.5 30t29.5 12q18 0 30 -12t12 -30q0 -17 -12 -29.5t-30 -12.5z" />
    <glyph glyph-name="dotlessi" unicode="&#x131;" horiz-adv-x="195" 
d="M66 0v490h64v-490h-64z" />
    <glyph glyph-name="Jcircumflex" unicode="&#x134;" horiz-adv-x="514" 
d="M282 786l100 114h59l101 -114v-5h-64l-62 72h-8l-63 -72h-63v5zM240 -16q-76 0 -133.5 43t-80.5 124l58 24q23 -73 64 -101.5t92 -28.5q66 0 106 45t40 123v503h64v-497q0 -57 -16 -100.5t-44 -73.5t-66.5 -45.5t-83.5 -15.5z" />
    <glyph glyph-name="jcircumflex" unicode="&#x135;" horiz-adv-x="195" 
d="M7 -226q-28 0 -50 10l17 55q13 -7 31 -7q32 0 46.5 21t14.5 59v578h64v-579q0 -67 -32 -102t-91 -35zM-29 602l100 114h59l101 -114v-5h-64l-62 72h-8l-63 -72h-63v5z" />
    <glyph glyph-name="uni0136" unicode="&#x136;" horiz-adv-x="595" 
d="M248 -201l42 63q-14 4 -23 16t-9 27q0 18 13 32.5t34 14.5t34 -14t13 -34q0 -11 -3 -19t-8 -17l-61 -91zM77 716h64v-399h4l344 399h81v-4l-262 -303l285 -405v-4h-77l-252 359l-123 -142v-217h-64v716z" />
    <glyph glyph-name="uni0137" unicode="&#x137;" horiz-adv-x="465" 
d="M182 -201l42 63q-14 4 -23 16t-9 27q0 18 13 32.5t34 14.5t34 -14t13 -34q0 -11 -3 -19t-8 -17l-61 -91zM60 716h64v-475l248 249h81v-4l-184 -185l202 -297v-4h-75l-173 256l-99 -99v-157h-64v716z" />
    <glyph glyph-name="kgreenlandic" unicode="&#x138;" horiz-adv-x="443" 
d="M128 249h-4v-249h-64v490h64v-224h4l225 224h82v-4l-234 -228l244 -254v-4h-80z" />
    <glyph glyph-name="Lacute" unicode="&#x139;" horiz-adv-x="491" 
d="M84 776l52 124h73l-67 -124h-58zM77 716h64v-655h324v-61h-388v716z" />
    <glyph glyph-name="lacute" unicode="&#x13a;" horiz-adv-x="183" 
d="M65 776l52 124h73l-67 -124h-58zM60 0v716h64v-716h-64z" />
    <glyph glyph-name="uni013B" unicode="&#x13b;" horiz-adv-x="491" 
d="M215 -201l42 63q-14 4 -23 16t-9 27q0 18 13 32.5t34 14.5t34 -14t13 -34q0 -11 -3 -19t-8 -17l-61 -91zM77 716h64v-655h324v-61h-388v716z" />
    <glyph glyph-name="uni013C" unicode="&#x13c;" horiz-adv-x="183" 
d="M36 -201l42 63q-14 4 -23 16t-9 27q0 18 13 32.5t34 14.5t34 -14t13 -34q0 -11 -3 -19t-8 -17l-61 -91zM60 0v716h64v-716h-64z" />
    <glyph glyph-name="Lcaron" unicode="&#x13d;" horiz-adv-x="491" 
d="M322 513v203h68l-25 -203h-43zM77 716h64v-655h324v-61h-388v716z" />
    <glyph glyph-name="lcaron" unicode="&#x13e;" horiz-adv-x="278" 
d="M224 513v203h68l-25 -203h-43zM82 0v716h64v-716h-64z" />
    <glyph glyph-name="Ldot" unicode="&#x13f;" horiz-adv-x="491" 
d="M77 716h64v-655h324v-61h-388v716zM317 293q-22 0 -37 14.5t-15 36.5t15 37t37 15t36.5 -15t14.5 -37t-14.5 -36.5t-36.5 -14.5z" />
    <glyph glyph-name="Lslash" unicode="&#x141;" horiz-adv-x="557" 
d="M143 295l-68 -42l-30 47l98 62v354h64v-310l146 91l30 -48l-176 -110v-278h324v-61h-388v295z" />
    <glyph glyph-name="lslash" unicode="&#x142;" horiz-adv-x="338" 
d="M136 0v316l-70 -51l-34 44l104 76v331h64v-289l83 62l33 -45l-116 -86v-358h-64z" />
    <glyph glyph-name="Nacute" unicode="&#x143;" horiz-adv-x="690" 
d="M330 776l52 124h73l-67 -124h-58zM77 716h83l389 -604h4l-4 138v466h64v-716h-66l-406 631h-4l4 -138v-493h-64v716z" />
    <glyph glyph-name="nacute" unicode="&#x144;" 
d="M248 592l52 124h73l-67 -124h-58zM120 398h4q12 22 29 41.5t39.5 34.5t49.5 23.5t58 8.5q45 0 79 -14.5t56.5 -41t33.5 -63t11 -80.5v-307h-64v296q0 79 -35 115.5t-98 36.5q-35 0 -64 -15.5t-50 -42t-33 -60.5t-12 -71v-259h-64v490h60v-92z" />
    <glyph glyph-name="uni0145" unicode="&#x145;" horiz-adv-x="690" 
d="M289 -201l42 63q-14 4 -23 16t-9 27q0 18 13 32.5t34 14.5t34 -14t13 -34q0 -11 -3 -19t-8 -17l-61 -91zM77 716h83l389 -604h4l-4 138v466h64v-716h-66l-406 631h-4l4 -138v-493h-64v716z" />
    <glyph glyph-name="uni0146" unicode="&#x146;" 
d="M213 -201l42 63q-14 4 -23 16t-9 27q0 18 13 32.5t34 14.5t34 -14t13 -34q0 -11 -3 -19t-8 -17l-61 -91zM120 398h4q12 22 29 41.5t39.5 34.5t49.5 23.5t58 8.5q45 0 79 -14.5t56.5 -41t33.5 -63t11 -80.5v-307h-64v296q0 79 -35 115.5t-98 36.5q-35 0 -64 -15.5t-50 -42
t-33 -60.5t-12 -71v-259h-64v490h60v-92z" />
    <glyph glyph-name="Ncaron" unicode="&#x147;" horiz-adv-x="690" 
d="M221 900h63l63 -72h8l62 72h64v-5l-101 -114h-59l-100 114v5zM77 716h83l389 -604h4l-4 138v466h64v-716h-66l-406 631h-4l4 -138v-493h-64v716z" />
    <glyph glyph-name="ncaron" unicode="&#x148;" 
d="M142 716h63l63 -72h8l62 72h64v-5l-101 -114h-59l-100 114v5zM120 398h4q12 22 29 41.5t39.5 34.5t49.5 23.5t58 8.5q45 0 79 -14.5t56.5 -41t33.5 -63t11 -80.5v-307h-64v296q0 79 -35 115.5t-98 36.5q-35 0 -64 -15.5t-50 -42t-33 -60.5t-12 -71v-259h-64v490h60v-92z
" />
    <glyph glyph-name="Eng" unicode="&#x14a;" horiz-adv-x="690" 
d="M77 716h83l389 -604h4l-4 138v466h64v-805q0 -67 -31.5 -102t-90.5 -35q-28 0 -50 10l17 55q13 -7 31 -7q32 0 46 21t14 59v90l-408 629h-4l4 -138v-493h-64v716z" />
    <glyph glyph-name="eng" unicode="&#x14b;" 
d="M120 398h4q12 22 29 41.5t39.5 34.5t49.5 23.5t58 8.5q45 0 79 -14.5t56.5 -41t33.5 -63t11 -80.5v-396q0 -67 -32 -102t-91 -35q-29 0 -49 10l16 55q13 -7 31 -7q32 0 46.5 21t14.5 59v384q0 79 -35 115.5t-98 36.5q-35 0 -64 -15.5t-50 -42t-33 -60.5t-12 -71v-259h-64
v490h60v-92z" />
    <glyph glyph-name="Omacron" unicode="&#x14c;" horiz-adv-x="809" 
d="M271 817v52h268v-52h-268zM405 -16q-79 0 -146 29.5t-115.5 80.5t-76 119t-27.5 145t27.5 145t76 119t115.5 80.5t146 29.5q78 0 145 -29.5t116 -80.5t76.5 -119t27.5 -145t-27.5 -145t-76.5 -119t-116 -80.5t-145 -29.5zM405 45q61 0 116 23t95.5 64.5t64.5 99t24 126.5
t-24 126.5t-64.5 99t-95.5 64.5t-116 23q-62 0 -116.5 -23t-95.5 -64.5t-64.5 -99t-23.5 -126.5t23.5 -126.5t64.5 -99t95.5 -64.5t116.5 -23z" />
    <glyph glyph-name="omacron" unicode="&#x14d;" horiz-adv-x="554" 
d="M143 633v52h268v-52h-268zM277 506q54 0 99.5 -20t78.5 -55t51.5 -82.5t18.5 -103.5t-18.5 -103.5t-51.5 -82.5t-78.5 -55t-99.5 -20q-53 0 -98.5 20t-78.5 55t-51.5 82.5t-18.5 103.5t18.5 103.5t51.5 82.5t78.5 55t98.5 20zM277 42q36 0 69 14.5t58.5 41t41 64
t15.5 83.5t-15.5 83.5t-41 64t-58.5 41t-69 14.5t-69 -14.5t-58.5 -41t-40.5 -64t-15 -83.5t15 -83.5t40.5 -64t58.5 -41t69 -14.5z" />
    <glyph glyph-name="Obreve" unicode="&#x14e;" horiz-adv-x="809" 
d="M405 -16q-79 0 -146 29.5t-115.5 80.5t-76 119t-27.5 145t27.5 145t76 119t115.5 80.5t146 29.5q78 0 145 -29.5t116 -80.5t76.5 -119t27.5 -145t-27.5 -145t-76.5 -119t-116 -80.5t-145 -29.5zM405 45q61 0 116 23t95.5 64.5t64.5 99t24 126.5t-24 126.5t-64.5 99
t-95.5 64.5t-116 23q-62 0 -116.5 -23t-95.5 -64.5t-64.5 -99t-23.5 -126.5t23.5 -126.5t64.5 -99t95.5 -64.5t116.5 -23zM406 776q-24 0 -46 9t-39.5 25t-27.5 38t-10 48h55q0 -27 18 -48t50 -21q31 0 49.5 21t18.5 48h53q0 -26 -10 -48t-26.5 -38t-38.5 -25t-46 -9z" />
    <glyph glyph-name="obreve" unicode="&#x14f;" horiz-adv-x="554" 
d="M277 506q54 0 99.5 -20t78.5 -55t51.5 -82.5t18.5 -103.5t-18.5 -103.5t-51.5 -82.5t-78.5 -55t-99.5 -20q-53 0 -98.5 20t-78.5 55t-51.5 82.5t-18.5 103.5t18.5 103.5t51.5 82.5t78.5 55t98.5 20zM277 42q36 0 69 14.5t58.5 41t41 64t15.5 83.5t-15.5 83.5t-41 64
t-58.5 41t-69 14.5t-69 -14.5t-58.5 -41t-40.5 -64t-15 -83.5t15 -83.5t40.5 -64t58.5 -41t69 -14.5zM279 592q-24 0 -46 9t-39.5 25t-27.5 38t-10 48h55q0 -27 18 -48t50 -21q31 0 49.5 21t18.5 48h53q0 -26 -10 -48t-26.5 -38t-38.5 -25t-46 -9z" />
    <glyph glyph-name="Ohungarumlaut" unicode="&#x150;" horiz-adv-x="809" 
d="M405 -16q-79 0 -146 29.5t-115.5 80.5t-76 119t-27.5 145t27.5 145t76 119t115.5 80.5t146 29.5q78 0 145 -29.5t116 -80.5t76.5 -119t27.5 -145t-27.5 -145t-76.5 -119t-116 -80.5t-145 -29.5zM405 45q61 0 116 23t95.5 64.5t64.5 99t24 126.5t-24 126.5t-64.5 99
t-95.5 64.5t-116 23q-62 0 -116.5 -23t-95.5 -64.5t-64.5 -99t-23.5 -126.5t23.5 -126.5t64.5 -99t95.5 -64.5t116.5 -23zM305 776l52 124h73l-67 -124h-58zM449 776l52 124h73l-67 -124h-58z" />
    <glyph glyph-name="ohungarumlaut" unicode="&#x151;" horiz-adv-x="554" 
d="M179 592l52 124h73l-67 -124h-58zM323 592l52 124h73l-67 -124h-58zM277 506q54 0 99.5 -20t78.5 -55t51.5 -82.5t18.5 -103.5t-18.5 -103.5t-51.5 -82.5t-78.5 -55t-99.5 -20q-53 0 -98.5 20t-78.5 55t-51.5 82.5t-18.5 103.5t18.5 103.5t51.5 82.5t78.5 55t98.5 20z
M277 42q36 0 69 14.5t58.5 41t41 64t15.5 83.5t-15.5 83.5t-41 64t-58.5 41t-69 14.5t-69 -14.5t-58.5 -41t-40.5 -64t-15 -83.5t15 -83.5t40.5 -64t58.5 -41t69 -14.5z" />
    <glyph glyph-name="OE" unicode="&#x152;" horiz-adv-x="1164" 
d="M769 655v-267h308v-60h-308v-267h340v-61h-404v152q-45 -75 -123 -121.5t-177 -46.5q-79 0 -146 29.5t-115.5 80.5t-76 119t-27.5 145t27.5 145t76 119t115.5 80.5t146 29.5q100 0 177.5 -46t122.5 -122v152h404v-61h-340zM405 45q61 0 116 23t95.5 64.5t64.5 99
t24 126.5t-24 126.5t-64.5 99t-95.5 64.5t-116 23q-62 0 -116.5 -23t-95.5 -64.5t-64.5 -99t-23.5 -126.5t23.5 -126.5t64.5 -99t95.5 -64.5t116.5 -23z" />
    <glyph glyph-name="oe" unicode="&#x153;" horiz-adv-x="961" 
d="M707 -16q-74 0 -129.5 36t-84.5 99q-29 -62 -85.5 -98.5t-130.5 -36.5q-53 0 -98.5 20t-78.5 55t-51.5 82.5t-18.5 103.5t18.5 103.5t51.5 82.5t78.5 55t98.5 20q74 0 130.5 -36.5t85.5 -98.5q28 60 81 97.5t127 37.5q53 0 95.5 -18.5t72.5 -52t46.5 -80.5t16.5 -104v-6
q-1 -3 -1 -5v-6h-404q1 -51 18 -87t43.5 -59.5t58.5 -34.5t62 -11q62 0 98 28.5t60 72.5l55 -27q-13 -27 -33 -51t-46.5 -42t-60.5 -28.5t-75 -10.5zM277 42q36 0 69 14.5t58.5 41t41 64t15.5 83.5t-15.5 83.5t-41 64t-58.5 41t-69 14.5t-69 -14.5t-58.5 -41t-40.5 -64
t-15 -83.5t15 -83.5t40.5 -64t58.5 -41t69 -14.5zM865 288q-1 24 -10 52t-28 52t-50.5 40t-77.5 16q-30 0 -58 -10.5t-51 -30.5t-38.5 -50t-20.5 -69h334z" />
    <glyph glyph-name="Racute" unicode="&#x154;" horiz-adv-x="569" 
d="M245 776l52 124h73l-67 -124h-58zM77 716h237q45 0 84.5 -15.5t69 -43t46.5 -66t17 -84.5q0 -38 -13.5 -71.5t-37 -59.5t-55.5 -44.5t-69 -26.5l-2 -3l204 -298v-4h-73l-202 298h-142v-298h-64v716zM305 358q32 0 61 11t51.5 30.5t35.5 47t13 60.5q0 31 -12 58.5
t-32.5 47t-48.5 31t-61 11.5h-171v-297h164z" />
    <glyph glyph-name="racute" unicode="&#x155;" horiz-adv-x="335" 
d="M161 592l52 124h73l-67 -124h-58zM60 0v490h60v-86h4q7 22 22.5 40.5t35 32t41 20.5t41.5 7q23 0 38 -3t29 -10l-20 -60q-20 10 -55 10q-26 0 -50 -12.5t-42 -34.5t-29 -52.5t-11 -66.5v-275h-64z" />
    <glyph glyph-name="uni0156" unicode="&#x156;" horiz-adv-x="562" 
d="M245 -201l42 63q-14 4 -23 16t-9 27q0 18 13 32.5t34 14.5t34 -14t13 -34q0 -11 -3 -19t-8 -17l-61 -91zM77 716h237q45 0 84.5 -15.5t69 -43t46.5 -66t17 -84.5q0 -38 -13.5 -71.5t-37 -59.5t-55.5 -44.5t-69 -26.5l-2 -3l204 -298v-4h-73l-202 298h-142v-298h-64v716z
M305 358q32 0 61 11t51.5 30.5t35.5 47t13 60.5q0 31 -12 58.5t-32.5 47t-48.5 31t-61 11.5h-171v-297h164z" />
    <glyph glyph-name="uni0157" unicode="&#x157;" horiz-adv-x="335" 
d="M35 -201l42 63q-14 4 -23 16t-9 27q0 18 13 32.5t34 14.5t34 -14t13 -34q0 -11 -3 -19t-8 -17l-61 -91zM60 0v490h60v-86h4q7 22 22.5 40.5t35 32t41 20.5t41.5 7q23 0 38 -3t29 -10l-20 -60q-20 10 -55 10q-26 0 -50 -12.5t-42 -34.5t-29 -52.5t-11 -66.5v-275h-64z" />
    <glyph glyph-name="Rcaron" unicode="&#x158;" horiz-adv-x="569" 
d="M148 900h63l63 -72h8l62 72h64v-5l-101 -114h-59l-100 114v5zM77 716h237q45 0 84.5 -15.5t69 -43t46.5 -66t17 -84.5q0 -38 -13.5 -71.5t-37 -59.5t-55.5 -44.5t-69 -26.5l-2 -3l204 -298v-4h-73l-202 298h-142v-298h-64v716zM305 358q32 0 61 11t51.5 30.5t35.5 47
t13 60.5q0 31 -12 58.5t-32.5 47t-48.5 31t-61 11.5h-171v-297h164z" />
    <glyph glyph-name="rcaron" unicode="&#x159;" horiz-adv-x="335" 
d="M52 716h63l63 -72h8l62 72h64v-5l-101 -114h-59l-100 114v5zM60 0v490h60v-86h4q7 22 22.5 40.5t35 32t41 20.5t41.5 7q23 0 38 -3t29 -10l-20 -60q-20 10 -55 10q-26 0 -50 -12.5t-42 -34.5t-29 -52.5t-11 -66.5v-275h-64z" />
    <glyph glyph-name="Sacute" unicode="&#x15a;" horiz-adv-x="542" 
d="M233 776l52 124h73l-67 -124h-58zM270 -16q-39 0 -77 12.5t-71 37t-58.5 60.5t-37.5 83l60 25q9 -34 26.5 -63t41.5 -50t54 -32.5t64 -11.5q33 0 63 9.5t52.5 28t35.5 45t13 59.5q0 57 -42 92.5t-122 63.5l-45 16q-32 11 -63 26.5t-55.5 37.5t-39.5 52.5t-15 71.5
q0 37 15.5 71t43.5 59t67 40t85 15q49 0 86 -14.5t63.5 -36t42 -46.5t22.5 -46l-60 -25q-5 18 -16.5 36.5t-30.5 34.5t-45 26t-61 10q-30 0 -56.5 -9t-47 -25.5t-32 -39.5t-11.5 -50q0 -26 10.5 -45.5t29.5 -35t45 -28t57 -23.5l46 -17q40 -14 75.5 -32t61.5 -42.5
t41.5 -57.5t15.5 -76q0 -54 -21 -93t-54 -64t-74.5 -37t-81.5 -12z" />
    <glyph glyph-name="sacute" unicode="&#x15b;" horiz-adv-x="448" 
d="M191 592l52 124h73l-67 -124h-58zM231 -16q-40 0 -73.5 11.5t-59 31t-44 45t-28.5 53.5l57 24q20 -53 60.5 -80.5t87.5 -27.5q59 0 93 26t34 62q0 15 -5 28t-18 24.5t-35 21t-56 17.5l-68 16q-23 6 -47.5 15.5t-44.5 25t-32.5 37.5t-12.5 51q0 34 15.5 60t42 44
t60.5 27.5t70 9.5q31 0 60 -7.5t53.5 -21.5t43.5 -35.5t30 -49.5l-56 -23q-20 42 -54.5 61t-79.5 19q-22 0 -43.5 -5.5t-38.5 -16t-27.5 -26t-10.5 -34.5q0 -31 26.5 -48t74.5 -29l72 -18q75 -19 110.5 -54.5t35.5 -83.5q0 -31 -13.5 -58t-39 -47.5t-61 -32.5t-78.5 -12z
" />
    <glyph glyph-name="Scircumflex" unicode="&#x15c;" horiz-adv-x="542" 
d="M133 787l100 114h59l101 -114v-5h-64l-62 72h-8l-63 -72h-63v5zM270 -16q-39 0 -77 12.5t-71 37t-58.5 60.5t-37.5 83l60 25q9 -34 26.5 -63t41.5 -50t54 -32.5t64 -11.5q33 0 63 9.5t52.5 28t35.5 45t13 59.5q0 57 -42 92.5t-122 63.5l-45 16q-32 11 -63 26.5
t-55.5 37.5t-39.5 52.5t-15 71.5q0 37 15.5 71t43.5 59t67 40t85 15q49 0 86 -14.5t63.5 -36t42 -46.5t22.5 -46l-60 -25q-5 18 -16.5 36.5t-30.5 34.5t-45 26t-61 10q-30 0 -56.5 -9t-47 -25.5t-32 -39.5t-11.5 -50q0 -26 10.5 -45.5t29.5 -35t45 -28t57 -23.5l46 -17
q40 -14 75.5 -32t61.5 -42.5t41.5 -57.5t15.5 -76q0 -54 -21 -93t-54 -64t-74.5 -37t-81.5 -12z" />
    <glyph glyph-name="scircumflex" unicode="&#x15d;" horiz-adv-x="448" 
d="M98 602l100 114h59l101 -114v-5h-64l-62 72h-8l-63 -72h-63v5zM231 -16q-40 0 -73.5 11.5t-59 31t-44 45t-28.5 53.5l57 24q20 -53 60.5 -80.5t87.5 -27.5q59 0 93 26t34 62q0 15 -5 28t-18 24.5t-35 21t-56 17.5l-68 16q-23 6 -47.5 15.5t-44.5 25t-32.5 37.5t-12.5 51
q0 34 15.5 60t42 44t60.5 27.5t70 9.5q31 0 60 -7.5t53.5 -21.5t43.5 -35.5t30 -49.5l-56 -23q-20 42 -54.5 61t-79.5 19q-22 0 -43.5 -5.5t-38.5 -16t-27.5 -26t-10.5 -34.5q0 -31 26.5 -48t74.5 -29l72 -18q75 -19 110.5 -54.5t35.5 -83.5q0 -31 -13.5 -58t-39 -47.5
t-61 -32.5t-78.5 -12z" />
    <glyph glyph-name="uni015E" unicode="&#x15e;" horiz-adv-x="542" 
d="M283 -237q-33 0 -58 19.5t-35 47.5l42 18q6 -17 19 -29t32 -12q23 0 37 14.5t14 37.5q0 22 -13.5 37.5t-36.5 15.5q-26 0 -42 -21l-36 17l30 79q-35 5 -68 19.5t-61 38.5t-49 57t-32 75l60 25q9 -34 26.5 -63t41.5 -50t54 -32.5t64 -11.5q33 0 63 9.5t52.5 28t35.5 45
t13 59.5q0 57 -42 92.5t-122 63.5l-45 16q-32 11 -63 26.5t-55.5 37.5t-39.5 52.5t-15 71.5q0 37 15.5 71t43.5 59t67 40t85 15q49 0 86 -14.5t63.5 -36t42 -46.5t22.5 -46l-60 -25q-5 18 -16.5 36.5t-30.5 34.5t-45 26t-61 10q-30 0 -56.5 -9t-47 -25.5t-32 -39.5
t-11.5 -50q0 -26 10.5 -45.5t29.5 -35t45 -28t57 -23.5l46 -17q40 -14 75.5 -32t61.5 -42.5t41.5 -57.5t15.5 -76q0 -53 -20 -91t-51.5 -63t-71.5 -38t-79 -14l-17 -38q5 3 12.5 5.5t18.5 2.5q37 0 63.5 -26.5t26.5 -68.5q0 -20 -7.5 -37t-21 -30.5t-31.5 -21t-40 -7.5z" />
    <glyph glyph-name="uni015F" unicode="&#x15f;" horiz-adv-x="448" 
d="M247 -237q-33 0 -58 19.5t-35 47.5l42 18q6 -17 19 -29t32 -12q23 0 37 14.5t14 37.5q0 22 -13.5 37.5t-36.5 15.5q-26 0 -42 -21l-36 17l29 78q-67 9 -111 48.5t-62 90.5l57 24q20 -53 60.5 -80.5t87.5 -27.5q59 0 93 26t34 62q0 15 -5 28t-18 24.5t-35 21t-56 17.5
l-68 16q-23 6 -47.5 15.5t-44.5 25t-32.5 37.5t-12.5 51q0 34 15.5 60t42 44t60.5 27.5t70 9.5q31 0 60 -7.5t53.5 -21.5t43.5 -35.5t30 -49.5l-56 -23q-20 42 -54.5 61t-79.5 19q-22 0 -43.5 -5.5t-38.5 -16t-27.5 -26t-10.5 -34.5q0 -31 26.5 -48t74.5 -29l72 -18
q75 -19 110.5 -54.5t35.5 -83.5q0 -30 -13 -56.5t-36.5 -46.5t-56.5 -32.5t-74 -14.5l-17 -38q5 3 12.5 5.5t18.5 2.5q37 0 63.5 -26.5t26.5 -68.5q0 -20 -7.5 -37t-21 -30.5t-31.5 -21t-40 -7.5z" />
    <glyph glyph-name="Scaron" unicode="&#x160;" horiz-adv-x="542" 
d="M140 900h63l63 -72h8l62 72h64v-5l-101 -114h-59l-100 114v5zM270 -16q-39 0 -77 12.5t-71 37t-58.5 60.5t-37.5 83l60 25q9 -34 26.5 -63t41.5 -50t54 -32.5t64 -11.5q33 0 63 9.5t52.5 28t35.5 45t13 59.5q0 57 -42 92.5t-122 63.5l-45 16q-32 11 -63 26.5t-55.5 37.5
t-39.5 52.5t-15 71.5q0 37 15.5 71t43.5 59t67 40t85 15q49 0 86 -14.5t63.5 -36t42 -46.5t22.5 -46l-60 -25q-5 18 -16.5 36.5t-30.5 34.5t-45 26t-61 10q-30 0 -56.5 -9t-47 -25.5t-32 -39.5t-11.5 -50q0 -26 10.5 -45.5t29.5 -35t45 -28t57 -23.5l46 -17q40 -14 75.5 -32
t61.5 -42.5t41.5 -57.5t15.5 -76q0 -54 -21 -93t-54 -64t-74.5 -37t-81.5 -12z" />
    <glyph glyph-name="scaron" unicode="&#x161;" horiz-adv-x="448" 
d="M94 716h63l63 -72h8l62 72h64v-5l-101 -114h-59l-100 114v5zM231 -16q-40 0 -73.5 11.5t-59 31t-44 45t-28.5 53.5l57 24q20 -53 60.5 -80.5t87.5 -27.5q59 0 93 26t34 62q0 15 -5 28t-18 24.5t-35 21t-56 17.5l-68 16q-23 6 -47.5 15.5t-44.5 25t-32.5 37.5t-12.5 51
q0 34 15.5 60t42 44t60.5 27.5t70 9.5q31 0 60 -7.5t53.5 -21.5t43.5 -35.5t30 -49.5l-56 -23q-20 42 -54.5 61t-79.5 19q-22 0 -43.5 -5.5t-38.5 -16t-27.5 -26t-10.5 -34.5q0 -31 26.5 -48t74.5 -29l72 -18q75 -19 110.5 -54.5t35.5 -83.5q0 -31 -13.5 -58t-39 -47.5
t-61 -32.5t-78.5 -12z" />
    <glyph glyph-name="uni0162" unicode="&#x162;" horiz-adv-x="521" 
d="M281 -237q-34 0 -59 19.5t-35 47.5l42 18q5 -17 18.5 -29t33.5 -12q23 0 36.5 14.5t13.5 37.5q0 22 -13.5 37.5t-35.5 15.5q-14 0 -24.5 -5.5t-18.5 -15.5l-36 17l34 92h-8v655h-203v61h470v-61h-203v-655h-10l-24 -54q5 3 12.5 5.5t18.5 2.5q37 0 63.5 -26.5t26.5 -68.5
q0 -20 -7.5 -37t-20.5 -30.5t-31 -21t-40 -7.5z" />
    <glyph glyph-name="uni0163" unicode="&#x163;" horiz-adv-x="338" 
d="M115 432h-89v58h89v150h64v-150h122v-58h-122v-295q0 -43 21 -64q20 -22 48 -22q15 0 25.5 2.5t23.5 8.5l20 -55q-17 -8 -34.5 -11.5t-41.5 -3.5q-6 0 -11.5 0.5t-11.5 1.5l-22 -48q5 3 12.5 5.5t18.5 2.5q37 0 63.5 -26.5t26.5 -68.5q0 -20 -7.5 -37t-21 -30.5
t-31.5 -21t-40 -7.5q-33 0 -58 19.5t-35 47.5l42 18q6 -17 19 -29t32 -12q23 0 37 14.5t14 37.5q0 22 -13.5 37.5t-36.5 15.5q-26 0 -42 -21l-36 17l39 99q-13 6 -26 18q-18 17 -28 41.5t-10 59.5v306z" />
    <glyph glyph-name="Tcaron" unicode="&#x164;" horiz-adv-x="521" 
d="M132 900h63l63 -72h8l62 72h64v-5l-101 -114h-59l-100 114v5zM229 0v655h-203v61h470v-61h-203v-655h-64z" />
    <glyph glyph-name="tcaron" unicode="&#x165;" horiz-adv-x="337" 
d="M265 554v162h68l-28 -162h-40zM115 432h-89v58h89v150h64v-150h122v-58h-122v-295q0 -43 21 -64q20 -22 48 -22q15 0 25.5 2.5t23.5 8.5l20 -55q-17 -8 -34.5 -11.5t-41.5 -3.5q-52 0 -88 33q-18 17 -28 41.5t-10 59.5v306z" />
    <glyph glyph-name="Tbar" unicode="&#x166;" horiz-adv-x="521" 
d="M229 0v348h-137v52h137v255h-203v61h470v-61h-203v-255h135v-52h-135v-348h-64z" />
    <glyph glyph-name="tbar" unicode="&#x167;" horiz-adv-x="338" 
d="M115 235h-89v58h89v139h-89v58h89v150h64v-150h122v-58h-122v-139h122v-58h-122v-98q0 -43 21 -64q20 -22 48 -22q15 0 25.5 2.5t23.5 8.5l20 -55q-17 -8 -34.5 -11.5t-41.5 -3.5q-52 0 -88 33q-18 17 -28 41.5t-10 59.5v109z" />
    <glyph glyph-name="Utilde" unicode="&#x168;" horiz-adv-x="635" 
d="M318 -16q-58 0 -105.5 20t-81.5 57t-52.5 88t-18.5 113v454h64v-458q0 -45 13 -84t37.5 -67.5t60.5 -45t83 -16.5q46 0 82 16.5t61 45t38 67.5t13 84v458h64v-454q0 -62 -17.5 -113t-51 -88t-81.5 -57t-108 -20zM381 786q-20 0 -37.5 8.5t-32.5 18.5t-29 18.5t-26 8.5
q-40 0 -46 -44h-54q0 26 9.5 45.5t23.5 32t32 18.5t35 6q20 0 37.5 -8.5t32.5 -17.5q15 -10 29 -18.5t26 -8.5q40 0 45 43h54q0 -26 -9.5 -45.5t-23.5 -32t-31.5 -18.5t-34.5 -6z" />
    <glyph glyph-name="utilde" unicode="&#x169;" 
d="M416 92h-4q-12 -22 -29 -41.5t-39.5 -34.5t-50 -23.5t-58.5 -8.5q-45 0 -79 14.5t-56 41t-33 63t-11 80.5v307h64v-296q0 -78 34.5 -115t97.5 -37q35 0 64.5 16t50.5 42t33 60.5t12 71.5v258h64v-490h-60v92zM335 602q-20 0 -37.5 8.5t-32.5 18.5t-29 18.5t-26 8.5
q-40 0 -46 -44h-54q0 26 9.5 45.5t23.5 32t32 18.5t35 6q20 0 37.5 -8.5t32.5 -17.5q15 -10 29 -18.5t26 -8.5q40 0 45 43h54q0 -26 -9.5 -45.5t-23.5 -32t-31.5 -18.5t-34.5 -6z" />
    <glyph glyph-name="Umacron" unicode="&#x16a;" horiz-adv-x="635" 
d="M318 -16q-58 0 -105.5 20t-81.5 57t-52.5 88t-18.5 113v454h64v-458q0 -45 13 -84t37.5 -67.5t60.5 -45t83 -16.5q46 0 82 16.5t61 45t38 67.5t13 84v458h64v-454q0 -62 -17.5 -113t-51 -88t-81.5 -57t-108 -20zM184 817v52h268v-52h-268z" />
    <glyph glyph-name="umacron" unicode="&#x16b;" 
d="M416 92h-4q-12 -22 -29 -41.5t-39.5 -34.5t-50 -23.5t-58.5 -8.5q-45 0 -79 14.5t-56 41t-33 63t-11 80.5v307h64v-296q0 -78 34.5 -115t97.5 -37q35 0 64.5 16t50.5 42t33 60.5t12 71.5v258h64v-490h-60v92zM134 633v52h268v-52h-268z" />
    <glyph glyph-name="Ubreve" unicode="&#x16c;" horiz-adv-x="635" 
d="M318 -16q-58 0 -105.5 20t-81.5 57t-52.5 88t-18.5 113v454h64v-458q0 -45 13 -84t37.5 -67.5t60.5 -45t83 -16.5q46 0 82 16.5t61 45t38 67.5t13 84v458h64v-454q0 -62 -17.5 -113t-51 -88t-81.5 -57t-108 -20zM319 776q-24 0 -46 9t-39.5 25t-27.5 38t-10 48h55
q0 -27 18 -48t50 -21q31 0 49.5 21t18.5 48h53q0 -26 -10 -48t-26.5 -38t-38.5 -25t-46 -9z" />
    <glyph glyph-name="ubreve" unicode="&#x16d;" 
d="M416 92h-4q-12 -22 -29 -41.5t-39.5 -34.5t-50 -23.5t-58.5 -8.5q-45 0 -79 14.5t-56 41t-33 63t-11 80.5v307h64v-296q0 -78 34.5 -115t97.5 -37q35 0 64.5 16t50.5 42t33 60.5t12 71.5v258h64v-490h-60v92zM269 577q-24 0 -46 9t-39.5 25t-27.5 38t-10 48h55
q0 -27 18 -48t50 -21q31 0 49.5 21t18.5 48h53q0 -26 -10 -48t-26.5 -38t-38.5 -25t-46 -9z" />
    <glyph glyph-name="Uring" unicode="&#x16e;" horiz-adv-x="635" 
d="M318 754q-21 0 -40 8t-32.5 22t-21.5 32.5t-8 39.5q0 43 29.5 72.5t72.5 29.5q21 0 39.5 -8t32.5 -21.5t22 -32.5t8 -40t-8 -39.5t-22 -32.5t-32.5 -22t-39.5 -8zM318 800q23 0 39 16t16 40t-16 40t-39 16t-39 -16t-16 -40t16 -40t39 -16zM318 -16q-58 0 -105.5 20
t-81.5 57t-52.5 88t-18.5 113v454h64v-458q0 -45 13 -84t37.5 -67.5t60.5 -45t83 -16.5q46 0 82 16.5t61 45t38 67.5t13 84v458h64v-454q0 -62 -17.5 -113t-51 -88t-81.5 -57t-108 -20z" />
    <glyph glyph-name="uring" unicode="&#x16f;" 
d="M268 570q-21 0 -40 8t-32.5 22t-21.5 32.5t-8 39.5q0 43 29.5 72.5t72.5 29.5q21 0 39.5 -8t32.5 -21.5t22 -32.5t8 -40t-8 -39.5t-22 -32.5t-32.5 -22t-39.5 -8zM268 616q23 0 39 16t16 40t-16 40t-39 16t-39 -16t-16 -40t16 -40t39 -16zM416 92h-4q-12 -22 -29 -41.5
t-39.5 -34.5t-50 -23.5t-58.5 -8.5q-45 0 -79 14.5t-56 41t-33 63t-11 80.5v307h64v-296q0 -78 34.5 -115t97.5 -37q35 0 64.5 16t50.5 42t33 60.5t12 71.5v258h64v-490h-60v92z" />
    <glyph glyph-name="Uhungarumlaut" unicode="&#x170;" horiz-adv-x="635" 
d="M318 -16q-58 0 -105.5 20t-81.5 57t-52.5 88t-18.5 113v454h64v-458q0 -45 13 -84t37.5 -67.5t60.5 -45t83 -16.5q46 0 82 16.5t61 45t38 67.5t13 84v458h64v-454q0 -62 -17.5 -113t-51 -88t-81.5 -57t-108 -20zM211 776l52 124h73l-67 -124h-58zM355 776l52 124h73
l-67 -124h-58z" />
    <glyph glyph-name="uhungarumlaut" unicode="&#x171;" 
d="M165 592l52 124h73l-67 -124h-58zM308 592l52 124h73l-67 -124h-58zM416 92h-4q-12 -22 -29 -41.5t-39.5 -34.5t-50 -23.5t-58.5 -8.5q-45 0 -79 14.5t-56 41t-33 63t-11 80.5v307h64v-296q0 -78 34.5 -115t97.5 -37q35 0 64.5 16t50.5 42t33 60.5t12 71.5v258h64v-490
h-60v92z" />
    <glyph glyph-name="Uogonek" unicode="&#x172;" horiz-adv-x="635" 
d="M318 -16q-58 0 -105.5 20t-81.5 57t-52.5 88t-18.5 113v454h64v-458q0 -45 13 -84t37.5 -67.5t60.5 -45t83 -16.5q46 0 82 16.5t61 45t38 67.5t13 84v458h64v-454q0 -161 -112 -237q-17 -12 -36 -28t-35.5 -34t-27 -36t-10.5 -34q0 -29 17.5 -46t41.5 -17q20 0 34 7
l20 -49q-13 -6 -26 -9t-32 -3q-53 0 -83.5 32t-30.5 78q0 33 17 58.5t38 41.5q-8 -2 -16 -2h-17z" />
    <glyph glyph-name="uogonek" unicode="&#x173;" 
d="M457 -224q-54 0 -84 32t-30 78q0 20 6.5 37.5t17 32t23.5 25.5t26 19v92h-4q-12 -22 -29 -41.5t-39.5 -34.5t-50 -23.5t-58.5 -8.5q-45 0 -79 14.5t-56 41t-33 63t-11 80.5v307h64v-296q0 -78 34.5 -115t97.5 -37q35 0 64.5 16t50.5 42t33 60.5t12 71.5v258h64v-490
q-33 -24 -53.5 -49.5t-20.5 -57.5q0 -29 17 -46t42 -17q19 0 34 7l20 -49q-13 -6 -26 -9t-32 -3z" />
    <glyph glyph-name="Wcircumflex" unicode="&#x174;" horiz-adv-x="908" 
d="M329 786l100 114h59l101 -114v-5h-64l-62 72h-8l-63 -72h-63v5zM694 0h-67l-167 520h-4l-167 -520h-67l-205 716h67l171 -609h4l167 513h64l167 -513h4l163 609h67z" />
    <glyph glyph-name="wcircumflex" unicode="&#x175;" horiz-adv-x="732" 
d="M236 602l100 114h59l101 -114v-5h-64l-62 72h-8l-63 -72h-63v5zM504 0l-139 414l-137 -414h-62l-162 490h65l129 -403h1l134 403h68l135 -401h1l128 401h63l-162 -490h-62z" />
    <glyph glyph-name="Ycircumflex" unicode="&#x176;" horiz-adv-x="579" 
d="M260 0v324l-247 392h75l202 -326h4l198 326h75l-243 -392v-324h-64zM162 786l100 114h59l101 -114v-5h-64l-62 72h-8l-63 -72h-63v5z" />
    <glyph glyph-name="ycircumflex" unicode="&#x177;" horiz-adv-x="478" 
d="M98 -216l113 252l-206 454h71l166 -378h2l159 378h70l-309 -706h-66zM112 602l100 114h59l101 -114v-5h-64l-62 72h-8l-63 -72h-63v5z" />
    <glyph glyph-name="Ydieresis" unicode="&#x178;" horiz-adv-x="579" 
d="M260 0v324l-247 392h75l202 -326h4l198 326h75l-243 -392v-324h-64zM369 799q-18 0 -31.5 13t-13.5 31q0 20 13.5 32.5t31.5 12.5q19 0 31.5 -12.5t12.5 -32.5q0 -18 -12.5 -31t-31.5 -13zM215 799q-18 0 -31.5 13t-13.5 31q0 20 13.5 32.5t31.5 12.5q19 0 31.5 -12.5
t12.5 -32.5q0 -18 -12.5 -31t-31.5 -13z" />
    <glyph glyph-name="Zacute" unicode="&#x179;" horiz-adv-x="553" 
d="M243 776l52 124h73l-67 -124h-58zM34 69l400 586h-384v61h456v-69l-400 -586h404v-61h-476v69z" />
    <glyph glyph-name="zacute" unicode="&#x17a;" horiz-adv-x="450" 
d="M204 592l52 124h73l-67 -124h-58zM34 54l300 378h-292v58h370v-54l-300 -378h304v-58h-382v54z" />
    <glyph glyph-name="Zdotaccent" unicode="&#x17b;" horiz-adv-x="553" 
d="M280 814q-17 0 -29.5 12.5t-12.5 29.5q0 18 12.5 30t29.5 12q18 0 30 -12t12 -30q0 -17 -12 -29.5t-30 -12.5zM34 69l400 586h-384v61h456v-69l-400 -586h404v-61h-476v69z" />
    <glyph glyph-name="zdotaccent" unicode="&#x17c;" horiz-adv-x="450" 
d="M34 54l300 378h-292v58h370v-54l-300 -378h304v-58h-382v54zM232 615q-18 0 -31.5 13t-13.5 31q0 20 13.5 32.5t31.5 12.5q19 0 31.5 -12.5t12.5 -32.5q0 -18 -12.5 -31t-31.5 -13z" />
    <glyph glyph-name="Zcaron" unicode="&#x17d;" horiz-adv-x="553" 
d="M153 900h63l63 -72h8l62 72h64v-5l-101 -114h-59l-100 114v5zM34 69l400 586h-384v61h456v-69l-400 -586h404v-61h-476v69z" />
    <glyph glyph-name="zcaron" unicode="&#x17e;" horiz-adv-x="450" 
d="M104 716h63l63 -72h8l62 72h64v-5l-101 -114h-59l-100 114v5zM34 54l300 378h-292v58h370v-54l-300 -378h304v-58h-382v54z" />
    <glyph glyph-name="uni0192" unicode="&#x192;" horiz-adv-x="556" 
d="M107 -220q-20 0 -35.5 4.5t-29.5 11.5l17 55q21 -13 51 -13q31 0 50.5 21.5t27.5 60.5l81 415h-111v58h122l39 195q12 60 52.5 96t102.5 36q22 0 38.5 -3.5t30.5 -10.5l-22 -55q-19 11 -49 11q-35 0 -59.5 -20t-32.5 -64l-36 -185h138v-58h-149l-85 -425q-11 -58 -46 -94
t-95 -36z" />
    <glyph glyph-name="Aringacute" unicode="&#x1fa;" horiz-adv-x="653" 
d="M272 670q-21 14 -34 36.5t-13 49.5q0 36 21.5 63.5t56.5 35.5l33 77h69l-42 -80q29 -11 47.5 -37t18.5 -59q0 -27 -13 -49.5t-34 -36.5l259 -670h-70l-78 207h-332l-78 -207h-70zM470 267l-141 371h-4l-141 -371h286zM327 702q22 0 37.5 15.5t15.5 38.5t-15.5 38.5
t-37.5 15.5t-37.5 -15.5t-15.5 -38.5t15.5 -38.5t37.5 -15.5z" />
    <glyph glyph-name="aringacute" unicode="&#x1fb;" horiz-adv-x="506" 
d="M224 794l43 106h74l-60 -106h-57zM393 87h-4q-25 -43 -69.5 -73t-103.5 -30q-40 0 -74 12.5t-59 34t-39 51.5t-14 65q0 40 16.5 71t45 52t66 31.5t79.5 10.5q50 0 90 -11.5t66 -26.5v30q0 33 -12 60t-32 46t-47.5 29t-57.5 10q-45 0 -80 -19.5t-58 -56.5l-56 35
q29 45 79 71.5t113 26.5q49 0 88 -14.5t67 -41t43 -63t15 -81.5v-306h-62v87zM393 218q-30 18 -65.5 29.5t-80.5 11.5q-33 0 -60.5 -8t-48 -22.5t-32 -35.5t-11.5 -47q0 -24 10.5 -43.5t28.5 -33t40.5 -21t46.5 -7.5q33 0 64 14t55 38.5t38.5 56.5t14.5 68zM255 570
q-21 0 -40 8t-32.5 22t-21.5 32.5t-8 39.5q0 43 29.5 72.5t72.5 29.5q21 0 39.5 -8t32.5 -21.5t22 -32.5t8 -40t-8 -39.5t-22 -32.5t-32.5 -22t-39.5 -8zM255 616q23 0 39 16t16 40t-16 40t-39 16t-39 -16t-16 -40t16 -40t39 -16z" />
    <glyph glyph-name="AEacute" unicode="&#x1fc;" horiz-adv-x="936" 
d="M626 776l52 124h73l-67 -124h-58zM4 0l433 716h444v-61h-340v-267h308v-60h-308v-267h340v-61h-404v207h-274l-125 -207h-74zM239 267h238v388h-4z" />
    <glyph glyph-name="aeacute" unicode="&#x1fd;" horiz-adv-x="893" 
d="M410 592l52 124h73l-67 -124h-58zM639 -16q-75 0 -131 37.5t-84 101.5q-29 -65 -84 -102t-124 -37q-40 0 -74 12.5t-59 34t-39 51.5t-14 65q0 40 16.5 71t45 52t66 31.5t79.5 10.5q50 0 91 -11.5t67 -26.5v30q0 33 -11.5 60t-32 46t-47 29t-56.5 10q-46 0 -81.5 -21
t-53.5 -58l-58 29q24 48 73 77.5t118 29.5t118 -31.5t72 -83.5q30 51 80 83t117 32q53 0 95.5 -18.5t72.5 -52t46.5 -80.5t16.5 -104v-6q-1 -3 -1 -5v-6h-404q1 -51 18 -87t43.5 -59.5t58.5 -34.5t62 -11q62 0 98 28.5t60 72.5l55 -27q-13 -27 -33 -51t-46.5 -42
t-60.5 -28.5t-75 -10.5zM221 41q33 0 64 14.5t55.5 38.5t39.5 56t15 68q-20 11 -57 26t-91 15q-33 0 -60.5 -8t-48 -22.5t-32 -35.5t-11.5 -47q0 -24 10.5 -43.5t28.5 -33t40.5 -21t46.5 -7.5zM797 288q-1 24 -10 52t-28 52t-50.5 40t-77.5 16q-30 0 -58 -10.5t-51 -30.5
t-38.5 -50t-20.5 -69h334z" />
    <glyph glyph-name="Oslashacute" unicode="&#x1fe;" horiz-adv-x="809" 
d="M151 -3l36 58q-69 51 -108 130t-39 173q0 77 27.5 145t76 119t115.5 80.5t146 29.5q48 0 93 -11.5t83 -32.5l38 61l47 -30l-39 -62q66 -52 104.5 -129.5t38.5 -169.5q0 -77 -27.5 -145t-76.5 -119t-116 -80.5t-145 -29.5q-48 0 -90.5 11t-80.5 31l-36 -58zM105 358
q0 -80 31 -144t84 -106l328 527q-32 17 -68.5 26.5t-74.5 9.5q-62 0 -116.5 -23t-95.5 -64.5t-64.5 -99t-23.5 -126.5zM405 45q61 0 116 23t95.5 64.5t64.5 99t24 126.5q0 78 -30 141t-81 105l-327 -526q32 -16 66 -24.5t72 -8.5zM377 776l52 124h73l-67 -124h-58z" />
    <glyph glyph-name="oslashacute" unicode="&#x1ff;" horiz-adv-x="554" 
d="M277 506q33 0 63.5 -8t56.5 -22l28 45l44 -27l-30 -48q41 -35 63.5 -86.5t22.5 -114.5q0 -56 -18.5 -103.5t-51.5 -82.5t-78.5 -55t-99.5 -20q-30 0 -58 7t-52 18l-24 -38l-45 25l26 41q-45 35 -69.5 88.5t-24.5 119.5q0 56 18.5 103.5t51.5 82.5t78.5 55t98.5 20z
M94 245q0 -50 17 -88.5t46 -65.5l208 333q-20 11 -42.5 17.5t-45.5 6.5q-36 0 -69 -14.5t-58.5 -41t-40.5 -64t-15 -83.5zM277 42q36 0 69 14.5t58.5 41t41 64t15.5 83.5t-15 83.5t-41 63.5l-206 -331q35 -19 78 -19zM246 592l52 124h73l-67 -124h-58z" />
    <glyph glyph-name="uni0218" unicode="&#x218;" horiz-adv-x="542" 
d="M227 -201l42 63q-14 4 -23 16t-9 27q0 18 13 32.5t34 14.5t34 -14t13 -34q0 -11 -3 -19t-8 -17l-61 -91zM270 -16q-39 0 -77 12.5t-71 37t-58.5 60.5t-37.5 83l60 25q9 -34 26.5 -63t41.5 -50t54 -32.5t64 -11.5q33 0 63 9.5t52.5 28t35.5 45t13 59.5q0 57 -42 92.5
t-122 63.5l-45 16q-32 11 -63 26.5t-55.5 37.5t-39.5 52.5t-15 71.5q0 37 15.5 71t43.5 59t67 40t85 15q49 0 86 -14.5t63.5 -36t42 -46.5t22.5 -46l-60 -25q-5 18 -16.5 36.5t-30.5 34.5t-45 26t-61 10q-30 0 -56.5 -9t-47 -25.5t-32 -39.5t-11.5 -50q0 -26 10.5 -45.5
t29.5 -35t45 -28t57 -23.5l46 -17q40 -14 75.5 -32t61.5 -42.5t41.5 -57.5t15.5 -76q0 -54 -21 -93t-54 -64t-74.5 -37t-81.5 -12z" />
    <glyph glyph-name="uni0219" unicode="&#x219;" horiz-adv-x="448" 
d="M179 -201l42 63q-14 4 -23 16t-9 27q0 18 13 32.5t34 14.5t34 -14t13 -34q0 -11 -3 -19t-8 -17l-61 -91zM231 -16q-40 0 -73.5 11.5t-59 31t-44 45t-28.5 53.5l57 24q20 -53 60.5 -80.5t87.5 -27.5q59 0 93 26t34 62q0 15 -5 28t-18 24.5t-35 21t-56 17.5l-68 16
q-23 6 -47.5 15.5t-44.5 25t-32.5 37.5t-12.5 51q0 34 15.5 60t42 44t60.5 27.5t70 9.5q31 0 60 -7.5t53.5 -21.5t43.5 -35.5t30 -49.5l-56 -23q-20 42 -54.5 61t-79.5 19q-22 0 -43.5 -5.5t-38.5 -16t-27.5 -26t-10.5 -34.5q0 -31 26.5 -48t74.5 -29l72 -18
q75 -19 110.5 -54.5t35.5 -83.5q0 -31 -13.5 -58t-39 -47.5t-61 -32.5t-78.5 -12z" />
    <glyph glyph-name="uni021A" unicode="&#x21a;" horiz-adv-x="521" 
d="M204 -201l42 63q-14 4 -23 16t-9 27q0 18 13 32.5t34 14.5t34 -14t13 -34q0 -11 -3 -19t-8 -17l-61 -91zM229 0v655h-203v61h470v-61h-203v-655h-64z" />
    <glyph glyph-name="uni021B" unicode="&#x21b;" horiz-adv-x="338" 
d="M158 -201l42 63q-14 4 -23 16t-9 27q0 18 13 32.5t34 14.5t34 -14t13 -34q0 -11 -3 -19t-8 -17l-61 -91zM115 432h-89v58h89v150h64v-150h122v-58h-122v-295q0 -43 21 -64q20 -22 48 -22q15 0 25.5 2.5t23.5 8.5l20 -55q-17 -8 -34.5 -11.5t-41.5 -3.5q-52 0 -88 33
q-18 17 -28 41.5t-10 59.5v306z" />
    <glyph glyph-name="uni0237" unicode="&#x237;" horiz-adv-x="195" 
d="M7 -226q-28 0 -50 10l17 55q13 -7 31 -7q32 0 46.5 21t14.5 59v578h64v-579q0 -67 -32 -102t-91 -35z" />
    <glyph glyph-name="circumflex" unicode="&#x2c6;" horiz-adv-x="381" 
d="M61 602l100 114h59l101 -114v-5h-64l-62 72h-8l-63 -72h-63v5z" />
    <glyph glyph-name="caron" unicode="&#x2c7;" horiz-adv-x="381" 
d="M61 716h63l63 -72h8l62 72h64v-5l-101 -114h-59l-100 114v5z" />
    <glyph glyph-name="breve" unicode="&#x2d8;" horiz-adv-x="398" 
d="M200 592q-24 0 -46 9t-39.5 25t-27.5 38t-10 48h55q0 -27 18 -48t50 -21q31 0 49.5 21t18.5 48h53q0 -26 -10 -48t-26.5 -38t-38.5 -25t-46 -9z" />
    <glyph glyph-name="dotaccent" unicode="&#x2d9;" horiz-adv-x="215" 
d="M108 615q-18 0 -31.5 13t-13.5 31q0 20 13.5 32.5t31.5 12.5q19 0 31.5 -12.5t12.5 -32.5q0 -18 -12.5 -31t-31.5 -13z" />
    <glyph glyph-name="ring" unicode="&#x2da;" horiz-adv-x="409" 
d="M205 570q-21 0 -40 8t-32.5 22t-21.5 32.5t-8 39.5q0 43 29.5 72.5t72.5 29.5q21 0 39.5 -8t32.5 -21.5t22 -32.5t8 -40t-8 -39.5t-22 -32.5t-32.5 -22t-39.5 -8zM205 616q23 0 39 16t16 40t-16 40t-39 16t-39 -16t-16 -40t16 -40t39 -16z" />
    <glyph glyph-name="tilde" unicode="&#x2dc;" horiz-adv-x="392" 
d="M259 602q-20 0 -37.5 8.5t-32.5 18.5t-29 18.5t-26 8.5q-40 0 -46 -44h-54q0 26 9.5 45.5t23.5 32t32 18.5t35 6q20 0 37.5 -8.5t32.5 -17.5q15 -10 29 -18.5t26 -8.5q40 0 45 43h54q0 -26 -9.5 -45.5t-23.5 -32t-31.5 -18.5t-34.5 -6z" />
    <glyph glyph-name="uni0374" unicode="&#x374;" horiz-adv-x="250" 
d="M126 716h81l-107 -205h-57z" />
    <glyph glyph-name="uni0375" unicode="&#x375;" horiz-adv-x="250" 
d="M124 -83h-81l107 205h57z" />
    <glyph glyph-name="uni037E" unicode="&#x37e;" horiz-adv-x="203" 
d="M101 393q-22 0 -37 15t-15 37t15 36.5t37 14.5t36.5 -14.5t14.5 -36.5t-14.5 -37t-36.5 -15zM34 -72l51 81q-14 3 -25 15.5t-11 30.5q0 22 15 37t37 15t36.5 -15t14.5 -37q0 -14 -5.5 -25t-13.5 -24l-66 -100z" />
    <glyph glyph-name="tonos" unicode="&#x384;" horiz-adv-x="390" 
d="M188 716h74l-69 -124h-55z" />
    <glyph glyph-name="dieresistonos" unicode="&#x385;" horiz-adv-x="372" 
d="M76 617q-17 0 -29.5 12.5t-12.5 29.5q0 18 12.5 30t29.5 12q18 0 30 -12t12 -30q0 -17 -12 -29.5t-30 -12.5zM161 732h50v-144h-50v144zM296 617q-17 0 -29.5 12.5t-12.5 29.5q0 18 12.5 30t29.5 12q18 0 30 -12t12 -30q0 -17 -12 -29.5t-30 -12.5z" />
    <glyph glyph-name="Alphatonos" unicode="&#x386;" horiz-adv-x="653" 
d="M290 716h74l277 -716h-70l-78 207h-332l-78 -207h-70zM470 267l-141 371h-4l-141 -371h286zM59 592l52 124h73l-67 -124h-58z" />
    <glyph glyph-name="anoteleia" unicode="&#x387;" horiz-adv-x="145" 
d="M73 273q-22 0 -37 14.5t-15 36.5t15 37t37 15t36.5 -15t14.5 -37t-14.5 -36.5t-36.5 -14.5z" />
    <glyph glyph-name="Epsilontonos" unicode="&#x388;" horiz-adv-x="577" 
d="M-73 592l52 124h73l-67 -124h-58zM182 655v-267h308v-60h-308v-267h340v-61h-404v716h404v-61h-340z" />
    <glyph glyph-name="Etatonos" unicode="&#x389;" horiz-adv-x="723" 
d="M118 716h64v-320h400v320h64v-716h-64v336h-400v-336h-64v716zM-73 592l52 124h73l-67 -124h-58z" />
    <glyph glyph-name="Iotatonos" unicode="&#x38a;" horiz-adv-x="259" 
d="M118 716h64v-716h-64v716zM-73 592l52 124h73l-67 -124h-58z" />
    <glyph glyph-name="Omicrontonos" unicode="&#x38c;" horiz-adv-x="760" 
d="M-73 592l52 124h73l-67 -124h-58zM357 -16q-79 0 -146 29.5t-115.5 80.5t-76 119t-27.5 145t27.5 145t76 119t115.5 80.5t146 29.5q78 0 145 -29.5t116 -80.5t76.5 -119t27.5 -145t-27.5 -145t-76.5 -119t-116 -80.5t-145 -29.5zM357 45q61 0 116 23t95.5 64.5t64.5 99
t24 126.5t-24 126.5t-64.5 99t-95.5 64.5t-116 23q-62 0 -116.5 -23t-95.5 -64.5t-64.5 -99t-23.5 -126.5t23.5 -126.5t64.5 -99t95.5 -64.5t116.5 -23z" />
    <glyph glyph-name="Upsilontonos" unicode="&#x38e;" horiz-adv-x="656" 
d="M337 0v324l-247 392h75l202 -326h4l198 326h75l-243 -392v-324h-64zM-73 592l52 124h73l-67 -124h-58z" />
    <glyph glyph-name="Omegatonos" unicode="&#x38f;" horiz-adv-x="738" 
d="M408 0v97q45 12 85.5 38.5t70.5 64t47.5 85t17.5 102.5q0 59 -21.5 110.5t-59.5 90t-89 61t-110 22.5t-110 -22.5t-89 -61t-59.5 -90t-21.5 -110.5q0 -55 17.5 -102.5t47.5 -85t70.5 -64t85.5 -38.5v-97h-271v61h195v4q-104 49 -157 134t-53 189q0 68 26 130.5t71.5 110
t109 75.5t138.5 28t138.5 -28t109 -75.5t71.5 -110t26 -130.5q0 -104 -53.5 -189t-156.5 -134v-4h195v-61h-271zM-73 592l52 124h73l-67 -124h-58z" />
    <glyph glyph-name="iotadieresistonos" unicode="&#x390;" horiz-adv-x="195" 
d="M-12 617q-17 0 -29.5 12.5t-12.5 29.5q0 18 12.5 30t29.5 12q18 0 30 -12t12 -30q0 -17 -12 -29.5t-30 -12.5zM73 732h50v-144h-50v144zM208 617q-17 0 -29.5 12.5t-12.5 29.5q0 18 12.5 30t29.5 12q18 0 30 -12t12 -30q0 -17 -12 -29.5t-30 -12.5zM66 0v490h64v-490h-64
z" />
    <glyph glyph-name="Alpha" unicode="&#x391;" horiz-adv-x="653" 
d="M290 716h74l277 -716h-70l-78 207h-332l-78 -207h-70zM470 267l-141 371h-4l-141 -371h286z" />
    <glyph glyph-name="Beta" unicode="&#x392;" horiz-adv-x="587" 
d="M77 716h253q40 0 76 -14t63.5 -39t43.5 -59.5t16 -75.5q0 -54 -28 -94t-74 -62v-4q55 -17 90.5 -62.5t35.5 -105.5q0 -44 -17 -81t-45.5 -63.5t-67 -41t-80.5 -14.5h-266v716zM329 396q31 0 56 11t43 29t27.5 41.5t9.5 48.5t-9.5 48t-27 41t-41.5 29t-54 11h-192v-259
h188zM350 61q29 0 54 11t44 30t29.5 44t10.5 53t-11 52.5t-30 43.5t-45 30t-56 11h-205v-275h209z" />
    <glyph glyph-name="Gamma" unicode="&#x393;" horiz-adv-x="491" 
d="M77 716h388v-61h-324v-655h-64v716z" />
    <glyph glyph-name="uni0394" unicode="&#x394;" horiz-adv-x="637" 
d="M282 716h74l269 -716h-612zM105 61h427l-211 577h-4z" />
    <glyph glyph-name="Epsilon" unicode="&#x395;" horiz-adv-x="537" 
d="M141 655v-267h308v-60h-308v-267h340v-61h-404v716h404v-61h-340z" />
    <glyph glyph-name="Zeta" unicode="&#x396;" horiz-adv-x="553" 
d="M34 69l400 586h-384v61h456v-69l-400 -586h404v-61h-476v69z" />
    <glyph glyph-name="Eta" unicode="&#x397;" horiz-adv-x="682" 
d="M77 716h64v-320h400v320h64v-716h-64v336h-400v-336h-64v716z" />
    <glyph glyph-name="Theta" unicode="&#x398;" horiz-adv-x="824" 
d="M257 328v61h310v-61h-310zM405 -16q-79 0 -146 29.5t-115.5 80.5t-76 119t-27.5 145t27.5 145t76 119t115.5 80.5t146 29.5q78 0 145 -29.5t116 -80.5t76.5 -119t27.5 -145t-27.5 -145t-76.5 -119t-116 -80.5t-145 -29.5zM405 45q61 0 116 23t95.5 64.5t64.5 99t24 126.5
t-24 126.5t-64.5 99t-95.5 64.5t-116 23q-62 0 -116.5 -23t-95.5 -64.5t-64.5 -99t-23.5 -126.5t23.5 -126.5t64.5 -99t95.5 -64.5t116.5 -23z" />
    <glyph glyph-name="Iota" unicode="&#x399;" horiz-adv-x="218" 
d="M77 716h64v-716h-64v716z" />
    <glyph glyph-name="Kappa" unicode="&#x39a;" horiz-adv-x="581" 
d="M568 712l-346 -363l356 -345v-4h-89l-344 339h-4v-339h-64v716h64v-360h4l339 360h84v-4z" />
    <glyph glyph-name="Lambda" unicode="&#x39b;" horiz-adv-x="625" 
d="M276 716h74l263 -716h-71l-227 638h-4l-227 -638h-71z" />
    <glyph glyph-name="Mu" unicode="&#x39c;" horiz-adv-x="825" 
d="M77 716h63l271 -473h4l270 473h63v-716h-63v477l4 120h-4l-254 -445h-37l-254 445h-4l4 -120v-477h-63v716z" />
    <glyph glyph-name="Nu" unicode="&#x39d;" horiz-adv-x="690" 
d="M77 716h83l389 -604h4l-4 138v466h64v-716h-66l-406 631h-4l4 -138v-493h-64v716z" />
    <glyph glyph-name="Xi" unicode="&#x39e;" horiz-adv-x="479" 
d="M30 655v61h420v-61h-420zM30 0v61h420v-61h-420zM62 328v61h356v-61h-356z" />
    <glyph glyph-name="Omicron" unicode="&#x39f;" horiz-adv-x="809" 
d="M405 -16q-79 0 -146 29.5t-115.5 80.5t-76 119t-27.5 145t27.5 145t76 119t115.5 80.5t146 29.5q78 0 145 -29.5t116 -80.5t76.5 -119t27.5 -145t-27.5 -145t-76.5 -119t-116 -80.5t-145 -29.5zM405 45q61 0 116 23t95.5 64.5t64.5 99t24 126.5t-24 126.5t-64.5 99
t-95.5 64.5t-116 23q-62 0 -116.5 -23t-95.5 -64.5t-64.5 -99t-23.5 -126.5t23.5 -126.5t64.5 -99t95.5 -64.5t116.5 -23z" />
    <glyph glyph-name="Pi" unicode="&#x3a0;" horiz-adv-x="658" 
d="M77 716h504v-716h-64v655h-376v-655h-64v716z" />
    <glyph glyph-name="Rho" unicode="&#x3a1;" horiz-adv-x="557" 
d="M77 0v716h232q46 0 86.5 -15t70.5 -42.5t47.5 -66t17.5 -85.5t-17.5 -85.5t-47.5 -66t-70.5 -42.5t-86.5 -15h-168v-298h-64zM312 359q33 0 61 11.5t48.5 31.5t32.5 47t12 58t-12 58.5t-32.5 47t-48.5 31t-61 11.5h-171v-296h171z" />
    <glyph glyph-name="Sigma" unicode="&#x3a3;" horiz-adv-x="495" 
d="M114 655l231 -289l-231 -305h352v-61h-423v67l225 300l-225 282v67h423v-61h-352z" />
    <glyph glyph-name="Tau" unicode="&#x3a4;" horiz-adv-x="521" 
d="M229 0v655h-203v61h470v-61h-203v-655h-64z" />
    <glyph glyph-name="Upsilon" unicode="&#x3a5;" horiz-adv-x="579" 
d="M260 0v324l-247 392h75l202 -326h4l198 326h75l-243 -392v-324h-64z" />
    <glyph glyph-name="Phi" unicode="&#x3a6;" horiz-adv-x="777" 
d="M357 0v57q-71 4 -129.5 28.5t-100 64t-64.5 92.5t-23 116t23 116t64.5 92.5t100 63.5t129.5 29v57h64v-57q71 -5 129.5 -29t100 -63.5t64.5 -92.5t23 -116t-23 -116t-64.5 -92.5t-100 -64t-129.5 -28.5v-57h-64zM673 358q0 49 -17.5 91t-50 74t-79.5 51.5t-105 24.5v-482
q58 4 105 24t79.5 52t50 74t17.5 91zM105 358q0 -49 17.5 -91t50 -74t79 -52t105.5 -24v482q-59 -5 -105.5 -24.5t-79 -51.5t-50 -74t-17.5 -91z" />
    <glyph glyph-name="Chi" unicode="&#x3a7;" horiz-adv-x="612" 
d="M265 370l-235 346h79l195 -294h4l197 294h77l-234 -346l247 -370h-77l-210 315h-4l-210 -315h-77z" />
    <glyph glyph-name="Psi" unicode="&#x3a8;" horiz-adv-x="727" 
d="M396 0h-64v156q-58 0 -107.5 19.5t-86 56t-57.5 89.5t-21 120v275h64v-277q0 -51 15 -92t42 -70t65.5 -44.5t85.5 -15.5v499h64v-499q47 0 85.5 15.5t65.5 44.5t42 70t15 92v277h64v-275q0 -67 -21 -120t-57.5 -89.5t-86 -56t-107.5 -19.5v-156z" />
    <glyph glyph-name="uni03A9" unicode="&#x3a9;" horiz-adv-x="781" 
d="M450 0v97q45 12 85.5 38.5t70.5 64t47.5 85t17.5 102.5q0 59 -21.5 110.5t-59.5 90t-89 61t-110 22.5t-110 -22.5t-89 -61t-59.5 -90t-21.5 -110.5q0 -55 17.5 -102.5t47.5 -85t70.5 -64t85.5 -38.5v-97h-271v61h195v4q-104 49 -157 134t-53 189q0 68 26 130.5t71.5 110
t109 75.5t138.5 28t138.5 -28t109 -75.5t71.5 -110t26 -130.5q0 -104 -53.5 -189t-156.5 -134v-4h195v-61h-271z" />
    <glyph glyph-name="Iotadieresis" unicode="&#x3aa;" horiz-adv-x="218" 
d="M177 808q-17 0 -29.5 12.5t-12.5 29.5q0 18 12.5 30t29.5 12q18 0 30 -12t12 -30q0 -17 -12 -29.5t-30 -12.5zM41 808q-17 0 -29.5 12.5t-12.5 29.5q0 18 12.5 30t29.5 12q18 0 30 -12t12 -30q0 -17 -12 -29.5t-30 -12.5zM77 716h64v-716h-64v716z" />
    <glyph glyph-name="Upsilondieresis" unicode="&#x3ab;" horiz-adv-x="579" 
d="M260 0v324l-247 392h75l202 -326h4l198 326h75l-243 -392v-324h-64zM369 799q-18 0 -31.5 13t-13.5 31q0 20 13.5 32.5t31.5 12.5q19 0 31.5 -12.5t12.5 -32.5q0 -18 -12.5 -31t-31.5 -13zM215 799q-18 0 -31.5 13t-13.5 31q0 20 13.5 32.5t31.5 12.5q19 0 31.5 -12.5
t12.5 -32.5q0 -18 -12.5 -31t-31.5 -13z" />
    <glyph glyph-name="alphatonos" unicode="&#x3ac;" horiz-adv-x="565" 
d="M236 592l52 124h73l-67 -124h-58zM261 -16q-47 0 -89 19.5t-73.5 54t-50 82.5t-18.5 105t18.5 105t50 82.5t73.5 54t89 19.5q70 0 116 -30t69 -71h4v85h60v-490h-60v86h-4q-12 -20 -29 -38.5t-40 -32.5t-52 -22.5t-64 -8.5zM272 42q35 0 67.5 13.5t57 40t39 64t14.5 85.5
t-14.5 86t-39 64t-57 39.5t-67.5 13.5t-67.5 -14t-57 -40.5t-39 -64t-14.5 -84.5t14.5 -85t39 -64t57 -40t67.5 -14z" />
    <glyph glyph-name="epsilontonos" unicode="&#x3ad;" horiz-adv-x="479" 
d="M238 448q-54 0 -86 -25t-32 -59q0 -39 28 -63t70 -24h74v-54h-77q-55 0 -83 -27t-28 -61q0 -38 34 -65t100 -27q44 0 78 17.5t68 54.5l44 -43q-36 -42 -86.5 -65t-101.5 -23q-45 0 -82 10.5t-63.5 30t-41 47t-14.5 60.5q0 44 25.5 74t65.5 44v6q-32 14 -53 41t-21 71
q0 31 15 56.5t40.5 43.5t58.5 28t68 10q49 0 92.5 -19.5t81.5 -62.5l-43 -41q-32 35 -62.5 50t-68.5 15zM208 592l52 124h73l-67 -124h-58z" />
    <glyph glyph-name="etatonos" unicode="&#x3ae;" horiz-adv-x="543" 
d="M252 592l52 124h73l-67 -124h-58zM124 398h4q12 22 29 41.5t39.5 34.5t49.5 23.5t58 8.5q45 0 78.5 -15.5t56 -42.5t34 -64.5t11.5 -80.5v-519h-64v508q0 76 -35 116t-98 40q-35 0 -64 -15.5t-50 -42t-33 -60.5t-12 -71v-259h-64v490h60v-92z" />
    <glyph glyph-name="iotatonos" unicode="&#x3af;" horiz-adv-x="195" 
d="M66 592l52 124h73l-67 -124h-58zM66 0v490h64v-490h-64z" />
    <glyph glyph-name="upsilondieresistonos" unicode="&#x3b0;" horiz-adv-x="529" 
d="M140 617q-17 0 -29.5 12.5t-12.5 29.5q0 18 12.5 30t29.5 12q18 0 30 -12t12 -30q0 -17 -12 -29.5t-30 -12.5zM225 732h50v-144h-50v144zM360 617q-17 0 -29.5 12.5t-12.5 29.5q0 18 12.5 30t29.5 12q18 0 30 -12t12 -30q0 -17 -12 -29.5t-30 -12.5zM265 -16
q-45 0 -83.5 17.5t-66.5 48.5t-43.5 73t-15.5 92v275h64v-262q0 -46 12 -80.5t32 -58t47.5 -35.5t59.5 -12q33 0 63 13t52.5 37.5t36 61t13.5 83.5q0 60 -19 122.5t-60 130.5h72q29 -54 50 -117.5t21 -135.5q0 -65 -19.5 -112.5t-52 -78.5t-75 -46.5t-88.5 -15.5z" />
    <glyph glyph-name="alpha" unicode="&#x3b1;" horiz-adv-x="565" 
d="M261 -16q-47 0 -89 19.5t-73.5 54t-50 82.5t-18.5 105t18.5 105t50 82.5t73.5 54t89 19.5q70 0 116 -30t69 -71h4v85h60v-490h-60v86h-4q-12 -20 -29 -38.5t-40 -32.5t-52 -22.5t-64 -8.5zM272 42q35 0 67.5 13.5t57 40t39 64t14.5 85.5t-14.5 86t-39 64t-57 39.5
t-67.5 13.5t-67.5 -14t-57 -40.5t-39 -64t-14.5 -84.5t14.5 -85t39 -64t57 -40t67.5 -14z" />
    <glyph glyph-name="beta" unicode="&#x3b2;" horiz-adv-x="549" 
d="M384 384q25 -9 48.5 -25t42 -39t29.5 -52t11 -65q0 -46 -16 -86t-45.5 -69.5t-70 -46.5t-88.5 -17q-50 0 -89.5 23t-61.5 59h-4l4 -78v-204h-67v732q0 47 14 86.5t40 68.5t64.5 45t87.5 16q44 0 81 -14t63.5 -39t41 -58.5t14.5 -73.5q0 -64 -28.5 -101.5t-70.5 -57.5v-4z
M291 44q34 0 63 12t50.5 33.5t33.5 50t12 61.5q0 31 -12.5 58.5t-34.5 48.5t-52.5 33.5t-67.5 12.5h-46v59h36q69 0 107 37t38 95q0 30 -11 53.5t-29.5 40t-43 25t-51.5 8.5q-63 0 -102 -41t-39 -116v-308q0 -38 11.5 -68t31.5 -51t47 -32.5t59 -11.5z" />
    <glyph glyph-name="gamma" unicode="&#x3b3;" horiz-adv-x="511" 
d="M223 -216v221l-218 485h69l181 -415h2l182 415h68l-220 -485v-221h-64z" />
    <glyph glyph-name="delta" unicode="&#x3b4;" horiz-adv-x="554" 
d="M277 -16q-53 0 -98.5 20t-78.5 55t-51.5 82.5t-18.5 103.5q0 52 16 96.5t44.5 78.5t68.5 55.5t87 26.5q8 1 16 1h15l-202 167v46h388v-58h-285l254 -207q44 -35 68.5 -87.5t24.5 -118.5q0 -56 -18.5 -103.5t-51.5 -82.5t-78.5 -55t-99.5 -20zM277 42q36 0 69 14.5
t58.5 41t41 64t15.5 83.5t-15.5 83.5t-41 64t-58.5 41t-69 14.5t-69 -14.5t-58.5 -41t-40.5 -64t-15 -83.5t15 -83.5t40.5 -64t58.5 -41t69 -14.5z" />
    <glyph glyph-name="epsilon" unicode="&#x3b5;" horiz-adv-x="470" 
d="M238 448q-54 0 -86 -25t-32 -59q0 -39 28 -63t70 -24h74v-54h-77q-55 0 -83 -27t-28 -61q0 -38 34 -65t100 -27q44 0 78 17.5t68 54.5l44 -43q-36 -42 -86.5 -65t-101.5 -23q-45 0 -82 10.5t-63.5 30t-41 47t-14.5 60.5q0 44 25.5 74t65.5 44v6q-32 14 -53 41t-21 71
q0 31 15 56.5t40.5 43.5t58.5 28t68 10q49 0 92.5 -19.5t81.5 -62.5l-43 -41q-32 35 -62.5 50t-68.5 15z" />
    <glyph glyph-name="zeta" unicode="&#x3b6;" horiz-adv-x="462" 
d="M308 -110q33 0 51 16t18 39q0 24 -17 39.5t-55 15.5h-125q-38 0 -67 11t-48.5 29.5t-29 44t-9.5 54.5q0 78 72 130q7 5 20.5 15t30.5 23q16 12 36 26l38 28q45 33 97 71h-279v58h372v-56q-75 -56 -135 -101q-26 -19 -50 -38q-25 -19 -45 -34.5t-33 -25.5q-14 -10 -16 -12
q-24 -20 -35 -37t-11 -46q0 -34 25 -58t68 -24h116q69 0 104.5 -29t35.5 -82q0 -51 -35.5 -83t-93.5 -32v58z" />
    <glyph glyph-name="eta" unicode="&#x3b7;" 
d="M120 398h4q12 22 29 41.5t39.5 34.5t49.5 23.5t58 8.5q45 0 78.5 -15.5t56 -42.5t34 -64.5t11.5 -80.5v-519h-64v508q0 76 -35 116t-98 40q-35 0 -64 -15.5t-50 -42t-33 -60.5t-12 -71v-259h-64v490h60v-92z" />
    <glyph glyph-name="theta" unicode="&#x3b8;" horiz-adv-x="648" 
d="M315 -16q-62 0 -111.5 28t-84.5 76t-53.5 113.5t-18.5 140.5t18.5 140.5t53.5 114t84.5 76t111.5 27.5t111.5 -27.5t84.5 -76t53.5 -114t18.5 -140.5t-18.5 -140.5t-53.5 -113.5t-84.5 -76t-111.5 -28zM315 45q46 0 83 22t63.5 61t41 92t15.5 114h-406q1 -61 15.5 -114
t40.5 -92t63.5 -61t83.5 -22zM315 639q-43 0 -78 -19t-61 -53t-42 -80t-20 -101h402q-5 55 -21 101t-41.5 80t-60.5 53t-78 19z" />
    <glyph glyph-name="iota" unicode="&#x3b9;" horiz-adv-x="195" 
d="M66 0v490h64v-490h-64z" />
    <glyph glyph-name="kappa" unicode="&#x3ba;" horiz-adv-x="443" 
d="M128 249h-4v-249h-64v490h64v-224h4l225 224h82v-4l-234 -228l244 -254v-4h-80z" />
    <glyph glyph-name="lambda" unicode="&#x3bb;" horiz-adv-x="478" 
d="M98 705.974l113 -251.97l-206 -453.944h71l166 377.954h2l159 -377.954h70l-309 705.914h-66z" />
    <glyph glyph-name="nu" unicode="&#x3bd;" horiz-adv-x="481" 
d="M5 490h68l167 -418h2l168 418h67l-202 -490h-70z" />
    <glyph glyph-name="xi" unicode="&#x3be;" horiz-adv-x="506" 
d="M261 732q66 0 114 -25.5t87 -73.5l-45 -43q-32 42 -69.5 62t-86.5 20q-32 0 -58.5 -10t-46 -27.5t-30.5 -41.5t-11 -52q0 -30 12 -55t33 -42.5t50 -27.5t63 -10h84v-59h-104q-38 0 -68 -12t-51 -32t-32 -46t-11 -54q0 -67 45.5 -104.5t123.5 -37.5h81q69 0 104 -31
t35 -82q0 -52 -35.5 -84t-92.5 -32v58q33 0 50.5 16t17.5 39q0 24 -16.5 39.5t-54.5 15.5h-88q-59 0 -103.5 15.5t-73.5 43t-43.5 64.5t-14.5 81q0 36 11 65t30 51t43 36.5t50 22.5v4q-21 9 -41 22.5t-35.5 32t-24.5 44t-9 58.5q0 43 16 78t44 60.5t66.5 39.5t84.5 14z" />
    <glyph glyph-name="omicron" unicode="&#x3bf;" horiz-adv-x="554" 
d="M277 506q54 0 99.5 -20t78.5 -55t51.5 -82.5t18.5 -103.5t-18.5 -103.5t-51.5 -82.5t-78.5 -55t-99.5 -20q-53 0 -98.5 20t-78.5 55t-51.5 82.5t-18.5 103.5t18.5 103.5t51.5 82.5t78.5 55t98.5 20zM277 42q36 0 69 14.5t58.5 41t41 64t15.5 83.5t-15.5 83.5t-41 64
t-58.5 41t-69 14.5t-69 -14.5t-58.5 -41t-40.5 -64t-15 -83.5t15 -83.5t40.5 -64t58.5 -41t69 -14.5z" />
    <glyph glyph-name="pi" unicode="&#x3c0;" horiz-adv-x="677" 
d="M651 5q-13 -6 -28 -9.5t-35 -3.5q-54 0 -91 34t-37 105v301h-249v-432h-64v432h-121v58h620v-58h-122v-300q0 -41 18 -61.5t46 -20.5q21 0 41 9z" />
    <glyph glyph-name="rho" unicode="&#x3c1;" horiz-adv-x="569" 
d="M309 -16q-35 0 -64 8.5t-52 22.5t-40 32.5t-29 38.5h-4l4 -68v-234h-64v468q0 55 18 101.5t49.5 80.5t75.5 53t97 19q51 0 95 -19.5t76.5 -54.5t50.5 -82.5t18 -104.5t-18.5 -105t-50 -82.5t-73.5 -54t-89 -19.5zM298 42q35 0 67.5 14t57 40t39 64t14.5 85
q0 48 -14.5 85.5t-39.5 63.5t-57 39.5t-67 13.5t-67 -13.5t-57 -39.5t-39.5 -63.5t-14.5 -85.5t14.5 -86t39 -64t57 -39.5t67.5 -13.5z" />
    <glyph glyph-name="uni03C2" unicode="&#x3c2;" horiz-adv-x="512" 
d="M308 -16q-65 0 -116.5 20t-87.5 55t-55 82.5t-19 103.5t18.5 103.5t51 82.5t77.5 55t98 20q41 0 74.5 -10.5t60 -29.5t45.5 -44t31 -55l-57 -25q-22 51 -61 78.5t-96 27.5q-34 0 -66 -14.5t-57 -41t-40 -64t-15 -83.5t15 -83.5t42.5 -64t66.5 -41t86 -14.5h41
q69 0 104 -30t35 -81t-35.5 -83t-92.5 -32v58q33 0 50.5 16t17.5 39q0 24 -16.5 39.5t-54.5 15.5h-45z" />
    <glyph glyph-name="sigma" unicode="&#x3c3;" horiz-adv-x="581" 
d="M270 -16q-53 0 -97 19t-75.5 52.5t-49.5 80t-18 101.5t18 101.5t49.5 80t75.5 52.5t97 19h299v-58h-78l-78 4v-4q43 -29 70 -79t27 -116q0 -55 -18 -101.5t-49.5 -80t-76 -52.5t-96.5 -19zM270 42q35 0 67 13.5t56 39t38.5 61.5t14.5 81t-14.5 81.5t-38.5 61.5t-56 38.5
t-67 13.5t-67 -13.5t-56 -38.5t-38.5 -61.5t-14.5 -81.5t14.5 -81t38.5 -61.5t56 -39t67 -13.5z" />
    <glyph glyph-name="tau" unicode="&#x3c4;" horiz-adv-x="441" 
d="M26 490h390v-58h-163v-432h-64v432h-163v58z" />
    <glyph glyph-name="upsilon" unicode="&#x3c5;" horiz-adv-x="529" 
d="M265 -16q-45 0 -83.5 17.5t-66.5 48.5t-43.5 73t-15.5 92v275h64v-262q0 -46 12 -80.5t32 -58t47.5 -35.5t59.5 -12q33 0 63 13t52.5 37.5t36 61t13.5 83.5q0 60 -19 122.5t-60 130.5h72q29 -54 50 -117.5t21 -135.5q0 -65 -19.5 -112.5t-52 -78.5t-75 -46.5t-88.5 -15.5
z" />
    <glyph glyph-name="phi" unicode="&#x3c6;" horiz-adv-x="710" 
d="M321 -216v202q-59 4 -109 24.5t-87 54.5t-57.5 81.5t-20.5 105.5q0 51 18 92t45 73t59.5 54t61.5 35l28 -57q-27 -11 -53 -29.5t-47 -43.5t-34 -56.5t-13 -67.5q0 -49 16.5 -86.5t45 -63.5t66.5 -40.5t81 -18.5v313q0 32 10 59.5t28 47.5t44 31.5t58 11.5
q41 0 77.5 -19.5t64.5 -54t44 -80.5t16 -100q0 -57 -20 -104t-57 -81.5t-88 -55.5t-113 -25v-202h-64zM385 43q44 4 83 18.5t68 40.5t45.5 63t16.5 87q0 39 -10.5 74.5t-29 62t-43 42t-52.5 15.5q-33 0 -55.5 -23.5t-22.5 -65.5v-314z" />
    <glyph glyph-name="chi" unicode="&#x3c7;" horiz-adv-x="447" 
d="M364 0l-141 202l-139 -202h-75l177 249l-171 241h74l135 -193l133 193h76l-173 -241l179 -249h-75z" />
    <glyph glyph-name="psi" unicode="&#x3c8;" horiz-adv-x="675" 
d="M315 -16h-9q-56 0 -102 18t-79 51t-51 78.5t-18 101.5v257h64v-253q0 -49 14.5 -85.5t39 -61t57.5 -36.5t70 -12h14v448h64v-448h9q44 0 79.5 14.5t61 41t39.5 62t14 77.5q0 64 -15 126.5t-53 126.5h71q29 -53 45 -118t16 -135q0 -65 -22.5 -112.5t-59 -78.5t-83 -46.5
t-93.5 -15.5h-9v-200h-64v200z" />
    <glyph glyph-name="omega" unicode="&#x3c9;" horiz-adv-x="765" 
d="M536 -16q-111 0 -153 117q-44 -117 -153 -117q-41 0 -77.5 15.5t-63.5 46.5t-43 78.5t-16 112.5q0 70 21 136.5t48 116.5h72q-36 -60 -56.5 -124.5t-20.5 -128.5q0 -94 37 -144.5t100 -50.5q25 0 46.5 11t38 34.5t26 59t9.5 84.5v139h64v-139q0 -49 9.5 -84.5t25.5 -59
t38 -34.5t47 -11q63 0 100 50.5t37 144.5q0 64 -20.5 128.5t-56.5 124.5h72q27 -50 48 -116.5t21 -136.5q0 -65 -16 -112.5t-43 -78.5t-63.5 -46.5t-77.5 -15.5z" />
    <glyph glyph-name="iotadieresis" unicode="&#x3ca;" horiz-adv-x="195" 
d="M36 615q-18 0 -31.5 13t-13.5 31q0 20 13.5 32.5t31.5 12.5q19 0 31.5 -12.5t12.5 -32.5q0 -18 -12.5 -31t-31.5 -13zM160 615q-18 0 -31.5 13t-13.5 31q0 20 13.5 32.5t31.5 12.5q19 0 31.5 -12.5t12.5 -32.5q0 -18 -12.5 -31t-31.5 -13zM66 0v490h64v-490h-64z" />
    <glyph glyph-name="upsilondieresis" unicode="&#x3cb;" horiz-adv-x="529" 
d="M322 615q-18 0 -31.5 13t-13.5 31q0 20 13.5 32.5t31.5 12.5q19 0 31.5 -12.5t12.5 -32.5q0 -18 -12.5 -31t-31.5 -13zM168 615q-18 0 -31.5 13t-13.5 31q0 20 13.5 32.5t31.5 12.5q19 0 31.5 -12.5t12.5 -32.5q0 -18 -12.5 -31t-31.5 -13zM265 -16q-45 0 -83.5 17.5
t-66.5 48.5t-43.5 73t-15.5 92v275h64v-262q0 -46 12 -80.5t32 -58t47.5 -35.5t59.5 -12q33 0 63 13t52.5 37.5t36 61t13.5 83.5q0 60 -19 122.5t-60 130.5h72q29 -54 50 -117.5t21 -135.5q0 -65 -19.5 -112.5t-52 -78.5t-75 -46.5t-88.5 -15.5z" />
    <glyph glyph-name="omicrontonos" unicode="&#x3cc;" horiz-adv-x="554" 
d="M246 592l52 124h73l-67 -124h-58zM277 506q54 0 99.5 -20t78.5 -55t51.5 -82.5t18.5 -103.5t-18.5 -103.5t-51.5 -82.5t-78.5 -55t-99.5 -20q-53 0 -98.5 20t-78.5 55t-51.5 82.5t-18.5 103.5t18.5 103.5t51.5 82.5t78.5 55t98.5 20zM277 42q36 0 69 14.5t58.5 41t41 64
t15.5 83.5t-15.5 83.5t-41 64t-58.5 41t-69 14.5t-69 -14.5t-58.5 -41t-40.5 -64t-15 -83.5t15 -83.5t40.5 -64t58.5 -41t69 -14.5z" />
    <glyph glyph-name="upsilontonos" unicode="&#x3cd;" horiz-adv-x="529" 
d="M265 -16q-45 0 -83.5 17.5t-66.5 48.5t-43.5 73t-15.5 92v275h64v-262q0 -46 12 -80.5t32 -58t47.5 -35.5t59.5 -12q33 0 63 13t52.5 37.5t36 61t13.5 83.5q0 60 -19 122.5t-60 130.5h72q29 -54 50 -117.5t21 -135.5q0 -65 -19.5 -112.5t-52 -78.5t-75 -46.5t-88.5 -15.5
zM218 592l52 124h73l-67 -124h-58z" />
    <glyph glyph-name="omegatonos" unicode="&#x3ce;" horiz-adv-x="765" 
d="M357 592l52 124h73l-67 -124h-58zM536 -16q-111 0 -153 117q-44 -117 -153 -117q-41 0 -77.5 15.5t-63.5 46.5t-43 78.5t-16 112.5q0 70 21 136.5t48 116.5h72q-36 -60 -56.5 -124.5t-20.5 -128.5q0 -94 37 -144.5t100 -50.5q25 0 46.5 11t38 34.5t26 59t9.5 84.5v139h64
v-139q0 -49 9.5 -84.5t25.5 -59t38 -34.5t47 -11q63 0 100 50.5t37 144.5q0 64 -20.5 128.5t-56.5 124.5h72q27 -50 48 -116.5t21 -136.5q0 -65 -16 -112.5t-43 -78.5t-63.5 -46.5t-77.5 -15.5z" />
    <glyph glyph-name="uni03D1" unicode="&#x3d1;" horiz-adv-x="617" 
d="M56 490h64v-268q0 -88 43 -134t115 -46q71 0 114.5 46t43.5 134v68q-46 7 -88.5 29.5t-75.5 57.5t-52.5 81.5t-19.5 101.5q0 40 11.5 71.5t31.5 54t47 34.5t59 12q71 0 111 -46t40 -121v-217h91v-58h-91v-78q0 -50 -15.5 -92t-44.5 -72t-70 -47t-92 -17t-92 17t-70 47
t-44.5 72t-15.5 92v278zM264 560q0 -42 14.5 -77.5t38.5 -63t55 -45.5t64 -25v219q0 45 -22 75t-65 30q-38 0 -61.5 -31t-23.5 -82z" />
    <glyph glyph-name="uni03D2" unicode="&#x3d2;" horiz-adv-x="587" 
d="M262 310l-146 299q-14 29 -26.5 41.5t-31.5 12.5q-20 0 -34 -11l-19 57q9 5 25 10t33 5t31.5 -4t27 -13.5t24.5 -26.5t24 -43l122 -260h4l121 260q12 26 24 43t25 26.5t27.5 13.5t31.5 4t33 -5t25 -10l-19 -57q-16 11 -35 11t-31.5 -12.5t-26.5 -41.5l-145 -299v-310h-64
v310z" />
    <glyph glyph-name="uni03D3" unicode="&#x3d3;" horiz-adv-x="658" 
d="M333 310l-146 299q-14 29 -26.5 41.5t-31.5 12.5q-20 0 -34 -11l-19 57q9 5 25 10t33 5t31.5 -4t27 -13.5t24.5 -26.5t24 -43l122 -260h4l121 260q12 26 24 43t25 26.5t27.5 13.5t31.5 4t33 -5t25 -10l-19 -57q-16 11 -35 11t-31.5 -12.5t-26.5 -41.5l-145 -299v-310h-64
v310zM-73 592l52 124h73l-67 -124h-58z" />
    <glyph glyph-name="uni03D4" unicode="&#x3d4;" horiz-adv-x="587" 
d="M262 310l-146 299q-14 29 -26.5 41.5t-31.5 12.5q-20 0 -34 -11l-19 57q9 5 25 10t33 5t31.5 -4t27 -13.5t24.5 -26.5t24 -43l122 -260h4l121 260q12 26 24 43t25 26.5t27.5 13.5t31.5 4t33 -5t25 -10l-19 -57q-16 11 -35 11t-31.5 -12.5t-26.5 -41.5l-145 -299v-310h-64
v310zM372 799q-18 0 -31.5 13t-13.5 31q0 20 13.5 32.5t31.5 12.5q19 0 31.5 -12.5t12.5 -32.5q0 -18 -12.5 -31t-31.5 -13zM218 799q-18 0 -31.5 13t-13.5 31q0 20 13.5 32.5t31.5 12.5q19 0 31.5 -12.5t12.5 -32.5q0 -18 -12.5 -31t-31.5 -13z" />
    <glyph glyph-name="uni03D6" unicode="&#x3d6;" horiz-adv-x="879" 
d="M43 490h794v-58h-89q20 -43 32.5 -92.5t12.5 -102.5q0 -65 -16 -112.5t-43 -78.5t-63.5 -46.5t-77.5 -15.5q-111 0 -153 117q-44 -117 -153 -117q-41 0 -77.5 15.5t-63.5 46.5t-43 78.5t-16 112.5q0 53 12.5 102.5t32.5 92.5h-89v58zM408 312h64v-81q0 -49 9.5 -84.5
t25.5 -59t38 -34.5t47 -11q63 0 100 50.5t37 144.5q0 51 -14.5 99t-37.5 96h-474q-23 -48 -37.5 -96t-14.5 -99q0 -94 37 -144.5t100 -50.5q25 0 46.5 11t38 34.5t26 59t9.5 84.5v81z" />
    <glyph glyph-name="uni0400" unicode="&#x400;" horiz-adv-x="537" 
d="M141 655v-267h308v-60h-308v-267h340v-61h-404v716h404v-61h-340zM257 776l-67 124h73l52 -124h-58z" />
    <glyph glyph-name="uni0401" unicode="&#x401;" horiz-adv-x="537" 
d="M353 799q-18 0 -31.5 13t-13.5 31q0 20 13.5 32.5t31.5 12.5q19 0 31.5 -12.5t12.5 -32.5q0 -18 -12.5 -31t-31.5 -13zM199 799q-18 0 -31.5 13t-13.5 31q0 20 13.5 32.5t31.5 12.5q19 0 31.5 -12.5t12.5 -32.5q0 -18 -12.5 -31t-31.5 -13zM141 655v-267h308v-60h-308
v-267h340v-61h-404v716h404v-61h-340z" />
    <glyph glyph-name="uni0402" unicode="&#x402;" horiz-adv-x="735" 
d="M701 217q0 -53 -16 -93.5t-44 -67.5t-65.5 -41.5t-79.5 -14.5h-17v60h18q64 0 101.5 42.5t37.5 114.5q0 34 -11.5 63.5t-33.5 51.5t-52.5 34.5t-68.5 12.5q-57 0 -103.5 -26.5t-79.5 -76.5v-276h-64v655h-197v61h461v-61h-200v-226l-4 -78h4q37 42 85 64.5t111 22.5
q44 0 83.5 -16t69.5 -45.5t47.5 -70t17.5 -89.5z" />
    <glyph glyph-name="uni0403" unicode="&#x403;" horiz-adv-x="497" 
d="M77 716h394v-61h-330v-655h-64v716zM241 776l52 124h73l-67 -124h-58z" />
    <glyph glyph-name="uni0404" unicode="&#x404;" horiz-adv-x="723" 
d="M405 -16q-79 0 -146 29t-115.5 79.5t-76 119t-27.5 146.5t27.5 146.5t76 119t115.5 79.5t146 29q83 0 147 -30.5t112 -86.5l-46 -44q-81 100 -213 100q-59 0 -111 -20.5t-92.5 -57.5t-66.5 -89.5t-31 -115.5h350v-60h-350q5 -64 31 -116t66.5 -89t92.5 -57.5t111 -20.5
q75 0 132.5 30t101.5 83l45 -44q-48 -58 -117.5 -94t-161.5 -36z" />
    <glyph glyph-name="uni0405" unicode="&#x405;" horiz-adv-x="542" 
d="M270 -16q-39 0 -77 12.5t-71 37t-58.5 60.5t-37.5 83l60 25q9 -34 26.5 -63t41.5 -50t54 -32.5t64 -11.5q33 0 63 9.5t52.5 28t35.5 45t13 59.5q0 57 -42 92.5t-122 63.5l-45 16q-32 11 -63 26.5t-55.5 37.5t-39.5 52.5t-15 71.5q0 37 15.5 71t43.5 59t67 40t85 15
q49 0 86 -14.5t63.5 -36t42 -46.5t22.5 -46l-60 -25q-5 18 -16.5 36.5t-30.5 34.5t-45 26t-61 10q-30 0 -56.5 -9t-47 -25.5t-32 -39.5t-11.5 -50q0 -26 10.5 -45.5t29.5 -35t45 -28t57 -23.5l46 -17q40 -14 75.5 -32t61.5 -42.5t41.5 -57.5t15.5 -76q0 -54 -21 -93t-54 -64
t-74.5 -37t-81.5 -12z" />
    <glyph glyph-name="uni0406" unicode="&#x406;" horiz-adv-x="218" 
d="M77 716h64v-716h-64v716z" />
    <glyph glyph-name="uni0407" unicode="&#x407;" horiz-adv-x="218" 
d="M182 814q-17 0 -29.5 12.5t-12.5 29.5q0 18 12.5 30t29.5 12q18 0 30 -12t12 -30q0 -17 -12 -29.5t-30 -12.5zM36 814q-17 0 -29.5 12.5t-12.5 29.5q0 18 12.5 30t29.5 12q18 0 30 -12t12 -30q0 -17 -12 -29.5t-30 -12.5zM77 716h64v-716h-64v716z" />
    <glyph glyph-name="uni0408" unicode="&#x408;" horiz-adv-x="514" 
d="M240 -16q-76 0 -133.5 43t-80.5 124l58 24q23 -73 64 -101.5t92 -28.5q66 0 106 45t40 123v503h64v-497q0 -57 -16 -100.5t-44 -73.5t-66.5 -45.5t-83.5 -15.5z" />
    <glyph glyph-name="uni0409" unicode="&#x409;" horiz-adv-x="1056" 
d="M158 716h464v-315h185q45 0 84 -13t68 -38.5t46 -62.5t17 -84t-17 -85t-46 -64t-68 -40t-84 -14h-249v655h-336v-423q0 -80 -14.5 -127.5t-40.5 -73.5q-21 -21 -48 -30t-60 -9q-7 0 -16 0.5t-17 2.5v63q8 -3 16.5 -4t16.5 -1q41 0 65 26q10 12 16.5 27.5t10 38t5.5 52.5
t2 71v448zM622 340v-279h189q32 0 59 10.5t46.5 29t30 44.5t10.5 56t-10.5 55.5t-30 44t-46.5 29t-59 10.5h-189z" />
    <glyph glyph-name="uni040A" unicode="&#x40a;" horiz-adv-x="1000" 
d="M77 0v716h64v-315h360v315h64v-315h186q45 0 84 -13t68 -38.5t46 -62.5t17 -84t-17 -85t-46 -64t-68 -40t-84 -14h-250v340h-360v-340h-64zM565 340v-279h190q32 0 59 10.5t46.5 29t30 44.5t10.5 56t-10.5 55.5t-30 44t-46.5 29t-59 10.5h-190z" />
    <glyph glyph-name="uni040B" unicode="&#x40b;" horiz-adv-x="735" 
d="M287 0h-64v655h-197v61h461v-61h-200v-226l-4 -78h4q35 42 82.5 64.5t107.5 22.5q44 0 81 -14.5t64 -42.5t42 -67.5t15 -89.5v-224h-65v213q0 74 -38 120t-115 46q-53 0 -97 -26.5t-77 -76.5v-276z" />
    <glyph glyph-name="uni040C" unicode="&#x40c;" horiz-adv-x="581" 
d="M568 712l-346 -363l356 -345v-4h-89l-344 339h-4v-339h-64v716h64v-360h4l339 360h84v-4zM264 776l52 124h73l-67 -124h-58z" />
    <glyph glyph-name="uni040D" unicode="&#x40d;" horiz-adv-x="683" 
d="M606 0h-64v493l4 138h-4l-399 -631h-66v716h64v-466l-4 -138h4l383 604h82v-716zM300 776l-67 124h73l52 -124h-58z" />
    <glyph glyph-name="uni040E" unicode="&#x40e;" horiz-adv-x="579" 
d="M296 112q-28 -63 -64 -95.5t-92 -32.5q-21 0 -38 5t-31 11l18 59q11 -6 23.5 -10t29.5 -4q31 0 51 15.5t37 52.5l27 60l-244 543h74l201 -465h4l200 465h74zM291 776q-24 0 -46 9t-39.5 25t-27.5 38t-10 48h55q0 -27 18 -48t50 -21q31 0 49.5 21t18.5 48h53
q0 -26 -10 -48t-26.5 -38t-38.5 -25t-46 -9z" />
    <glyph glyph-name="uni040F" unicode="&#x40f;" horiz-adv-x="658" 
d="M298 -152v152h-221v716h64v-655h376v655h64v-716h-220v-152h-63z" />
    <glyph glyph-name="uni0410" unicode="&#x410;" horiz-adv-x="653" 
d="M290 716h74l277 -716h-70l-78 207h-332l-78 -207h-70zM470 267l-141 371h-4l-141 -371h286z" />
    <glyph glyph-name="uni0411" unicode="&#x411;" horiz-adv-x="587" 
d="M343 401q42 0 80.5 -14t67 -39.5t45.5 -62.5t17 -82t-17 -82.5t-45.5 -64.5t-67 -41.5t-80.5 -14.5h-266v716h399v-61h-335v-254h202zM348 61q29 0 54.5 11t44.5 30.5t30 44.5t11 54q0 28 -11 53.5t-29.5 44.5t-44 30t-55.5 11h-207v-279h207z" />
    <glyph glyph-name="uni0412" unicode="&#x412;" horiz-adv-x="587" 
d="M77 716h253q40 0 76 -14t63.5 -39t43.5 -59.5t16 -75.5q0 -54 -28 -94t-74 -62v-4q55 -17 90.5 -62.5t35.5 -105.5q0 -44 -17 -81t-45.5 -63.5t-67 -41t-80.5 -14.5h-266v716zM329 396q31 0 56 11t43 29t27.5 41.5t9.5 48.5t-9.5 48t-27 41t-41.5 29t-54 11h-192v-259
h188zM350 61q29 0 54 11t44 30t29.5 44t10.5 53t-11 52.5t-30 43.5t-45 30t-56 11h-205v-275h209z" />
    <glyph glyph-name="uni0413" unicode="&#x413;" horiz-adv-x="491" 
d="M77 716h388v-61h-324v-655h-64v716z" />
    <glyph glyph-name="uni0414" unicode="&#x414;" horiz-adv-x="753" 
d="M43 -152v213h54q29 24 50 66t34 94.5t19 111t6 116.5v267h440v-655h64v-213h-61v152h-545v-152h-61zM270 449q0 -130 -24.5 -229t-70.5 -159h407v594h-312v-206z" />
    <glyph glyph-name="uni0415" unicode="&#x415;" horiz-adv-x="537" 
d="M141 655v-267h308v-60h-308v-267h340v-61h-404v716h404v-61h-340z" />
    <glyph glyph-name="uni0416" unicode="&#x416;" horiz-adv-x="849" 
d="M457 0h-64v335h-4l-305 -335h-81v4l316 346l-309 362v4h77l302 -356h4v356h64v-356h4l301 356h77v-4l-309 -362l316 -346v-4h-80l-305 335h-4v-335z" />
    <glyph glyph-name="uni0417" unicode="&#x417;" 
d="M264 -16q-32 0 -66.5 10t-66 31t-56 54.5t-36.5 80.5l59 24q17 -65 63 -102t103 -37q35 0 65.5 11.5t53 31.5t35.5 48.5t13 63.5q0 31 -13.5 57.5t-37 46t-54.5 30.5t-65 11h-58v60h57q29 0 55.5 10t47 27.5t32.5 42.5t12 55q0 27 -11.5 50.5t-31 41.5t-46.5 28.5
t-58 10.5q-30 0 -54.5 -10.5t-42.5 -26.5t-30 -35.5t-18 -38.5l-59 25q7 23 23.5 49t42 47.5t60 36t78.5 14.5q46 0 85 -15t67 -41t44 -60.5t16 -74.5q0 -32 -9 -58t-24 -46t-35 -34t-41 -23v-4q27 -9 51 -25.5t42.5 -38.5t29 -50t10.5 -61q0 -49 -18.5 -89t-50 -68.5
t-73.5 -44t-90 -15.5z" />
    <glyph glyph-name="uni0418" unicode="&#x418;" horiz-adv-x="683" 
d="M606 0h-64v493l4 138h-4l-399 -631h-66v716h64v-466l-4 -138h4l383 604h82v-716z" />
    <glyph glyph-name="uni0419" unicode="&#x419;" horiz-adv-x="683" 
d="M606 0h-64v493l4 138h-4l-399 -631h-66v716h64v-466l-4 -138h4l383 604h82v-716zM339 776q-24 0 -46 9t-39.5 25t-27.5 38t-10 48h55q0 -27 18 -48t50 -21q31 0 49.5 21t18.5 48h53q0 -26 -10 -48t-26.5 -38t-38.5 -25t-46 -9z" />
    <glyph glyph-name="uni041A" unicode="&#x41a;" horiz-adv-x="581" 
d="M568 712l-346 -363l356 -345v-4h-89l-344 339h-4v-339h-64v716h64v-360h4l339 360h84v-4z" />
    <glyph glyph-name="uni041B" unicode="&#x41b;" horiz-adv-x="699" 
d="M59 53q41 0 65 26q20 23 27 65.5t7 123.5v448h464v-716h-64v655h-336v-423q0 -80 -14.5 -127.5t-40.5 -73.5q-21 -21 -48 -30t-60 -9q-7 0 -16 0.5t-17 2.5v63q8 -3 16.5 -4t16.5 -1z" />
    <glyph glyph-name="uni041C" unicode="&#x41c;" horiz-adv-x="837" 
d="M77 716h63l271 -473h4l270 473h63v-716h-63v477l4 120h-4l-254 -445h-37l-254 445h-4l4 -120v-477h-63v716z" />
    <glyph glyph-name="uni041D" unicode="&#x41d;" horiz-adv-x="682" 
d="M77 716h64v-320h400v320h64v-716h-64v336h-400v-336h-64v716z" />
    <glyph glyph-name="uni041E" unicode="&#x41e;" horiz-adv-x="813" 
d="M405 -16q-79 0 -146 29.5t-115.5 80.5t-76 119t-27.5 145t27.5 145t76 119t115.5 80.5t146 29.5q78 0 145 -29.5t116 -80.5t76.5 -119t27.5 -145t-27.5 -145t-76.5 -119t-116 -80.5t-145 -29.5zM405 45q61 0 116 23t95.5 64.5t64.5 99t24 126.5t-24 126.5t-64.5 99
t-95.5 64.5t-116 23q-62 0 -116.5 -23t-95.5 -64.5t-64.5 -99t-23.5 -126.5t23.5 -126.5t64.5 -99t95.5 -64.5t116.5 -23z" />
    <glyph glyph-name="uni041F" unicode="&#x41f;" horiz-adv-x="658" 
d="M77 716h504v-716h-64v655h-376v-655h-64v716z" />
    <glyph glyph-name="uni0420" unicode="&#x420;" horiz-adv-x="557" 
d="M77 0v716h232q46 0 86.5 -15t70.5 -42.5t47.5 -66t17.5 -85.5t-17.5 -85.5t-47.5 -66t-70.5 -42.5t-86.5 -15h-168v-298h-64zM312 359q33 0 61 11.5t48.5 31.5t32.5 47t12 58t-12 58.5t-32.5 47t-48.5 31t-61 11.5h-171v-296h171z" />
    <glyph glyph-name="uni0421" unicode="&#x421;" horiz-adv-x="725" 
d="M686 114q-48 -58 -117.5 -94t-161.5 -36q-79 0 -146 29t-116 79.5t-77 119t-28 146.5t28 146.5t77 119t116 79.5t146 29q83 0 147 -30.5t112 -86.5l-46 -44q-82 100 -213 100q-62 0 -117 -23t-96 -64t-65 -98.5t-24 -127.5t24 -127.5t65 -99t96 -64t117 -22.5
q75 0 132 30t101 83z" />
    <glyph glyph-name="uni0422" unicode="&#x422;" horiz-adv-x="524" 
d="M229 0v655h-203v61h470v-61h-203v-655h-64z" />
    <glyph glyph-name="uni0423" unicode="&#x423;" horiz-adv-x="579" 
d="M296 112q-28 -63 -64 -95.5t-92 -32.5q-21 0 -38 5t-31 11l18 59q11 -6 23.5 -10t29.5 -4q31 0 51 15.5t37 52.5l27 60l-244 543h74l201 -465h4l200 465h74z" />
    <glyph glyph-name="uni0424" unicode="&#x424;" horiz-adv-x="793" 
d="M365 -48v105q-71 4 -130.5 28t-103 64t-67.5 93t-24 116t24 116t67.5 93t103 63.5t130.5 28.5v105h64v-105q71 -5 130.5 -28.5t103 -63.5t67.5 -93t24 -116t-24 -116t-67.5 -93t-103 -64t-130.5 -28v-105h-64zM689 358q0 51 -18.5 93.5t-52.5 74t-82 50.5t-107 23v-482
q59 4 107 23t82 50.5t52.5 74t18.5 93.5zM105 358q0 -51 18.5 -93.5t52.5 -74t82 -50.5t107 -23v482q-59 -4 -107 -23t-82 -50.5t-52.5 -74t-18.5 -93.5z" />
    <glyph glyph-name="uni0425" unicode="&#x425;" horiz-adv-x="612" 
d="M265 370l-235 346h79l195 -294h4l197 294h77l-234 -346l247 -370h-77l-210 315h-4l-210 -315h-77z" />
    <glyph glyph-name="uni0426" unicode="&#x426;" horiz-adv-x="667" 
d="M560 -168v168h-483v716h64v-655h352v655h64v-655h67v-229h-64z" />
    <glyph glyph-name="uni0427" unicode="&#x427;" horiz-adv-x="578" 
d="M459 716h64v-716h-64v344q-35 -36 -80.5 -60t-113.5 -24q-46 0 -86.5 14.5t-70.5 42t-47.5 67t-17.5 90.5v242h65v-231q0 -81 47.5 -122.5t122.5 -41.5q31 0 57.5 8t49.5 22t41.5 32.5t32.5 39.5v293z" />
    <glyph glyph-name="uni0428" unicode="&#x428;" horiz-adv-x="892" 
d="M77 0v716h64v-655h273v655h64v-655h273v655h64v-716h-738z" />
    <glyph glyph-name="uni0429" unicode="&#x429;" horiz-adv-x="925" 
d="M818 -168v168h-741v716h64v-655h273v655h64v-655h273v655h64v-655h67v-229h-64z" />
    <glyph glyph-name="uni042A" unicode="&#x42a;" horiz-adv-x="725" 
d="M211 0v655h-185v61h249v-275h187q46 0 88 -15.5t73 -44t49.5 -69t18.5 -89.5q0 -50 -18.5 -91t-49.5 -70.5t-73 -45.5t-88 -16h-251zM275 380v-319h192q34 0 63.5 12.5t50.5 34.5t33 51t12 62t-12 61.5t-33 50.5t-50.5 34.5t-63.5 12.5h-192z" />
    <glyph glyph-name="uni042B" unicode="&#x42b;" horiz-adv-x="788" 
d="M77 0v716h64v-275h187q46 0 88 -15.5t73 -44t49.5 -69t18.5 -89.5q0 -50 -18.5 -91t-49.5 -70.5t-73 -45.5t-88 -16h-251zM141 380v-319h192q34 0 63.5 12.5t50.5 34.5t33 51t12 62t-12 61.5t-33 50.5t-50.5 34.5t-63.5 12.5h-192zM647 716h64v-716h-64v716z" />
    <glyph glyph-name="uni042C" unicode="&#x42c;" horiz-adv-x="591" 
d="M77 0v716h64v-275h187q46 0 88 -15.5t73 -44t49.5 -69t18.5 -89.5q0 -50 -18.5 -91t-49.5 -70.5t-73 -45.5t-88 -16h-251zM141 380v-319h192q34 0 63.5 12.5t50.5 34.5t33 51t12 62t-12 61.5t-33 50.5t-50.5 34.5t-63.5 12.5h-192z" />
    <glyph glyph-name="uni042D" unicode="&#x42d;" horiz-adv-x="723" 
d="M318 -16q-92 0 -161.5 36t-117.5 94l45 44q44 -53 101.5 -83t132.5 -30q58 0 110.5 20.5t93 57.5t66.5 89t31 116h-350v60h350q-5 63 -31 115.5t-66.5 89.5t-93 57.5t-110.5 20.5q-132 0 -213 -100l-46 44q48 56 112 86.5t147 30.5q79 0 145.5 -29t115.5 -79.5t76.5 -119
t27.5 -146.5t-27.5 -146.5t-76.5 -119t-115.5 -79.5t-145.5 -29z" />
    <glyph glyph-name="uni042E" unicode="&#x42e;" horiz-adv-x="1069" 
d="M665 -16q-76 0 -141 27.5t-113.5 75t-77.5 111.5t-33 138h-159v-336h-64v716h64v-320h160q7 70 37 131.5t78 107t111.5 71.5t137.5 26q78 0 145 -29.5t116 -80.5t76.5 -119t27.5 -145t-27.5 -145t-76.5 -119t-116 -80.5t-145 -29.5zM665 45q61 0 116 23t95.5 64.5
t64.5 99t24 126.5t-24 126.5t-64.5 99t-95.5 64.5t-116 23q-62 0 -116.5 -23t-95.5 -64.5t-64.5 -99t-23.5 -126.5t23.5 -126.5t64.5 -99t95.5 -64.5t116.5 -23z" />
    <glyph glyph-name="uni042F" unicode="&#x42f;" horiz-adv-x="593" 
d="M516 0h-64v298h-142l-201 -298h-74v4l205 298l-2 3q-37 8 -69 26.5t-56 44.5t-37.5 59.5t-13.5 71.5q0 46 17 84.5t46.5 66t69 43t84.5 15.5h237v-716zM452 358v297h-171q-33 0 -61 -11.5t-48.5 -31t-32.5 -47t-12 -58.5q0 -33 13.5 -60.5t35.5 -47t51 -30.5t61 -11h164z
" />
    <glyph glyph-name="uni0430" unicode="&#x430;" horiz-adv-x="507" 
d="M393 87h-4q-25 -43 -69.5 -73t-103.5 -30q-40 0 -74 12.5t-59 34t-39 51.5t-14 65q0 40 16.5 71t45 52t66 31.5t79.5 10.5q50 0 90 -11.5t66 -26.5v30q0 33 -12 60t-32 46t-47.5 29t-57.5 10q-45 0 -80 -19.5t-58 -56.5l-56 35q29 45 79 71.5t113 26.5q49 0 88 -14.5
t67 -41t43 -63t15 -81.5v-306h-62v87zM393 218q-30 18 -65.5 29.5t-80.5 11.5q-33 0 -60.5 -8t-48 -22.5t-32 -35.5t-11.5 -47q0 -24 10.5 -43.5t28.5 -33t40.5 -21t46.5 -7.5q33 0 64 14t55 38.5t38.5 56.5t14.5 68z" />
    <glyph glyph-name="uni0431" unicode="&#x431;" horiz-adv-x="583" 
d="M356 634q-60 0 -97 -16t-63 -42q-29 -29 -46.5 -75t-24.5 -105h4q26 48 74.5 79t115.5 31q48 0 91 -19.5t75 -54t50.5 -82.5t18.5 -105q0 -58 -18.5 -106t-51.5 -82.5t-78 -53.5t-97 -19q-51 0 -96 19t-79 57.5t-54 97.5t-20 139q0 64 6.5 114t18.5 88.5t29.5 67
t38.5 49.5q38 37 89.5 56.5t116.5 19.5q28 0 46 2.5t29.5 7.5t17.5 12.5t9 18.5h64q-7 -29 -19.5 -48t-32.5 -30.5t-49 -16t-68 -4.5zM309 448q-36 0 -69 -13.5t-57.5 -39.5t-39.5 -64t-15 -86q0 -43 14.5 -80t39 -64.5t57.5 -43t70 -15.5q36 0 69 14t58 40t39.5 64t14.5 85
t-15 84.5t-40 64t-57.5 40.5t-68.5 14z" />
    <glyph glyph-name="uni0432" unicode="&#x432;" horiz-adv-x="483" 
d="M373 249q37 -14 61 -41.5t24 -67.5q0 -31 -12 -57t-33 -44.5t-48.5 -28.5t-58.5 -10h-246v490h235q30 0 56.5 -10t46 -27.5t31 -41.5t11.5 -52q0 -37 -18.5 -63.5t-48.5 -42.5v-4zM124 222v-164h180q17 0 33 5.5t28.5 16t20 26t7.5 34.5t-7.5 34.5t-20 26t-28.5 16
t-33 5.5h-180zM124 432v-156h170q34 0 58 22.5t24 55.5q0 35 -25.5 56.5t-58.5 21.5h-168z" />
    <glyph glyph-name="uni0433" unicode="&#x433;" horiz-adv-x="400" 
d="M60 490h315v-58h-251v-432h-64v490z" />
    <glyph glyph-name="uni0434" unicode="&#x434;" horiz-adv-x="610" 
d="M30 58h50q12 9 23 31t19.5 52t13 65.5t4.5 72.5v211h377v-432h64v-210h-62v152h-427v-152h-62v210zM453 58v374h-249v-159q0 -69 -15.5 -123t-38.5 -92h303z" />
    <glyph glyph-name="uni0435" unicode="&#x435;" horiz-adv-x="528" 
d="M489 116q-13 -27 -33 -51t-46.5 -42t-60.5 -28.5t-75 -10.5q-53 0 -98 19.5t-77.5 54.5t-50.5 82.5t-18 104.5q0 53 16.5 100.5t47.5 83t75 56.5t99 21q53 0 95.5 -18.5t72.5 -52t46.5 -80.5t16.5 -104v-6q-1 -3 -1 -5v-6h-403q1 -51 18 -87t43 -59.5t58 -34.5t62 -11
q62 0 98 28.5t60 72.5zM432 288q-1 24 -10 52t-28 52t-50.5 40t-77.5 16q-30 0 -58 -10.5t-50.5 -30.5t-38 -50t-20.5 -69h333z" />
    <glyph glyph-name="uni0436" unicode="&#x436;" horiz-adv-x="666" 
d="M301 0v247h-4l-221 -247h-79v4l232 255l-220 227v4h79l209 -220h4v220h64v-220h4l209 220h80v-4l-221 -227l232 -255v-4h-78l-222 247h-4v-247h-64z" />
    <glyph glyph-name="uni0437" unicode="&#x437;" horiz-adv-x="471" 
d="M233 506q35 0 68 -10t58.5 -28t40.5 -43.5t15 -56.5q0 -44 -21 -71t-53 -41v-6q40 -14 65.5 -44t25.5 -74q0 -33 -14.5 -60.5t-41 -47t-63 -30t-81.5 -10.5q-52 0 -102.5 23t-86.5 65l44 43q34 -37 68 -54.5t78 -17.5q66 0 100 27t34 65q0 34 -28 61t-83 27h-77v54h74
q42 0 70 24t28 63q0 34 -32 59t-86 25q-38 0 -68.5 -15t-62.5 -50l-43 41q38 43 81.5 62.5t92.5 19.5z" />
    <glyph glyph-name="uni0438" unicode="&#x438;" horiz-adv-x="539" 
d="M480 0h-64v298l4 96h-4l-292 -394h-64v490h64v-298l-4 -96h4l292 394h64v-490z" />
    <glyph glyph-name="uni0439" unicode="&#x439;" horiz-adv-x="539" 
d="M480 0h-64v298l4 96h-4l-292 -394h-64v490h64v-298l-4 -96h4l292 394h64v-490zM277 577q-24 0 -46 9t-39.5 25t-27.5 38t-10 48h55q0 -27 18 -48t50 -21q31 0 49.5 21t18.5 48h53q0 -26 -10 -48t-26.5 -38t-38.5 -25t-46 -9z" />
    <glyph glyph-name="uni043A" unicode="&#x43a;" horiz-adv-x="443" 
d="M128 249h-4v-249h-64v490h64v-224h4l225 224h82v-4l-234 -228l244 -254v-4h-80z" />
    <glyph glyph-name="uni043B" unicode="&#x43b;" horiz-adv-x="590" 
d="M136 490h395v-490h-64v432h-267v-235q0 -59 -9 -98.5t-24.5 -63t-36 -33.5t-44.5 -10q-13 0 -22.5 2t-18.5 6v59q17 -7 33 -7q34 0 46 37.5t12 124.5v276z" />
    <glyph glyph-name="uni043C" unicode="&#x43c;" horiz-adv-x="650" 
d="M531 0v300l4 96h-4l-180 -332h-52l-179 332h-4l4 -96v-300h-64v490h79l188 -352h3l189 352h80v-490h-64z" />
    <glyph glyph-name="uni043D" unicode="&#x43d;" horiz-adv-x="539" 
d="M416 0v222h-292v-222h-64v490h64v-209h292v209h64v-490h-64z" />
    <glyph glyph-name="uni043E" unicode="&#x43e;" horiz-adv-x="554" 
d="M277 506q54 0 99.5 -20t78.5 -55t51.5 -82.5t18.5 -103.5t-18.5 -103.5t-51.5 -82.5t-78.5 -55t-99.5 -20q-53 0 -98.5 20t-78.5 55t-51.5 82.5t-18.5 103.5t18.5 103.5t51.5 82.5t78.5 55t98.5 20zM277 42q36 0 69 14.5t58.5 41t41 64t15.5 83.5t-15.5 83.5t-41 64
t-58.5 41t-69 14.5t-69 -14.5t-58.5 -41t-40.5 -64t-15 -83.5t15 -83.5t40.5 -64t58.5 -41t69 -14.5z" />
    <glyph glyph-name="uni043F" unicode="&#x43f;" horiz-adv-x="519" 
d="M60 490h400v-490h-64v432h-272v-432h-64v490z" />
    <glyph glyph-name="uni0440" unicode="&#x440;" horiz-adv-x="565" 
d="M56 490h60v-85h4q12 20 29 38.5t40 32.5t52 22t64 8q47 0 89 -19.5t73.5 -54t50 -82.5t18.5 -105t-18.5 -105t-50 -82.5t-73.5 -54t-89 -19.5q-35 0 -64 8.5t-52 22.5t-40 32.5t-29 38.5h-4l4 -68v-234h-64v706zM294 42q35 0 67.5 14t57 40t39 64t14.5 85t-14.5 84.5
t-39 64t-57 40.5t-67.5 14t-67.5 -13.5t-57 -39.5t-39 -64t-14.5 -86t14.5 -85.5t39 -64t57 -40t67.5 -13.5z" />
    <glyph glyph-name="uni0441" unicode="&#x441;" horiz-adv-x="513" 
d="M488 124q-13 -30 -32.5 -55.5t-45.5 -44t-60 -29.5t-75 -11q-53 0 -98 20t-77.5 55t-51 82.5t-18.5 103.5t18.5 103.5t51 82.5t77.5 55t98 20q41 0 74.5 -10.5t60 -29.5t45.5 -44t31 -55l-57 -25q-22 51 -61 78.5t-96 27.5q-34 0 -66 -14.5t-57 -41t-40 -64t-15 -83.5
t15 -83.5t40 -64t57 -41t66 -14.5q57 0 97 27.5t62 78.5z" />
    <glyph glyph-name="uni0442" unicode="&#x442;" horiz-adv-x="418" 
d="M26 490h390v-58h-163v-432h-64v432h-163v58z" />
    <glyph glyph-name="uni0443" unicode="&#x443;" horiz-adv-x="478" 
d="M98 -216l113 252l-206 454h71l166 -378h2l159 378h70l-309 -706h-66z" />
    <glyph glyph-name="uni0444" unicode="&#x444;" horiz-adv-x="733" 
d="M694 245q0 -60 -22 -106.5t-61 -79.5t-93 -51.5t-119 -22.5v-201h-64v201q-65 4 -119 22.5t-93 51t-61 79.5t-22 107t22 107t61 79.5t93 51t119 22.5v211h64v-211q65 -4 119 -22.5t93 -51t61 -79.5t22 -107zM102 245q0 -91 62.5 -142t170.5 -58v400q-108 -7 -170.5 -58
t-62.5 -142zM632 245q0 91 -62.5 142t-170.5 58v-400q108 7 170.5 58t62.5 142z" />
    <glyph glyph-name="uni0445" unicode="&#x445;" horiz-adv-x="447" 
d="M364 0l-141 202l-139 -202h-75l177 249l-171 241h74l135 -193l133 193h76l-173 -241l179 -249h-75z" />
    <glyph glyph-name="uni0446" unicode="&#x446;" horiz-adv-x="553" 
d="M462 -152v152h-402v490h64v-432h272v432h64v-432h64v-210h-62z" />
    <glyph glyph-name="uni0447" unicode="&#x447;" horiz-adv-x="492" 
d="M230 216q47 0 83 15t55 41v218h64v-490h-64v204q-25 -24 -62 -35t-88 -11q-41 0 -75 14t-58 38.5t-37.5 58.5t-13.5 75v146h65v-144q0 -65 37 -97.5t94 -32.5z" />
    <glyph glyph-name="uni0448" unicode="&#x448;" horiz-adv-x="751" 
d="M60 0v490h64v-432h209v432h64v-432h209v432h64v-490h-610z" />
    <glyph glyph-name="uni0449" unicode="&#x449;" horiz-adv-x="785" 
d="M672 -152v152h-612v490h64v-432h209v432h64v-432h209v432h64v-432h64v-210h-62z" />
    <glyph glyph-name="uni044A" unicode="&#x44a;" horiz-adv-x="565" 
d="M26 490h176v-177h174q33 0 63 -11.5t52.5 -32.5t35.5 -49.5t13 -62.5t-13 -63t-35.5 -50t-52.5 -32.5t-63 -11.5h-238v432h-112v58zM377 58q19 0 36.5 7t31 20t22 31.5t8.5 40.5t-8.5 40t-22 31t-31 20t-36.5 7h-175v-197h175z" />
    <glyph glyph-name="uni044B" unicode="&#x44b;" horiz-adv-x="676" 
d="M552 0v490h64v-490h-64zM60 0v490h64v-177h174q33 0 63 -11.5t52.5 -32.5t35.5 -49.5t13 -62.5t-13 -63t-35.5 -50t-52.5 -32.5t-63 -11.5h-238zM299 58q19 0 36.5 7t31 20t22 31.5t8.5 40.5t-8.5 40t-22 31t-31 20t-36.5 7h-175v-197h175z" />
    <glyph glyph-name="uni044C" unicode="&#x44c;" horiz-adv-x="487" 
d="M60 0v490h64v-177h174q33 0 63 -11.5t52.5 -32.5t35.5 -49.5t13 -62.5t-13 -63t-35.5 -50t-52.5 -32.5t-63 -11.5h-238zM299 58q19 0 36.5 7t31 20t22 31.5t8.5 40.5t-8.5 40t-22 31t-31 20t-36.5 7h-175v-197h175z" />
    <glyph glyph-name="uni044D" unicode="&#x44d;" horiz-adv-x="510" 
d="M238 -16q-41 0 -74.5 11t-60 29.5t-46 44t-31.5 55.5l56 24q22 -51 61.5 -78.5t98.5 -27.5q31 0 61 12t54 35t40 55.5t20 73.5h-227v54h227q-4 41 -20 73.5t-40 55.5t-53.5 35t-61.5 12q-59 0 -97 -27.5t-60 -78.5l-58 25q13 30 32 55t45.5 44t59.5 29.5t74 10.5
q53 0 97.5 -20t77 -55t50.5 -82.5t18 -103.5t-18 -103.5t-50.5 -82.5t-77 -55t-97.5 -20z" />
    <glyph glyph-name="uni044E" unicode="&#x44e;" horiz-adv-x="755" 
d="M68 0v490h64v-218h100q4 51 24.5 93.5t53 74t75.5 49t93 17.5q54 0 99.5 -20t78.5 -55t51.5 -82.5t18.5 -103.5t-18.5 -103.5t-51.5 -82.5t-78.5 -55t-99.5 -20q-50 0 -92.5 17t-75 47.5t-53 72.5t-25.5 92h-100v-213h-64zM478 42q36 0 69 14.5t58.5 41t41 64t15.5 83.5
t-15.5 83.5t-41 64t-58.5 41t-69 14.5t-69 -14.5t-58.5 -41t-40.5 -64t-15 -83.5t15 -83.5t40.5 -64t58.5 -41t69 -14.5z" />
    <glyph glyph-name="uni044F" unicode="&#x44f;" horiz-adv-x="473" 
d="M2 0v5l146 180l-2 3q-54 11 -89.5 48t-35.5 97q0 35 13.5 64t36 49.5t52.5 32t63 11.5h227v-490h-64v184h-130l-143 -184h-74zM86 335q0 -23 8.5 -40.5t22.5 -29.5t32.5 -18.5t39.5 -6.5h160v192h-160q-21 0 -39.5 -6.5t-32.5 -19.5t-22.5 -31t-8.5 -40z" />
    <glyph glyph-name="uni0450" unicode="&#x450;" horiz-adv-x="526" 
d="M489 116q-13 -27 -33 -51t-46.5 -42t-60.5 -28.5t-75 -10.5q-53 0 -98 19.5t-77.5 54.5t-50.5 82.5t-18 104.5q0 53 16.5 100.5t47.5 83t75 56.5t99 21q53 0 95.5 -18.5t72.5 -52t46.5 -80.5t16.5 -104v-6q-1 -3 -1 -5v-6h-403q1 -51 18 -87t43 -59.5t58 -34.5t62 -11
q62 0 98 28.5t60 72.5zM432 288q-1 24 -10 52t-28 52t-50.5 40t-77.5 16q-30 0 -58 -10.5t-50.5 -30.5t-38 -50t-20.5 -69h333zM238 592l-67 124h73l52 -124h-58z" />
    <glyph glyph-name="uni0451" unicode="&#x451;" horiz-adv-x="526" 
d="M341 615q-18 0 -31.5 13t-13.5 31q0 20 13.5 32.5t31.5 12.5q19 0 31.5 -12.5t12.5 -32.5q0 -18 -12.5 -31t-31.5 -13zM187 615q-18 0 -31.5 13t-13.5 31q0 20 13.5 32.5t31.5 12.5q19 0 31.5 -12.5t12.5 -32.5q0 -18 -12.5 -31t-31.5 -13zM489 116q-13 -27 -33 -51
t-46.5 -42t-60.5 -28.5t-75 -10.5q-53 0 -98 19.5t-77.5 54.5t-50.5 82.5t-18 104.5q0 53 16.5 100.5t47.5 83t75 56.5t99 21q53 0 95.5 -18.5t72.5 -52t46.5 -80.5t16.5 -104v-6q-1 -3 -1 -5v-6h-403q1 -51 18 -87t43 -59.5t58 -34.5t62 -11q62 0 98 28.5t60 72.5zM432 288
q-1 24 -10 52t-28 52t-50.5 40t-77.5 16q-30 0 -58 -10.5t-50.5 -30.5t-38 -50t-20.5 -69h333z" />
    <glyph glyph-name="uni0452" unicode="&#x452;" 
d="M124 582v-108l-4 -78h4q23 48 68 79t108 31q46 0 80 -15t56.5 -41.5t33 -63t10.5 -79.5v-396q0 -67 -32 -102t-91 -35q-29 0 -49 10l16 55q13 -7 31 -7q32 0 46.5 21t14.5 59v384q0 77 -35 114.5t-96 37.5q-35 0 -64 -16t-51 -42t-34 -61t-12 -72v-257h-64v582h-66v52h66
v82h64v-82h159v-52h-159z" />
    <glyph glyph-name="uni0453" unicode="&#x453;" horiz-adv-x="390" 
d="M172 592l52 124h73l-67 -124h-58zM60 490h315v-58h-251v-432h-64v490z" />
    <glyph glyph-name="uni0454" unicode="&#x454;" horiz-adv-x="523" 
d="M102 218q4 -41 20 -73.5t39.5 -55.5t53 -35t61.5 -12q60 0 99 27.5t61 78.5l57 -24q-13 -30 -32.5 -55.5t-45.5 -44t-60 -29.5t-75 -11q-53 0 -97.5 20t-76.5 55t-50 82.5t-18 103.5t18 103.5t50 82.5t76.5 55t97.5 20q41 0 74.5 -10.5t60 -29.5t45.5 -44t31 -55l-57 -25
q-22 51 -60 78.5t-98 27.5q-32 0 -61.5 -12t-53 -35t-39.5 -55.5t-20 -73.5h227v-54h-227z" />
    <glyph glyph-name="uni0455" unicode="&#x455;" horiz-adv-x="448" 
d="M231 -16q-40 0 -73.5 11.5t-59 31t-44 45t-28.5 53.5l57 24q20 -53 60.5 -80.5t87.5 -27.5q59 0 93 26t34 62q0 15 -5 28t-18 24.5t-35 21t-56 17.5l-68 16q-23 6 -47.5 15.5t-44.5 25t-32.5 37.5t-12.5 51q0 34 15.5 60t42 44t60.5 27.5t70 9.5q31 0 60 -7.5t53.5 -21.5
t43.5 -35.5t30 -49.5l-56 -23q-20 42 -54.5 61t-79.5 19q-22 0 -43.5 -5.5t-38.5 -16t-27.5 -26t-10.5 -34.5q0 -31 26.5 -48t74.5 -29l72 -18q75 -19 110.5 -54.5t35.5 -83.5q0 -31 -13.5 -58t-39 -47.5t-61 -32.5t-78.5 -12z" />
    <glyph glyph-name="uni0456" unicode="&#x456;" horiz-adv-x="195" 
d="M98 610q-21 0 -35.5 14.5t-14.5 34.5q0 21 14.5 35.5t35.5 14.5q20 0 34.5 -14.5t14.5 -35.5q0 -20 -14.5 -34.5t-34.5 -14.5zM66 0v490h64v-490h-64z" />
    <glyph glyph-name="uni0457" unicode="&#x457;" horiz-adv-x="195" 
d="M36 615q-18 0 -31.5 13t-13.5 31q0 20 13.5 32.5t31.5 12.5q19 0 31.5 -12.5t12.5 -32.5q0 -18 -12.5 -31t-31.5 -13zM160 615q-18 0 -31.5 13t-13.5 31q0 20 13.5 32.5t31.5 12.5q19 0 31.5 -12.5t12.5 -32.5q0 -18 -12.5 -31t-31.5 -13zM66 0v490h64v-490h-64z" />
    <glyph glyph-name="uni0458" unicode="&#x458;" horiz-adv-x="195" 
d="M-26 -161q13 -7 31 -7q32 0 46.5 21t14.5 59v578h64v-579q0 -67 -32 -102t-91 -35q-28 0 -50 10zM98 610q-21 0 -35.5 14.5t-14.5 34.5q0 21 14.5 35.5t35.5 14.5q20 0 34.5 -14.5t14.5 -35.5q0 -20 -14.5 -34.5t-34.5 -14.5z" />
    <glyph glyph-name="uni0459" unicode="&#x459;" horiz-adv-x="881" 
d="M86 -8q-13 0 -22.5 2t-18.5 6v59q17 -7 33 -7q34 0 46 37.5t12 124.5v276h395v-187h166q32 0 60.5 -11t50.5 -31.5t34.5 -48t12.5 -60.5t-12.5 -61t-34.5 -48t-50.5 -31.5t-60.5 -11.5h-230v432h-267v-235q0 -59 -9 -98.5t-24.5 -63t-36 -33.5t-44.5 -10zM531 245v-187
h161q18 0 36 6.5t31.5 19t22 30t8.5 38.5t-8.5 38t-22 29.5t-31.5 19t-36 6.5h-161z" />
    <glyph glyph-name="uni045A" unicode="&#x45a;" horiz-adv-x="809" 
d="M396 0v245h-272v-245h-64v490h64v-187h272v187h64v-187h165q32 0 61 -11t50.5 -31.5t34.5 -48t13 -60.5t-13 -61t-34.5 -48t-50.5 -31.5t-61 -11.5h-229zM621 58q18 0 36 6.5t31.5 19t22 30t8.5 38.5t-8.5 38t-22 29.5t-31.5 19t-36 6.5h-161v-187h161z" />
    <glyph glyph-name="uni045B" unicode="&#x45b;" 
d="M60 582h-66v52h66v82h64v-82h159v-52h-159v-108l-4 -78h4q23 48 68 79t108 31q46 0 80 -15t56.5 -41.5t33 -63t10.5 -79.5v-307h-64v296q0 77 -35 114.5t-96 37.5q-35 0 -64 -16t-51 -42t-34 -61t-12 -72v-257h-64v582z" />
    <glyph glyph-name="uni045C" unicode="&#x45c;" horiz-adv-x="443" 
d="M210 592l52 124h73l-67 -124h-58zM128 249h-4v-249h-64v490h64v-224h4l225 224h82v-4l-234 -228l244 -254v-4h-80z" />
    <glyph glyph-name="uni045D" unicode="&#x45d;" horiz-adv-x="539" 
d="M480 0h-64v298l4 96h-4l-292 -394h-64v490h64v-298l-4 -96h4l292 394h64v-490zM252 592l-67 124h73l52 -124h-58z" />
    <glyph glyph-name="uni045E" unicode="&#x45e;" horiz-adv-x="478" 
d="M98 -216l113 252l-206 454h71l166 -378h2l159 378h70l-309 -706h-66zM243 592q-24 0 -46 9t-39.5 25t-27.5 38t-10 48h55q0 -27 18 -48t50 -21q31 0 49.5 21t18.5 48h53q0 -26 -10 -48t-26.5 -38t-38.5 -25t-46 -9z" />
    <glyph glyph-name="uni045F" unicode="&#x45f;" horiz-adv-x="539" 
d="M239 -152v152h-179v490h64v-432h292v432h64v-490h-179v-152h-62z" />
    <glyph glyph-name="uni0490" unicode="&#x490;" horiz-adv-x="505" 
d="M77 716h340v106h62v-167h-338v-655h-64v716z" />
    <glyph glyph-name="uni0491" unicode="&#x491;" horiz-adv-x="400" 
d="M60 490h253v93h62v-151h-251v-432h-64v490z" />
    <glyph glyph-name="uni04B0" unicode="&#x4b0;" horiz-adv-x="579" 
d="M259 0v286h-185v53h175l-236 377h75l201 -326h4l199 326h75l-235 -377h175v-53h-184v-286h-64z" />
    <glyph glyph-name="uni04B1" unicode="&#x4b1;" horiz-adv-x="480" 
d="M4 490h70l166 -417l168 417h68l-185 -439h132v-51h-152v-216h-64v216h-152v51h132z" />
    <glyph glyph-name="Wgrave" unicode="&#x1e80;" horiz-adv-x="908" 
d="M694 0h-67l-167 520h-4l-167 -520h-67l-205 716h67l171 -609h4l167 513h64l167 -513h4l163 609h67zM422 776l-67 124h73l52 -124h-58z" />
    <glyph glyph-name="wgrave" unicode="&#x1e81;" horiz-adv-x="732" 
d="M504 0l-139 414l-137 -414h-62l-162 490h65l129 -403h1l134 403h68l135 -401h1l128 401h63l-162 -490h-62zM334 592l-67 124h73l52 -124h-58z" />
    <glyph glyph-name="Wacute" unicode="&#x1e82;" horiz-adv-x="908" 
d="M436 776l52 124h73l-67 -124h-58zM694 0h-67l-167 520h-4l-167 -520h-67l-205 716h67l171 -609h4l167 513h64l167 -513h4l163 609h67z" />
    <glyph glyph-name="wacute" unicode="&#x1e83;" horiz-adv-x="732" 
d="M344 592l52 124h73l-67 -124h-58zM504 0l-139 414l-137 -414h-62l-162 490h65l129 -403h1l134 403h68l135 -401h1l128 401h63l-162 -490h-62z" />
    <glyph glyph-name="Wdieresis" unicode="&#x1e84;" horiz-adv-x="908" 
d="M536 799q-18 0 -31.5 13t-13.5 31q0 20 13.5 32.5t31.5 12.5q19 0 31.5 -12.5t12.5 -32.5q0 -18 -12.5 -31t-31.5 -13zM382 799q-18 0 -31.5 13t-13.5 31q0 20 13.5 32.5t31.5 12.5q19 0 31.5 -12.5t12.5 -32.5q0 -18 -12.5 -31t-31.5 -13zM694 0h-67l-167 520h-4
l-167 -520h-67l-205 716h67l171 -609h4l167 513h64l167 -513h4l163 609h67z" />
    <glyph glyph-name="wdieresis" unicode="&#x1e85;" horiz-adv-x="732" 
d="M443 615q-18 0 -31.5 13t-13.5 31q0 20 13.5 32.5t31.5 12.5q19 0 31.5 -12.5t12.5 -32.5q0 -18 -12.5 -31t-31.5 -13zM289 615q-18 0 -31.5 13t-13.5 31q0 20 13.5 32.5t31.5 12.5q19 0 31.5 -12.5t12.5 -32.5q0 -18 -12.5 -31t-31.5 -13zM504 0l-139 414l-137 -414h-62
l-162 490h65l129 -403h1l134 403h68l135 -401h1l128 401h63l-162 -490h-62z" />
    <glyph glyph-name="Ygrave" unicode="&#x1ef2;" horiz-adv-x="579" 
d="M260 0v324l-247 392h75l202 -326h4l198 326h75l-243 -392v-324h-64zM265 776l-67 124h73l52 -124h-58z" />
    <glyph glyph-name="ygrave" unicode="&#x1ef3;" horiz-adv-x="478" 
d="M98 -216l113 252l-206 454h71l166 -378h2l159 378h70l-309 -706h-66zM213 592l-67 124h73l52 -124h-58z" />
    <glyph glyph-name="endash" unicode="&#x2013;" horiz-adv-x="585" 
d="M60 337h466v-54h-466v54z" />
    <glyph glyph-name="emdash" unicode="&#x2014;" horiz-adv-x="884" 
d="M60 337h765v-54h-765v54z" />
    <glyph glyph-name="quoteleft" unicode="&#x2018;" horiz-adv-x="216" 
d="M165 711l-46 -70q13 -3 24 -15.5t11 -30.5q0 -22 -14.5 -37t-36.5 -15t-37 15t-15 37q0 14 6 25.5t14 23.5l61 88z" />
    <glyph glyph-name="quoteright" unicode="&#x2019;" horiz-adv-x="216" 
d="M51 565l46 69q-13 4 -24 16t-11 31q0 22 14.5 36.5t36.5 14.5t37 -14.5t15 -36.5q0 -14 -6 -26t-14 -24l-61 -88z" />
    <glyph glyph-name="quotesinglbase" unicode="&#x201a;" horiz-adv-x="216" 
d="M51 -68l46 69q-13 4 -24 16t-11 31q0 22 14.5 36.5t36.5 14.5t37 -14.5t15 -36.5q0 -14 -6 -26t-14 -24l-61 -88z" />
    <glyph glyph-name="quotedblleft" unicode="&#x201c;" horiz-adv-x="364" 
d="M165 711l-46 -70q13 -3 24 -15.5t11 -30.5q0 -22 -14.5 -37t-36.5 -15t-37 15t-15 37q0 14 6 25.5t14 23.5l61 88zM313 711l-46 -70q13 -3 24 -15.5t11 -30.5q0 -22 -14.5 -37t-36.5 -15t-37 15t-15 37q0 14 6 25.5t14 23.5l61 88z" />
    <glyph glyph-name="quotedblright" unicode="&#x201d;" horiz-adv-x="364" 
d="M51 565l46 69q-13 4 -24 16t-11 31q0 22 14.5 36.5t36.5 14.5t37 -14.5t15 -36.5q0 -14 -6 -26t-14 -24l-61 -88zM199 565l46 69q-13 4 -24 16t-11 31q0 22 14.5 36.5t36.5 14.5t37 -14.5t15 -36.5q0 -14 -6 -26t-14 -24l-61 -88z" />
    <glyph glyph-name="quotedblbase" unicode="&#x201e;" horiz-adv-x="364" 
d="M51 -68l46 69q-13 4 -24 16t-11 31q0 22 14.5 36.5t36.5 14.5t37 -14.5t15 -36.5q0 -14 -6 -26t-14 -24l-61 -88zM199 -68l46 69q-13 4 -24 16t-11 31q0 22 14.5 36.5t36.5 14.5t37 -14.5t15 -36.5q0 -14 -6 -26t-14 -24l-61 -88z" />
    <glyph glyph-name="bullet" unicode="&#x2022;" horiz-adv-x="355" 
d="M178 232q-19 0 -36 7t-29.5 19.5t-19.5 29.5t-7 36t7 36t19.5 29.5t29.5 19.5t36 7t35.5 -7t29 -19.5t20 -29.5t7.5 -36t-7.5 -36t-20 -29.5t-29 -19.5t-35.5 -7z" />
    <glyph glyph-name="ellipsis" unicode="&#x2026;" horiz-adv-x="633" 
d="M103 -6q-22 0 -37 15t-15 37t15 36.5t37 14.5t36.5 -14.5t14.5 -36.5t-14.5 -37t-36.5 -15zM317 -6q-22 0 -37 15t-15 37t15 36.5t37 14.5t36.5 -14.5t14.5 -36.5t-14.5 -37t-36.5 -15zM531 -6q-22 0 -37 15t-15 37t15 36.5t37 14.5t36.5 -14.5t14.5 -36.5t-14.5 -37
t-36.5 -15z" />
    <glyph glyph-name="guilsinglleft" unicode="&#x2039;" horiz-adv-x="340" 
d="M276 96l-39 -36l-194 211l194 211l39 -36l-163 -175z" />
    <glyph glyph-name="guilsinglright" unicode="&#x203a;" horiz-adv-x="340" 
d="M227 271l-163 175l39 36l195 -211l-195 -211l-39 36z" />
    <glyph glyph-name="fraction" unicode="&#x2044;" horiz-adv-x="181" 
d="M-164 25l467 695l42 -29l-466 -695z" />
    <glyph glyph-name="uni2074" unicode="&#x2074;" horiz-adv-x="334" 
d="M30 463l180 253h43v-241h52v-45h-52v-80h-51v80h-172v33zM202 475v154h-4l-109 -154h113z" />
    <glyph glyph-name="uni20A3" unicode="&#x20a3;" horiz-adv-x="536" 
d="M102 0v125h-76v54h76v505h396v-61h-332v-259h300v-60h-300v-125h142v-54h-142v-125h-64z" />
    <glyph glyph-name="uni20A4" unicode="&#x20a4;" horiz-adv-x="508" 
d="M199 177q-9 -33 -27.5 -63t-41.5 -50l4 -3h206q46 0 66 17t31 49l54 -22q-17 -51 -52.5 -78t-98.5 -27h-306v52q37 18 65 52.5t39 72.5h-102v54h112q-1 33 -9.5 58t-19.5 48h-83v54h56q-14 26 -24.5 53.5t-10.5 62.5q0 37 13 72t38 62t61.5 43t82.5 16q43 0 74.5 -12.5
t54 -32t37.5 -44.5t24 -50l-59 -24q-6 18 -16.5 36.5t-26.5 33t-38 23.5t-50 9q-32 0 -56.5 -11.5t-41 -30t-25 -42.5t-8.5 -48q0 -33 11 -60.5t25 -55.5h168v-54h-143q11 -23 18 -47.5t7 -58.5h118v-54h-126z" />
    <glyph glyph-name="uni20A9" unicode="&#x20a9;" horiz-adv-x="963" 
d="M812 337l-89 -337h-66l-98 337h-151l-102 -337h-65l-90 337h-117v54h103l-78 293h69l72 -293h162l90 293h68l84 -293h159l73 293h69l-78 -293h102v-54h-117zM276 104l70 233h-133l59 -233h4zM692 104l58 233h-130l68 -233h4zM425 391h119l-56 193h-4z" />
    <glyph glyph-name="uni20AB" unicode="&#x20ab;" horiz-adv-x="558" 
d="M259 -16q-46 0 -87.5 18t-73 51.5t-50 80t-18.5 103.5t18.5 103.5t50 80t73 51.5t87.5 18q34 0 62 -8t49.5 -21.5t38 -31t27.5 -36.5h4l-4 68v89h-154v52h154v82h64v-82h66v-52h-66v-550h-60v82h-4q-11 -20 -27.5 -37.5t-38 -31t-49.5 -21.5t-62 -8zM270 42q35 0 66 13
t54 38t36.5 61t13.5 83q0 46 -13.5 82.5t-36.5 61.5t-54 38t-66 13t-67 -13t-56 -38t-38.5 -61.5t-14.5 -82.5t14.5 -82.5t38.5 -61.5t56 -38t67 -13zM72 -84h428v-54h-428v54z" />
    <glyph glyph-name="Euro" unicode="&#x20ac;" horiz-adv-x="619" 
d="M26 450h92q15 58 45 104.5t71.5 78.5t92.5 49.5t107 17.5q41 0 79 -11.5t68 -31.5l-30 -51q-29 17 -57 25t-61 8q-41 0 -79.5 -12t-71.5 -35.5t-58 -59t-39 -82.5h239v-54h-250q-4 -23 -4 -54t4 -54h250v-54h-239q14 -47 40 -82t59 -58.5t72.5 -35.5t80.5 -12
q38 0 68 8.5t60 26.5l29 -56q-33 -20 -73.5 -30.5t-84.5 -10.5q-57 0 -108 17.5t-93 49.5t-72 78.5t-45 104.5h-92v54h82q-3 25 -3 54q0 27 3 54h-82v54z" />
    <glyph glyph-name="uni20AE" unicode="&#x20ae;" horiz-adv-x="514" 
d="M89 323l136 85v215h-199v61h463v-61h-200v-177l134 84v-66l-134 -85v-124l134 85v-66l-134 -85v-189h-64v151l-136 -84v65l136 85v125l-136 -85v66z" />
    <glyph glyph-name="uni20B1" unicode="&#x20b1;" horiz-adv-x="617" 
d="M26 506h78v178h222q43 0 80.5 -12.5t66 -36t46.5 -56.5t22 -73h59v-54h-60q-6 -39 -24.5 -70t-46.5 -53.5t-64.5 -34.5t-78.5 -12h-158v-282h-64v452h-78v54zM168 506h308q-8 51 -48 84t-99 33h-161v-117zM329 343q57 0 96 30.5t50 78.5h-307v-109h161z" />
    <glyph glyph-name="uni20B8" unicode="&#x20b8;" horiz-adv-x="514" 
d="M225 0v459h-199v55h463v-55h-200v-459h-64zM26 629v55h463v-55h-463z" />
    <glyph glyph-name="uni20B9" unicode="&#x20b9;" horiz-adv-x="545" 
d="M26 684h494v-54h-128q28 -22 46 -51.5t23 -65.5h59v-55h-59q-6 -39 -25.5 -70.5t-48.5 -54t-66.5 -34.5t-78.5 -12h-51l-2 -3l280 -280v-4h-85l-281 283v63h141q54 0 97.5 29t54.5 83h-370v55h370q-5 25 -18 46.5t-32.5 37t-45 24.5t-53.5 9h-221v54z" />
    <glyph glyph-name="uni20BA" unicode="&#x20ba;" horiz-adv-x="522" 
d="M26 380l134 84v220h64v-182l136 85v-66l-136 -86v-124l136 86v-66l-136 -86v-185q48 1 87 17.5t67 44t43.5 63.5t15.5 76h60q0 -56 -21 -103.5t-58 -82.5t-87 -55t-110 -20h-61v207l-134 -83v65l134 84v124l-134 -83v66z" />
    <glyph glyph-name="uni20BD" unicode="&#x20bd;" horiz-adv-x="567" 
d="M103 0v125h-77v55h77v102h-77v55h77v347h222q46 0 85.5 -14.5t68.5 -40.5t45.5 -63.5t16.5 -82.5t-16.5 -82t-45.5 -63.5t-68.5 -41t-85.5 -14.5h-158v-102h144v-55h-144v-125h-64zM328 343q33 0 60 11t46.5 30t30.5 44.5t11 54.5q0 30 -11 55.5t-30.5 44t-46.5 29.5
t-60 11h-161v-280h161z" />
    <glyph glyph-name="uni2116" unicode="&#x2116;" horiz-adv-x="1075" 
d="M872 390q-36 0 -66.5 14t-53.5 37t-36 54t-13 66q0 34 13 65.5t36 54.5t53.5 37t66.5 14t66.5 -14t53.5 -37t36 -54.5t13 -65.5q0 -35 -13 -66t-36 -54t-53.5 -37t-66.5 -14zM872 439q24 0 45 9t36.5 25.5t24.5 39t9 48.5t-9 48.5t-24.5 39t-36.5 25.5t-45 9t-45 -9
t-36.5 -25.5t-24.5 -39t-9 -48.5t9 -48.5t24.5 -39t36.5 -25.5t45 -9zM732 238v53h280v-53h-280zM77 716h83l389 -604h4l-4 138v466h64v-716h-66l-406 631h-4l4 -138v-493h-64v716z" />
    <glyph glyph-name="minus" unicode="&#x2212;" horiz-adv-x="544" 
d="M60 244v54h425v-54h-425z" />
    <glyph glyph-name="uni2215" unicode="&#x2215;" horiz-adv-x="415" 
d="M29 0l297 716h61l-297 -716h-61z" />
    <glyph glyph-name="uniF8FF" horiz-adv-x="1000" 
d="M891 451q4 -21 5.5 -42t1.5 -44q0 -89 -28.5 -163.5t-81 -128.5t-126 -84t-163.5 -30q-86 0 -162 32.5t-132.5 89t-89 132.5t-32.5 162t32.5 162t89 132.5t132.5 89t162 32.5q85 0 154.5 -28.5t123.5 -79.5l-119 -120q-65 62 -159 62q-51 0 -96 -20t-78 -54t-52.5 -79.5
t-19.5 -96.5t19.5 -96.5t52.5 -80t78 -54.5t96 -20q46 0 84 12.5t67 34.5t47.5 52.5t25.5 66.5h-224v161h392z" />
    <glyph glyph-name="one.numerator" horiz-adv-x="230" 
d="M115 350v303l-71 -31l-18 41l112 53h28v-366h-51z" />
    <glyph glyph-name="two.numerator" horiz-adv-x="296" 
d="M27 350v45l136 136q22 23 36 42t14 45q0 25 -18 42t-47 17q-27 0 -47.5 -15.5t-28.5 -51.5l-46 19q10 45 43.5 70t75.5 25q24 0 45.5 -7.5t38 -21t26 -33.5t9.5 -44q0 -18 -6 -34.5t-14.5 -30t-18.5 -24.5t-19 -20l-112 -112h172v-47h-239z" />
    <glyph glyph-name="three.numerator" horiz-adv-x="319" 
d="M157 342q-21 0 -41.5 5.5t-38.5 17.5t-31.5 30.5t-19.5 44.5l46 18q10 -37 32.5 -53t52.5 -16q33 0 54.5 19t21.5 48q0 31 -22.5 46.5t-53.5 15.5h-37v45h32q27 0 47.5 15.5t20.5 42.5q0 26 -19 41t-45 15q-31 0 -47 -15t-23 -35l-45 18q13 36 42.5 57.5t71.5 21.5
q54 0 85.5 -29t31.5 -72q0 -28 -15 -47.5t-35 -31.5q26 -12 44.5 -33t18.5 -53q0 -27 -10.5 -48.5t-28 -36.5t-40.5 -23t-49 -8z" />
    <glyph glyph-name="four.numerator" horiz-adv-x="334" 
d="M30 463l180 253h43v-241h52v-45h-52v-80h-51v80h-172v33zM202 475v154h-4l-109 -154h113z" />
    <glyph glyph-name="r.alt" horiz-adv-x="328" 
d="M120 407h4q18 45 56 71t86 26q12 0 19.5 -0.5t16.5 -2.5v-64q-19 4 -42 4q-29 0 -54 -12.5t-43 -34.5t-28.5 -52.5t-10.5 -66.5v-275h-64v490h60v-83z" />
    <glyph glyph-name="uni03BC" 
d="M416 0v92h-4q-12 -22 -28.5 -41.5t-38 -34.5t-48.5 -23.5t-60 -8.5q-36 0 -66.5 17.5t-50.5 41.5h-4l4 -73v-186h-64v706h64v-291q0 -79 36 -118t96 -39q35 0 64.5 16t50.5 42t33 60.5t12 71.5v258h64v-490h-60z" />
    <glyph glyph-name="uni2103" horiz-adv-x="971" 
d="M670 -16q-75 0 -139.5 28t-112 76t-74 113.5t-26.5 140.5t26 140.5t72.5 113.5t110 76t137.5 28q82 0 144 -32t104 -83l-44 -44q-39 50 -91 74t-113 24q-58 0 -109 -21.5t-89.5 -60.5t-60.5 -93.5t-22 -121.5q0 -66 23 -120.5t62 -93.5t91 -60.5t111 -21.5
q69 0 122.5 26.5t96.5 77.5l44 -43q-46 -56 -114 -89.5t-149 -33.5zM163 442q-27 0 -50.5 10t-41 27.5t-27.5 41t-10 50.5t10 51t27.5 41t41 27t50.5 10t50.5 -10t41 -27t27.5 -41t10 -51t-10 -50.5t-27.5 -41t-41 -27.5t-50.5 -10zM163 489q34 0 56.5 24t22.5 58
q0 35 -22.5 58.5t-56.5 23.5t-56.5 -23.5t-22.5 -58.5q0 -34 22.5 -58t56.5 -24z" />
    <glyph glyph-name="uni2109" horiz-adv-x="811" 
d="M386 0v684h391v-61h-327v-259h295v-60h-295v-304h-64zM163 442q-27 0 -50.5 10t-41 27.5t-27.5 41t-10 50.5t10 51t27.5 41t41 27t50.5 10t50.5 -10t41 -27t27.5 -41t10 -51t-10 -50.5t-27.5 -41t-41 -27.5t-50.5 -10zM163 489q34 0 56.5 24t22.5 58q0 35 -22.5 58.5
t-56.5 23.5t-56.5 -23.5t-22.5 -58.5q0 -34 22.5 -58t56.5 -24z" />
    <glyph glyph-name="uni2190" horiz-adv-x="1066" 
d="M205 283v-127l-154 154l154 154v-127h801v-54h-801z" />
    <glyph glyph-name="uni2191" horiz-adv-x="393" 
d="M224 -109h-54v764h-127l154 154l154 -154h-127v-764z" />
    <glyph glyph-name="uni2192" horiz-adv-x="1066" 
d="M60 283v54h801v127l154 -154l-154 -154v127h-801z" />
    <glyph glyph-name="uni2193" horiz-adv-x="393" 
d="M224 18h127l-154 -155l-154 155h127v763h54v-763z" />
    <glyph glyph-name="uni2196" horiz-adv-x="748" 
d="M745 40l-38 -38l-575 575l-89 -90v218h217l-89 -90z" />
    <glyph glyph-name="uni2197" horiz-adv-x="748" 
d="M577 615l-89 90h217v-218l-89 90l-575 -575l-38 38z" />
    <glyph glyph-name="uni2198" horiz-adv-x="748" 
d="M171 100l89 -90h-217v218l89 -90l575 575l38 -38z" />
    <glyph glyph-name="uni2199" horiz-adv-x="748" 
d="M3 675l38 38l575 -575l89 90v-218h-217l89 90z" />
    <glyph glyph-name="uni2639" horiz-adv-x="842" 
d="M290 404q-20 0 -33.5 14t-13.5 34t13.5 33.5t33.5 13.5t34 -13.5t14 -33.5t-14 -34t-34 -14zM552 404q-20 0 -33.5 14t-13.5 34t13.5 33.5t33.5 13.5t34 -13.5t14 -33.5t-14 -34t-34 -14zM421 -16q-77 0 -145 29.5t-119 80.5t-80.5 119t-29.5 145t29.5 145t80.5 119
t119 80.5t145 29.5t145 -29.5t119 -80.5t80.5 -119t29.5 -145t-29.5 -145t-80.5 -119t-119 -80.5t-145 -29.5zM421 33q68 0 127 26t103 70t69.5 103.5t25.5 125.5q0 67 -25.5 126t-69.5 103.5t-103 70t-127 25.5q-67 0 -126 -25.5t-103.5 -70t-70 -103.5t-25.5 -126
q0 -66 25.5 -125.5t70 -103.5t103.5 -70t126 -26zM239 181q23 53 71.5 84t110.5 31q63 0 111 -31t72 -84l-50 -22q-18 38 -52.5 60.5t-80.5 22.5q-45 0 -80 -22.5t-52 -60.5z" />
    <glyph glyph-name="uni263A" horiz-adv-x="842" 
d="M552 404q-20 0 -33.5 14t-13.5 34t13.5 33.5t33.5 13.5t34 -13.5t14 -33.5t-14 -34t-34 -14zM290 404q-20 0 -33.5 14t-13.5 34t13.5 33.5t33.5 13.5t34 -13.5t14 -33.5t-14 -34t-34 -14zM289 295q17 -39 52 -61t80 -22q46 0 80.5 22t52.5 61l50 -23q-24 -53 -72 -84
t-111 -31q-62 0 -110.5 31t-71.5 84zM421 -16q-77 0 -145 29.5t-119 80.5t-80.5 119t-29.5 145t29.5 145t80.5 119t119 80.5t145 29.5t145 -29.5t119 -80.5t80.5 -119t29.5 -145t-29.5 -145t-80.5 -119t-119 -80.5t-145 -29.5zM421 33q68 0 127 26t103 70t69.5 103.5
t25.5 125.5q0 67 -25.5 126t-69.5 103.5t-103 70t-127 25.5q-67 0 -126 -25.5t-103.5 -70t-70 -103.5t-25.5 -126q0 -66 25.5 -125.5t70 -103.5t103.5 -70t126 -26z" />
    <glyph glyph-name="uni2780" horiz-adv-x="842" 
d="M411 177v303l-71 -31l-18 41l112 53h28v-366h-51zM421 -16q-77 0 -145 29.5t-119 80.5t-80.5 119t-29.5 145t29.5 145t80.5 119t119 80.5t145 29.5t145 -29.5t119 -80.5t80.5 -119t29.5 -145t-29.5 -145t-80.5 -119t-119 -80.5t-145 -29.5zM421 33q68 0 127 26t103 70
t69.5 103.5t25.5 125.5q0 67 -25.5 126t-69.5 103.5t-103 70t-127 25.5q-67 0 -126 -25.5t-103.5 -70t-70 -103.5t-25.5 -126q0 -66 25.5 -125.5t70 -103.5t103.5 -70t126 -26z" />
    <glyph glyph-name="uni2781" horiz-adv-x="842" 
d="M302 177v45l64 64q25 25 46 47l25 25q22 23 36 42t14 45q0 25 -18 42t-47 17q-27 0 -47 -15.5t-29 -51.5l-46 19q11 45 44.5 70t75.5 25q24 0 45.5 -7.5t38 -21t26 -33.5t9.5 -44q0 -18 -6 -34.5t-14.5 -30t-18.5 -24.5t-19 -20l-65 -65q-22 -22 -48 -47h173v-47h-239z
M421 -16q-77 0 -145 29.5t-119 80.5t-80.5 119t-29.5 145t29.5 145t80.5 119t119 80.5t145 29.5t145 -29.5t119 -80.5t80.5 -119t29.5 -145t-29.5 -145t-80.5 -119t-119 -80.5t-145 -29.5zM421 33q68 0 127 26t103 70t69.5 103.5t25.5 125.5q0 67 -25.5 126t-69.5 103.5
t-103 70t-127 25.5q-67 0 -126 -25.5t-103.5 -70t-70 -103.5t-25.5 -126q0 -66 25.5 -125.5t70 -103.5t103.5 -70t126 -26z" />
    <glyph glyph-name="uni2782" horiz-adv-x="842" 
d="M419 169q-21 0 -41.5 5.5t-38.5 17.5t-31.5 30.5t-19.5 44.5l46 18q11 -37 33.5 -53t52.5 -16q32 0 53.5 19t21.5 48q0 31 -22.5 46.5t-52.5 15.5h-38v45h33q27 0 47 15.5t20 42.5q0 26 -18.5 41t-44.5 15q-32 0 -47.5 -15t-23.5 -35l-45 18q13 36 43 57.5t72 21.5
q53 0 84.5 -29t31.5 -72q0 -28 -15 -47.5t-35 -31.5q26 -12 44.5 -33t18.5 -53q0 -27 -10.5 -48.5t-28 -36.5t-40.5 -23t-49 -8zM421 -16q-77 0 -145 29.5t-119 80.5t-80.5 119t-29.5 145t29.5 145t80.5 119t119 80.5t145 29.5t145 -29.5t119 -80.5t80.5 -119t29.5 -145
t-29.5 -145t-80.5 -119t-119 -80.5t-145 -29.5zM421 33q68 0 127 26t103 70t69.5 103.5t25.5 125.5q0 67 -25.5 126t-69.5 103.5t-103 70t-127 25.5q-67 0 -126 -25.5t-103.5 -70t-70 -103.5t-25.5 -126q0 -66 25.5 -125.5t70 -103.5t103.5 -70t126 -26z" />
    <glyph glyph-name="uni2783" horiz-adv-x="842" 
d="M436 177v80h-173v33l180 253h44v-241h51v-45h-51v-80h-51zM436 456h-4l-110 -154h114v154zM421 -16q-77 0 -145 29.5t-119 80.5t-80.5 119t-29.5 145t29.5 145t80.5 119t119 80.5t145 29.5t145 -29.5t119 -80.5t80.5 -119t29.5 -145t-29.5 -145t-80.5 -119t-119 -80.5
t-145 -29.5zM421 33q68 0 127 26t103 70t69.5 103.5t25.5 125.5q0 67 -25.5 126t-69.5 103.5t-103 70t-127 25.5q-67 0 -126 -25.5t-103.5 -70t-70 -103.5t-25.5 -126q0 -66 25.5 -125.5t70 -103.5t103.5 -70t126 -26z" />
    <glyph glyph-name="uni2784" horiz-adv-x="842" 
d="M421 -16q-77 0 -145 29.5t-119 80.5t-80.5 119t-29.5 145t29.5 145t80.5 119t119 80.5t145 29.5t145 -29.5t119 -80.5t80.5 -119t29.5 -145t-29.5 -145t-80.5 -119t-119 -80.5t-145 -29.5zM421 33q68 0 127 26t103 70t69.5 103.5t25.5 125.5q0 67 -25.5 126t-69.5 103.5
t-103 70t-127 25.5q-67 0 -126 -25.5t-103.5 -70t-70 -103.5t-25.5 -126q0 -66 25.5 -125.5t70 -103.5t103.5 -70t126 -26zM422 169q-20 0 -40.5 5t-38 16t-31 28t-20.5 42l48 19q8 -31 29.5 -47t53.5 -16q33 0 55 23t22 58q0 36 -22.5 58.5t-55.5 22.5q-43 0 -75 -43
l-43 18l25 189h201v-45h-158l-14 -101q12 11 30.5 18t40.5 7q26 0 48.5 -9t39 -25.5t26 -39.5t9.5 -51t-10.5 -51t-28 -40t-41 -26.5t-50.5 -9.5z" />
    <glyph glyph-name="uni2785" horiz-adv-x="842" 
d="M421 -16q-77 0 -145 29.5t-119 80.5t-80.5 119t-29.5 145t29.5 145t80.5 119t119 80.5t145 29.5t145 -29.5t119 -80.5t80.5 -119t29.5 -145t-29.5 -145t-80.5 -119t-119 -80.5t-145 -29.5zM421 33q68 0 127 26t103 70t69.5 103.5t25.5 125.5q0 67 -25.5 126t-69.5 103.5
t-103 70t-127 25.5q-67 0 -126 -25.5t-103.5 -70t-70 -103.5t-25.5 -126q0 -66 25.5 -125.5t70 -103.5t103.5 -70t126 -26zM417 169q-28 0 -51.5 10t-41 27t-27.5 40t-10 49q0 31 12.5 58.5t32.5 55.5q9 13 27 38l36 50q21 29 45 62l40 -28l-96 -123q16 11 42 11t48 -10.5
t38.5 -27.5t25.5 -39.5t9 -46.5q0 -26 -10.5 -49t-28 -40t-41 -27t-50.5 -10zM416 216q35 0 57 23.5t22 55.5t-22 55.5t-57 23.5q-34 0 -55.5 -23.5t-21.5 -55.5t21 -55.5t56 -23.5z" />
    <glyph glyph-name="uni2786" horiz-adv-x="842" 
d="M421 -16q-77 0 -145 29.5t-119 80.5t-80.5 119t-29.5 145t29.5 145t80.5 119t119 80.5t145 29.5t145 -29.5t119 -80.5t80.5 -119t29.5 -145t-29.5 -145t-80.5 -119t-119 -80.5t-145 -29.5zM421 33q68 0 127 26t103 70t69.5 103.5t25.5 125.5q0 67 -25.5 126t-69.5 103.5
t-103 70t-127 25.5q-67 0 -126 -25.5t-103.5 -70t-70 -103.5t-25.5 -126q0 -66 25.5 -125.5t70 -103.5t103.5 -70t126 -26zM329 186l165 310h-185v47h241v-43l-176 -338z" />
    <glyph glyph-name="uni2787" horiz-adv-x="842" 
d="M421 -16q-77 0 -145 29.5t-119 80.5t-80.5 119t-29.5 145t29.5 145t80.5 119t119 80.5t145 29.5t145 -29.5t119 -80.5t80.5 -119t29.5 -145t-29.5 -145t-80.5 -119t-119 -80.5t-145 -29.5zM421 33q68 0 127 26t103 70t69.5 103.5t25.5 125.5q0 67 -25.5 126t-69.5 103.5
t-103 70t-127 25.5q-67 0 -126 -25.5t-103.5 -70t-70 -103.5t-25.5 -126q0 -66 25.5 -125.5t70 -103.5t103.5 -70t126 -26zM421 169q-25 0 -48.5 8t-41.5 22.5t-29 35t-11 46.5q0 27 15 51t44 38q-20 11 -33.5 31.5t-13.5 44.5t9.5 43t26 33t37.5 21.5t45 7.5t45.5 -7.5
t38 -21.5t26 -33t9.5 -43q0 -23 -14 -44t-34 -32q29 -14 44.5 -38t15.5 -51q0 -26 -11 -46.5t-29.5 -35t-42 -22.5t-48.5 -8zM421 390q28 0 47.5 16t19.5 41q0 24 -18.5 40.5t-48.5 16.5t-48 -16.5t-18 -40.5q0 -26 19 -41.5t47 -15.5zM421 216q14 0 28 4.5t25.5 13.5
t18.5 21.5t7 27.5q0 14 -7 26t-18.5 20.5t-25.5 13.5t-28 5t-28 -4.5t-25 -13t-18 -20.5t-7 -27t6.5 -27.5t17.5 -21.5t25 -13.5t29 -4.5z" />
    <glyph glyph-name="uni2788" horiz-adv-x="842" 
d="M421 -16q-77 0 -145 29.5t-119 80.5t-80.5 119t-29.5 145t29.5 145t80.5 119t119 80.5t145 29.5t145 -29.5t119 -80.5t80.5 -119t29.5 -145t-29.5 -145t-80.5 -119t-119 -80.5t-145 -29.5zM421 33q68 0 127 26t103 70t69.5 103.5t25.5 125.5q0 67 -25.5 126t-69.5 103.5
t-103 70t-127 25.5q-67 0 -126 -25.5t-103.5 -70t-70 -103.5t-25.5 -126q0 -66 25.5 -125.5t70 -103.5t103.5 -70t126 -26zM418 551q28 0 52 -10t41.5 -27t27.5 -39.5t10 -48.5q0 -31 -12.5 -59t-32.5 -56l-27.5 -38.5t-35.5 -49.5q-21 -29 -45 -62l-40 29l95 122
q-8 -5 -19 -8t-22 -3q-26 0 -48.5 10.5t-39 27.5t-25.5 40t-9 47q0 26 10.5 48.5t28.5 39.5t41.5 27t49.5 10zM419 504q-35 0 -57 -23t-22 -56q0 -32 22 -55.5t57 -23.5t56.5 23.5t21.5 55.5t-21.5 55.5t-56.5 23.5z" />
    <glyph glyph-name="uni278A" horiz-adv-x="842" 
d="M462 543h-28l-112 -53l18 -41l71 31v-303h51v366zM421 -16q-77 0 -145 29.5t-119 80.5t-80.5 119t-29.5 145t29.5 145t80.5 119t119 80.5t145 29.5t145 -29.5t119 -80.5t80.5 -119t29.5 -145t-29.5 -145t-80.5 -119t-119 -80.5t-145 -29.5z" />
    <glyph glyph-name="uni278B" horiz-adv-x="842" 
d="M541 224h-173q26 25 48 47l65 65q9 9 19 20t18.5 24.5t14.5 30t6 34.5q0 24 -9.5 44t-26 33.5t-38 21t-45.5 7.5q-42 0 -75.5 -25t-44.5 -70l46 -19q9 36 29 51.5t47 15.5q29 0 47 -17t18 -42q0 -26 -14 -45t-36 -42l-25 -25q-21 -22 -46 -47l-64 -64v-45h239v47z
M421 -16q-77 0 -145 29.5t-119 80.5t-80.5 119t-29.5 145t29.5 145t80.5 119t119 80.5t145 29.5t145 -29.5t119 -80.5t80.5 -119t29.5 -145t-29.5 -145t-80.5 -119t-119 -80.5t-145 -29.5z" />
    <glyph glyph-name="uni278C" horiz-adv-x="842" 
d="M419 167q26 0 49 8t40.5 23t28 36.5t10.5 48.5q0 32 -18.5 53t-44.5 33q20 12 35 31.5t15 47.5q0 43 -31.5 72t-84.5 29q-42 0 -72 -21.5t-43 -57.5l45 -18q8 20 23.5 35t47.5 15q26 0 44.5 -15t18.5 -41q0 -27 -20 -42.5t-47 -15.5h-33v-45h38q30 0 52.5 -15.5
t22.5 -45.5t-21.5 -49t-53.5 -19q-30 0 -52.5 16t-33.5 53l-46 -18q6 -26 19.5 -44.5t31.5 -30.5t38.5 -17.5t41.5 -5.5zM421 -16q-77 0 -145 29.5t-119 80.5t-80.5 119t-29.5 145t29.5 145t80.5 119t119 80.5t145 29.5t145 -29.5t119 -80.5t80.5 -119t29.5 -145t-29.5 -145
t-80.5 -119t-119 -80.5t-145 -29.5z" />
    <glyph glyph-name="uni278D" horiz-adv-x="842" 
d="M487 257h51v45h-51v241h-44l-180 -253v-33h173v-80h51v80zM322 302l110 154h4v-154h-114zM421 -16q-77 0 -145 29.5t-119 80.5t-80.5 119t-29.5 145t29.5 145t80.5 119t119 80.5t145 29.5t145 -29.5t119 -80.5t80.5 -119t29.5 -145t-29.5 -145t-80.5 -119t-119 -80.5
t-145 -29.5z" />
    <glyph glyph-name="uni278E" horiz-adv-x="842" 
d="M421 -16q-77 0 -145 29.5t-119 80.5t-80.5 119t-29.5 145t29.5 145t80.5 119t119 80.5t145 29.5t145 -29.5t119 -80.5t80.5 -119t29.5 -145t-29.5 -145t-80.5 -119t-119 -80.5t-145 -29.5zM422 169q27 0 50.5 9.5t41 26.5t28 40t10.5 51t-9.5 51t-26 39.5t-39 25.5
t-48.5 9q-22 0 -40.5 -7t-30.5 -18l14 101h158v45h-201l-25 -189l43 -18q32 43 75 43q33 0 55.5 -22.5t22.5 -58.5q0 -35 -22 -58t-55 -23q-32 0 -53.5 16t-29.5 47l-48 -19q7 -25 20.5 -42t31 -28t38 -16t40.5 -5z" />
    <glyph glyph-name="uni278F" horiz-adv-x="842" 
d="M421 -16q-77 0 -145 29.5t-119 80.5t-80.5 119t-29.5 145t29.5 145t80.5 119t119 80.5t145 29.5t145 -29.5t119 -80.5t80.5 -119t29.5 -145t-29.5 -145t-80.5 -119t-119 -80.5t-145 -29.5zM417 169q27 0 50.5 10t41 27t28 40t10.5 49q0 24 -9 46.5t-25.5 39.5t-38.5 27.5
t-48 10.5t-42 -11l96 123l-40 28q-24 -33 -45 -62l-36 -50t-27 -38q-20 -28 -32.5 -55.5t-12.5 -58.5q0 -26 10 -49t27.5 -40t41 -27t51.5 -10zM416 216q-35 0 -56 23.5t-21 55.5t21.5 55.5t55.5 23.5q35 0 57 -23.5t22 -55.5t-22 -55.5t-57 -23.5z" />
    <glyph glyph-name="uni2790" horiz-adv-x="842" 
d="M421 -16q-77 0 -145 29.5t-119 80.5t-80.5 119t-29.5 145t29.5 145t80.5 119t119 80.5t145 29.5t145 -29.5t119 -80.5t80.5 -119t29.5 -145t-29.5 -145t-80.5 -119t-119 -80.5t-145 -29.5zM374 162l176 338v43h-241v-47h185l-165 -310z" />
    <glyph glyph-name="uni2791" horiz-adv-x="842" 
d="M421 -16q-77 0 -145 29.5t-119 80.5t-80.5 119t-29.5 145t29.5 145t80.5 119t119 80.5t145 29.5t145 -29.5t119 -80.5t80.5 -119t29.5 -145t-29.5 -145t-80.5 -119t-119 -80.5t-145 -29.5zM421 169q25 0 48.5 8t42 22.5t29.5 35t11 46.5q0 27 -15.5 51t-44.5 38
q20 11 34 32t14 44q0 24 -9.5 43t-26 33t-38 21.5t-45.5 7.5t-45 -7.5t-37.5 -21.5t-26 -33t-9.5 -43t13.5 -44.5t33.5 -31.5q-29 -14 -44 -38t-15 -51q0 -26 11 -46.5t29 -35t41.5 -22.5t48.5 -8zM421 390q-28 0 -47 15.5t-19 41.5q0 24 18 40.5t48 16.5t48.5 -16.5
t18.5 -40.5q0 -25 -19.5 -41t-47.5 -16zM421 216q-15 0 -29 4.5t-25 13.5t-17.5 21.5t-6.5 27.5t7 27t18 20.5t25 13t28 4.5t28 -5t25.5 -13.5t18.5 -20.5t7 -26q0 -15 -7 -27.5t-18.5 -21.5t-25.5 -13.5t-28 -4.5z" />
    <glyph glyph-name="uni2792" horiz-adv-x="842" 
d="M421 -16q-77 0 -145 29.5t-119 80.5t-80.5 119t-29.5 145t29.5 145t80.5 119t119 80.5t145 29.5t145 -29.5t119 -80.5t80.5 -119t29.5 -145t-29.5 -145t-80.5 -119t-119 -80.5t-145 -29.5zM418 551q-26 0 -49.5 -10t-41.5 -27t-28.5 -39.5t-10.5 -48.5q0 -24 9 -47
t25.5 -40t39 -27.5t48.5 -10.5q11 0 22 3t19 8l-95 -122l40 -29q24 33 45 62q18 25 35.5 49.5l27.5 38.5q20 28 32.5 56t12.5 59q0 26 -10 48.5t-27.5 39.5t-41.5 27t-52 10zM419 504q35 0 56.5 -23.5t21.5 -55.5t-21.5 -55.5t-56.5 -23.5t-57 23.5t-22 55.5q0 33 22 56
t57 23z" />
    </font>
</defs>
</svg>
