<?xml version="1.0" standalone="no"?>
<!DOCTYPE svg PUBLIC "-//W3C//DTD SVG 1.1//EN" "http://www.w3.org/Graphics/SVG/1.1/DTD/svg11.dtd" >
<svg xmlns="http://www.w3.org/2000/svg" xmlns:xlink="http://www.w3.org/1999/xlink" version="1.1">
<metadata>
Created by FontForge 20170731 at Mon Sep  3 21:53:22 2018
 By Aleksey,,,
</metadata>
<defs>
<font id="ProductSans-Italic" horiz-adv-x="542" >
  <font-face 
    font-family="Product Sans"
    font-weight="400"
    font-style="italic"
    font-stretch="normal"
    units-per-em="1000"
    panose-1="2 11 4 3 3 5 2 9 2 3"
    ascent="800"
    descent="-200"
    x-height="490"
    cap-height="716"
    bbox="-238 -253 3284 960"
    underline-thickness="84"
    underline-position="-412"
    slope="-10"
    unicode-range="U+000D-2215"
  />
<missing-glyph horiz-adv-x="570" 
d="M72 716h426v-716h-426v716zM136 60h298v596h-298v-596z" />
    <glyph glyph-name="f_i" unicode="fi" horiz-adv-x="584" 
d="M345 724q24 0 42.5 -5.5t32.5 -14.5l-38 -78q-8 5 -20 8.5t-26 3.5q-35 0 -61 -20.5t-34 -65.5l-11 -62h312l-86 -490h-92l71 406h-220l-71 -406h-92l71 406h-92l15 84h92l13 71q14 78 66.5 120.5t127.5 42.5zM526 594q-27 0 -46 19t-19 46t19 46t46 19t46 -19t19 -46
t-19 -46t-46 -19z" />
    <glyph glyph-name="f_l" unicode="fl" horiz-adv-x="576" 
d="M364 0l112 636h-138q-82 0 -97 -84l-11 -62h119l-15 -84h-119l-71 -406h-92l71 406h-92l15 84h92l14 73q6 35 21.5 64t40.5 49.5t59.5 32t79.5 11.5h230l-127 -720h-92z" />
    <glyph glyph-name="f_b" unicode="fb" horiz-adv-x="947" 
d="M619 -16q-50 0 -90.5 24t-61.5 60h-4l-12 -68h-87l112 636h-138q-82 0 -97 -84l-11 -62h119l-15 -84h-119l-71 -406h-92l71 406h-92l15 84h92l14 73q6 35 21.5 64t40.5 49.5t59.5 32t79.5 11.5h230l-41 -230l-16 -68h4q25 34 66 59t104 25q43 0 80 -16t64.5 -45.5t43 -72
t15.5 -95.5q0 -57 -21.5 -109.5t-59.5 -93.5t-90 -65.5t-113 -24.5zM626 68q38 0 71.5 15.5t58 43t39 64.5t14.5 80q0 71 -34.5 111t-100.5 40q-39 0 -73 -17.5t-58.5 -46.5t-38.5 -66.5t-14 -77.5q0 -72 39 -109t97 -37z" />
    <glyph glyph-name="f_f" unicode="ff" horiz-adv-x="680" 
d="M657 724q24 0 42.5 -5.5t32.5 -14.5l-38 -78q-8 5 -20 8.5t-26 3.5q-35 0 -61 -20.5t-34 -65.5l-11 -62h128l-15 -84h-128l-71 -406h-92l71 406h-220l-71 -406h-92l71 406h-92l15 84h92l13 71q14 78 66.5 120.5t127.5 42.5q24 0 42.5 -5.5t32.5 -14.5l-38 -78
q-8 5 -20 8.5t-26 3.5q-35 0 -61 -20.5t-34 -65.5l-11 -62h220l13 71q14 78 66.5 120.5t127.5 42.5z" />
    <glyph glyph-name="f_f_b" unicode="ffb" horiz-adv-x="1259" 
d="M931 -16q-50 0 -90.5 24t-61.5 60h-4l-12 -68h-87l112 636h-138q-82 0 -97 -84l-11 -62h119l-15 -84h-119l-71 -406h-92l71 406h-220l-71 -406h-92l71 406h-92l15 84h92l13 71q14 78 66.5 120.5t127.5 42.5q24 0 42.5 -5.5t32.5 -14.5l-38 -78q-8 5 -20 8.5t-26 3.5
q-35 0 -61 -20.5t-34 -65.5l-11 -62h220l14 73q6 35 21.5 64t40.5 49.5t59.5 32t79.5 11.5h230l-41 -230l-16 -68h4q25 34 66 59t104 25q43 0 80 -16t64.5 -45.5t43 -72t15.5 -95.5q0 -57 -21.5 -109.5t-59.5 -93.5t-90 -65.5t-113 -24.5zM938 68q38 0 71.5 15.5t58 43
t39 64.5t14.5 80q0 71 -34.5 111t-100.5 40q-39 0 -73 -17.5t-58.5 -46.5t-38.5 -66.5t-14 -77.5q0 -72 39 -109t97 -37z" />
    <glyph glyph-name="f_f_h" unicode="ffh" horiz-adv-x="1225" 
d="M854 490l-16 -68h4q27 36 72 60t98 24q41 0 71 -11.5t49 -31.5t28 -46.5t9 -56.5q0 -12 -1.5 -26.5t-5.5 -37.5l-53 -296h-92l52 294q2 10 3 19.5t1 17.5q0 45 -26.5 68t-71.5 23q-31 0 -58 -13t-48 -34.5t-35.5 -49.5t-19.5 -58l-46 -267h-92l112 636h-138
q-82 0 -97 -84l-11 -62h119l-15 -84h-119l-71 -406h-92l71 406h-220l-71 -406h-92l71 406h-92l15 84h92l13 71q14 78 66.5 120.5t127.5 42.5q24 0 42.5 -5.5t32.5 -14.5l-38 -78q-8 5 -20 8.5t-26 3.5q-35 0 -61 -20.5t-34 -65.5l-11 -62h220l14 73q6 35 21.5 64t40.5 49.5
t59.5 32t79.5 11.5h230z" />
    <glyph glyph-name="f_f_i" unicode="ffi" horiz-adv-x="896" 
d="M657 724q24 0 42.5 -5.5t32.5 -14.5l-38 -78q-8 5 -20 8.5t-26 3.5q-35 0 -61 -20.5t-34 -65.5l-11 -62h312l-86 -490h-92l71 406h-220l-71 -406h-92l71 406h-220l-71 -406h-92l71 406h-92l15 84h92l13 71q14 78 66.5 120.5t127.5 42.5q24 0 42.5 -5.5t32.5 -14.5
l-38 -78q-8 5 -20 8.5t-26 3.5q-35 0 -61 -20.5t-34 -65.5l-11 -62h220l13 71q14 78 66.5 120.5t127.5 42.5zM838 594q-27 0 -46 19t-19 46t19 46t46 19t46 -19t19 -46t-19 -46t-46 -19z" />
    <glyph glyph-name="f_f_j" unicode="ffj" horiz-adv-x="896" 
d="M657 724q24 0 42.5 -5.5t32.5 -14.5l-38 -78q-8 5 -20 8.5t-26 3.5q-35 0 -61 -20.5t-34 -65.5l-11 -62h312l-100 -568q-7 -41 -22 -69t-36.5 -45.5t-48.5 -25.5t-59 -8t-55 10l35 80q12 -6 30 -6q52 0 64 65l85 483h-220l-71 -406h-92l71 406h-220l-71 -406h-92l71 406
h-92l15 84h92l13 71q14 78 66.5 120.5t127.5 42.5q24 0 42.5 -5.5t32.5 -14.5l-38 -78q-8 5 -20 8.5t-26 3.5q-35 0 -61 -20.5t-34 -65.5l-11 -62h220l13 71q14 78 66.5 120.5t127.5 42.5zM838 594q-27 0 -46 19t-19 46t19 46t46 19t46 -19t19 -46t-19 -46t-46 -19z" />
    <glyph glyph-name="f_f_k" unicode="ffk" horiz-adv-x="1166" 
d="M817 278l246 212h121l-1 -4l-225 -190l149 -292l-1 -4h-108l-114 233l-88 -75l-28 -158h-92l112 636h-138q-82 0 -97 -84l-11 -62h119l-15 -84h-119l-71 -406h-92l71 406h-220l-71 -406h-92l71 406h-92l15 84h92l13 71q14 78 66.5 120.5t127.5 42.5q24 0 42.5 -5.5
t32.5 -14.5l-38 -78q-8 5 -20 8.5t-26 3.5q-35 0 -61 -20.5t-34 -65.5l-11 -62h220l14 73q6 35 21.5 64t40.5 49.5t59.5 32t79.5 11.5h230z" />
    <glyph glyph-name="f_f_l" unicode="ffl" horiz-adv-x="888" 
d="M676 0l112 636h-138q-82 0 -97 -84l-11 -62h119l-15 -84h-119l-71 -406h-92l71 406h-220l-71 -406h-92l71 406h-92l15 84h92l13 71q14 78 66.5 120.5t127.5 42.5q24 0 42.5 -5.5t32.5 -14.5l-38 -78q-8 5 -20 8.5t-26 3.5q-35 0 -61 -20.5t-34 -65.5l-11 -62h220l14 73
q6 35 21.5 64t40.5 49.5t59.5 32t79.5 11.5h230l-127 -720h-92z" />
    <glyph glyph-name="f_f_t" unicode="fft" horiz-adv-x="983" 
d="M818 -8q-25 0 -47 8t-38 22.5t-25.5 35.5t-9.5 47q0 8 1 21t4 29l44 251h-220l-71 -406h-92l71 406h-220l-71 -406h-92l71 406h-92l15 84h92l13 71q14 78 66.5 120.5t127.5 42.5q24 0 42.5 -5.5t32.5 -14.5l-38 -78q-8 5 -20 8.5t-26 3.5q-35 0 -61 -20.5t-34 -65.5
l-11 -62h220l13 71q14 78 66.5 120.5t127.5 42.5q24 0 42.5 -5.5t32.5 -14.5l-38 -78q-8 5 -20 8.5t-26 3.5q-35 0 -61 -20.5t-34 -65.5l-11 -62h220l27 150h92l-27 -150h120l-15 -84h-120l-42 -238q-2 -13 -3 -22q-2 -10 -2 -18q0 -22 12 -36t37 -14q17 0 25.5 2t19.5 7
l15 -82q-20 -7 -39.5 -10t-43.5 -3z" />
    <glyph glyph-name="f_h" unicode="fh" horiz-adv-x="913" 
d="M542 490l-16 -68h4q27 36 72 60t98 24q41 0 71 -11.5t49 -31.5t28 -46.5t9 -56.5q0 -12 -1.5 -26.5t-5.5 -37.5l-53 -296h-92l52 294q2 10 3 19.5t1 17.5q0 45 -26.5 68t-71.5 23q-31 0 -58 -13t-48 -34.5t-35.5 -49.5t-19.5 -58l-46 -267h-92l112 636h-138
q-82 0 -97 -84l-11 -62h119l-15 -84h-119l-71 -406h-92l71 406h-92l15 84h92l14 73q6 35 21.5 64t40.5 49.5t59.5 32t79.5 11.5h230z" />
    <glyph glyph-name="f_j" unicode="fj" horiz-adv-x="584" 
d="M144 0h-92l71 406h-92l15 84h92l13 71q14 78 66.5 120.5t127.5 42.5q24 0 42.5 -5.5t32.5 -14.5l-38 -78q-8 5 -20 8.5t-26 3.5q-35 0 -61 -20.5t-34 -65.5l-11 -62h312l-100 -568q-7 -41 -22 -69t-36.5 -45.5t-48.5 -25.5t-59 -8t-55 10l35 80q12 -6 30 -6q52 0 64 65
l85 483h-220zM526 594q-27 0 -46 19t-19 46t19 46t46 19t46 -19t19 -46t-19 -46t-46 -19z" />
    <glyph glyph-name="f_k" unicode="fk" horiz-adv-x="854" 
d="M505 278l246 212h121l-1 -4l-225 -190l149 -292l-1 -4h-108l-114 233l-88 -75l-28 -158h-92l112 636h-138q-82 0 -97 -84l-11 -62h119l-15 -84h-119l-71 -406h-92l71 406h-92l15 84h92l14 73q6 35 21.5 64t40.5 49.5t59.5 32t79.5 11.5h230z" />
    <glyph glyph-name="f_t" unicode="ft" horiz-adv-x="671" 
d="M345 724q24 0 42.5 -5.5t32.5 -14.5l-38 -78q-8 5 -20 8.5t-26 3.5q-35 0 -61 -20.5t-34 -65.5l-11 -62h220l27 150h92l-27 -150h120l-15 -84h-120l-42 -238q-2 -13 -3 -22q-2 -10 -2 -18q0 -22 12 -36t37 -14q17 0 25.5 2t19.5 7l15 -82q-20 -7 -39.5 -10t-43.5 -3
q-25 0 -47 8t-38 22.5t-25.5 35.5t-9.5 47q0 8 1 21t4 29l44 251h-220l-71 -406h-92l71 406h-92l15 84h92l13 71q14 78 66.5 120.5t127.5 42.5z" />
    <glyph glyph-name="r_f" unicode="rf" horiz-adv-x="748" 
d="M725 724q24 0 42.5 -5.5t32.5 -14.5l-38 -78q-8 5 -20 8.5t-26 3.5q-35 0 -61 -20.5t-34 -65.5l-11 -62h128l-15 -84h-128l-71 -406h-92l71 406h-92l15 84h92l13 71q14 78 66.5 120.5t127.5 42.5zM153 410h4q22 47 69.5 70.5t102.5 23.5q14 0 20 -0.5t13 -1.5l-17 -96
q-7 2 -17 3t-24 1q-31 0 -59.5 -10.5t-52 -30.5t-39.5 -48t-22 -62l-46 -259h-92l86 490h88z" />
    <glyph glyph-name="r_f_f" unicode="rff" horiz-adv-x="1060" 
d="M153 410h4q22 47 69.5 70.5t102.5 23.5q14 0 20 -0.5t13 -1.5l-17 -96q-7 2 -17 3t-24 1q-31 0 -59.5 -10.5t-52 -30.5t-39.5 -48t-22 -62l-46 -259h-92l86 490h88zM1037 724q24 0 42.5 -5.5t32.5 -14.5l-38 -78q-8 5 -20 8.5t-26 3.5q-35 0 -61 -20.5t-34 -65.5l-11 -62
h128l-15 -84h-128l-71 -406h-92l71 406h-220l-71 -406h-92l71 406h-92l15 84h92l13 71q14 78 66.5 120.5t127.5 42.5q24 0 42.5 -5.5t32.5 -14.5l-38 -78q-8 5 -20 8.5t-26 3.5q-35 0 -61 -20.5t-34 -65.5l-11 -62h220l13 71q14 78 66.5 120.5t127.5 42.5z" />
    <glyph glyph-name="r_t" unicode="rt" horiz-adv-x="734" 
d="M569 -8q-25 0 -47 8t-38 22.5t-25.5 35.5t-9.5 47q0 8 1 21t4 29l44 251h-86l15 84h86l27 150h92l-27 -150h120l-15 -84h-120l-42 -238q-2 -13 -3 -22q-2 -10 -2 -18q0 -22 12 -36t37 -14q17 0 25.5 2t19.5 7l15 -82q-20 -7 -39.5 -10t-43.5 -3zM153 410h4
q22 47 69.5 70.5t102.5 23.5q14 0 20 -0.5t13 -1.5l-17 -96q-7 2 -17 3t-24 1q-31 0 -59.5 -10.5t-52 -30.5t-39.5 -48t-22 -62l-46 -259h-92l86 490h88z" />
    <glyph glyph-name="t_f" unicode="tf" horiz-adv-x="675" 
d="M168 168q-2 -13 -3 -22q-2 -10 -2 -18q0 -22 12 -36t37 -14q17 0 25.5 2t19.5 7l15 -82q-20 -7 -39.5 -10t-43.5 -3q-25 0 -47 8t-38 22.5t-25.5 35.5t-9.5 47q0 8 1 21t4 29l44 251h-86l15 84h86l27 150h92l-27 -150h220l13 71q14 78 66.5 120.5t127.5 42.5
q24 0 42.5 -5.5t32.5 -14.5l-38 -78q-8 5 -20 8.5t-26 3.5q-35 0 -61 -20.5t-34 -65.5l-11 -62h128l-15 -84h-128l-71 -406h-92l71 406h-220z" />
    <glyph glyph-name="t_t" unicode="tt" horiz-adv-x="674" 
d="M509 -8q-25 0 -47 8t-38 22.5t-25.5 35.5t-9.5 47q0 8 1 21t4 29l44 251h-228l-42 -238q-2 -13 -3 -22q-2 -10 -2 -18q0 -22 12 -36t37 -14q17 0 25.5 2t19.5 7l15 -82q-20 -7 -39.5 -10t-43.5 -3q-25 0 -47 8t-38 22.5t-25.5 35.5t-9.5 47q0 8 1 21t4 29l44 251h-86
l15 84h86l27 150h92l-27 -150h228l27 150h92l-27 -150h120l-15 -84h-120l-42 -238q-2 -13 -3 -22q-2 -10 -2 -18q0 -22 12 -36t37 -14q17 0 25.5 2t19.5 7l15 -82q-20 -7 -39.5 -10t-43.5 -3z" />
    <glyph glyph-name=".notdef" horiz-adv-x="570" 
d="M72 716h426v-716h-426v716zM136 60h298v596h-298v-596z" />
    <glyph glyph-name=".null" horiz-adv-x="0" 
 />
    <glyph glyph-name="uni000D" horiz-adv-x="0" 
d="M0 0z" />
    <glyph glyph-name="NULL" horiz-adv-x="0" 
d="M0 0z" />
    <glyph glyph-name="NULL" horiz-adv-x="0" 
d="M0 0z" />
    <glyph glyph-name="nonmarkingreturn" unicode="&#xd;" horiz-adv-x="333" 
 />
    <glyph glyph-name="space" unicode=" " horiz-adv-x="220" 
d="M0 0z" />
    <glyph glyph-name="exclam" unicode="!" horiz-adv-x="232" 
d="M65 -6q-29 0 -48.5 19.5t-19.5 48.5t19.5 48.5t48.5 19.5t48.5 -19.5t19.5 -48.5t-19.5 -48.5t-48.5 -19.5zM93 490l40 226h92l-40 -226l-57 -268h-72z" />
    <glyph glyph-name="quotedbl" unicode="&#x22;" horiz-adv-x="320" 
d="M215 490l40 226h84l-40 -226h-84zM67 490l40 226h84l-40 -226h-84z" />
    <glyph glyph-name="numbersign" unicode="#" horiz-adv-x="632" 
d="M107 0l35 203h-123l15 76h121l24 135h-125l14 76h124l34 194h80l-34 -194h136l34 194h80l-34 -194h123l-14 -76h-122l-24 -135h126l-14 -76h-125l-35 -203h-80l35 203h-136l-35 -203h-80zM235 279h136l24 135h-136z" />
    <glyph glyph-name="dollar" unicode="$" horiz-adv-x="533" 
d="M170 -12q-31 6 -60.5 20t-53.5 36.5t-40.5 54t-21.5 70.5l87 33q4 -46 30.5 -80t74.5 -45l42 240q-32 14 -59.5 32t-48 41t-32.5 52t-12 66t15 70t43 58.5t68.5 42t92.5 20.5l15 85h76l-16 -88q61 -12 96.5 -50t49.5 -84l-88 -35q-8 27 -25 48t-48 30l-40 -227
q34 -17 62.5 -35t48 -40t30.5 -49.5t11 -61.5q0 -46 -17 -82t-46.5 -62.5t-70 -42t-87.5 -19.5l-15 -86h-76zM373 184q0 38 -20 60.5t-55 40.5l-37 -211q23 3 43.5 11t35.5 21.5t24 32.5t9 45zM170 506q0 -57 74 -96l35 200q-48 -5 -78.5 -29.5t-30.5 -74.5z" />
    <glyph glyph-name="percent" unicode="%" horiz-adv-x="814" 
d="M98 33l562 659l50 -42l-561 -658zM208 358q-33 0 -60 11t-46.5 31t-30.5 47t-11 60q0 40 15 75.5t42 61.5t63.5 41t78.5 15q33 0 60 -11t46.5 -31t30.5 -47t11 -60q0 -41 -15 -76t-42 -61t-63.5 -41t-78.5 -15zM217 425q50 0 82.5 34t32.5 86q0 41 -23.5 64.5t-58.5 23.5
q-51 0 -83 -34t-32 -86q0 -41 23.5 -64.5t58.5 -23.5zM551 -16q-33 0 -60 11t-46.5 31t-30.5 47t-11 60q0 40 15 75.5t42 61.5t63.5 41t78.5 15q33 0 60 -11t46.5 -31t30.5 -47t11 -60q0 -41 -15 -76t-42 -61t-63.5 -41t-78.5 -15zM560 51q50 0 82.5 34t32.5 86
q0 41 -23.5 64.5t-58.5 23.5q-51 0 -83 -34t-32 -86q0 -41 23.5 -64.5t58.5 -23.5z" />
    <glyph glyph-name="ampersand" unicode="&#x26;" horiz-adv-x="618" 
d="M469 121l55 -93l-81 -44l-38 65q-78 -65 -179 -65q-45 0 -85.5 15t-70.5 43.5t-47.5 69t-17.5 91.5q0 78 39.5 142t125.5 105q-14 25 -23.5 52t-9.5 58t12 62t35.5 55.5t58 39.5t79.5 15q69 0 108 -34.5t55 -92.5l-91 -36q-3 12 -8 25t-15 24.5t-24 18.5t-35 7
q-33 0 -57 -22.5t-24 -61.5q0 -20 6.5 -38t16.5 -35l174 -296l75 109l60 -44zM235 68q42 0 73 12.5t57 36.5l-155 265q-25 -12 -47 -28.5t-38 -38.5t-25.5 -48.5t-9.5 -58.5q0 -28 10.5 -53t29.5 -44.5t45.5 -31t59.5 -11.5z" />
    <glyph glyph-name="quotesingle" unicode="'" horiz-adv-x="172" 
d="M67 490l40 226h84l-40 -226h-84z" />
    <glyph glyph-name="parenleft" unicode="(" horiz-adv-x="330" 
d="M375 732q-53 -50 -95 -103.5t-71 -114.5t-45 -129.5t-16 -147.5q0 -101 26.5 -181t65.5 -144l-66 -48q-22 31 -43.5 71.5t-38 90t-27 106.5t-10.5 122q0 78 20 153t55.5 142.5t84.5 126.5t108 104z" />
    <glyph glyph-name="parenright" unicode=")" horiz-adv-x="330" 
d="M-43 -88q52 49 94.5 103t71.5 115t45 129.5t16 147.5q0 101 -26.5 181t-65.5 144l66 48q22 -31 43.5 -71.5t38 -90t27 -107t10.5 -121.5q0 -78 -20 -153t-55.5 -142.5t-84.5 -126.5t-108 -104z" />
    <glyph glyph-name="asterisk" unicode="*" horiz-adv-x="436" 
d="M111 635l104 -40l5 2l21 119h76l-21 -119l5 -2l105 37l24 -70l-117 -43l-3 -7l57 -99l-70 -45l-57 102h-6l-92 -102l-57 49l99 105l-1 7l-101 38z" />
    <glyph glyph-name="plus" unicode="+" horiz-adv-x="550" 
d="M304 309h181l-13 -76h-181l-32 -181h-76l32 181h-181l13 76h181l32 181h76z" />
    <glyph glyph-name="comma" unicode="," horiz-adv-x="232" 
d="M-22 -81l67 81q-5 2 -12 6.5t-13 12t-10.5 18.5t-4.5 25q0 29 20.5 48.5t46.5 19.5q29 0 49 -19.5t20 -48.5q0 -17 -12.5 -35t-29.5 -39l-84 -100z" />
    <glyph glyph-name="hyphen" unicode="-" horiz-adv-x="432" 
d="M53 348h320l-13 -76h-320z" />
    <glyph glyph-name="period" unicode="." horiz-adv-x="232" 
d="M64 -6q-29 0 -48.5 19.5t-19.5 48.5t19.5 48.5t48.5 19.5t48.5 -19.5t19.5 -48.5t-19.5 -48.5t-48.5 -19.5z" />
    <glyph glyph-name="slash" unicode="/" horiz-adv-x="437" 
d="M-38 0l423 716h88l-424 -716h-87z" />
    <glyph glyph-name="zero" unicode="0" horiz-adv-x="638" 
d="M267 -16q-53 0 -96 21t-73 59.5t-46 93.5t-16 124q0 85 25.5 161t70.5 133t106 90.5t132 33.5q110 0 171 -78t61 -218q0 -86 -25.5 -162.5t-70.5 -133.5t-106 -90.5t-133 -33.5zM275 72q45 0 86.5 25t74 68.5t52 103t19.5 127.5q0 99 -36.5 157.5t-111.5 58.5
q-43 0 -84 -26t-73 -70.5t-51.5 -103t-19.5 -124.5q0 -104 39 -160t105 -56z" />
    <glyph glyph-name="one" unicode="1" horiz-adv-x="384" 
d="M143 0l100 567l-134 -54l-30 77l218 94h59l-121 -684h-92z" />
    <glyph glyph-name="two" unicode="2" horiz-adv-x="520" 
d="M-20 0l16 92q65 56 122 106q24 21 50 43q25 22 48 42t42.5 37t32.5 29q22 20 42 38.5t34.5 37.5t23 40t8.5 46q0 46 -29 73.5t-82 27.5q-28 0 -49.5 -10t-38 -25t-27 -32t-16.5 -32l-82 37q10 26 28 53t46 48.5t65.5 35t85.5 13.5q42 0 77.5 -13t62 -36.5t41 -55.5
t14.5 -69q0 -38 -12 -70t-32.5 -60.5t-47 -54.5t-56.5 -52q-8 -7 -22 -19q-14 -13 -32 -28t-38 -32q-20 -18 -40 -35q-47 -40 -101 -87h316l-15 -88h-435z" />
    <glyph glyph-name="three" unicode="3" horiz-adv-x="531" 
d="M211 -16q-36 0 -71 10.5t-64 31.5t-49 53t-25 76l90 35q6 -56 41 -87t89 -31q30 0 57 8.5t47.5 25.5t32.5 41.5t12 56.5q0 54 -34.5 82.5t-86.5 28.5h-59l15 86h52q66 0 105 30t39 87q0 43 -31 68.5t-76 25.5q-26 0 -46.5 -8.5t-36 -21.5t-27 -29t-18.5 -32l-82 38
q12 27 31 52.5t46 45t63 31.5t81 12q41 0 76 -12.5t60.5 -35t40 -53t14.5 -66.5q0 -66 -33.5 -106.5t-85.5 -62.5v-4q35 -16 61.5 -54t26.5 -92q0 -53 -20.5 -95.5t-55.5 -72.5t-81.5 -46t-97.5 -16z" />
    <glyph glyph-name="four" unicode="4" horiz-adv-x="589" 
d="M301 0l26 144h-325l12 70l395 470h105l-80 -454h88l-15 -86h-88l-26 -144h-92zM398 549h-4l-262 -319h210z" />
    <glyph glyph-name="five" unicode="5" horiz-adv-x="555" 
d="M216 -16q-35 0 -70 11.5t-64.5 34.5t-49.5 57.5t-24 81.5l88 33q5 -56 36 -93t88 -37q36 0 67 11t54 31.5t36.5 49t13.5 64.5q0 57 -32.5 92.5t-89.5 35.5q-35 0 -68 -16t-57 -43l-86 40l105 347h359l-15 -88h-284l-60 -196l4 -1q26 19 58.5 30t67.5 11q43 0 78 -14
t60.5 -40t39.5 -63.5t14 -84.5q0 -51 -19.5 -97.5t-55 -81t-85 -55t-109.5 -20.5z" />
    <glyph glyph-name="six" unicode="6" horiz-adv-x="549" 
d="M304 434q39 0 73 -15.5t58.5 -42.5t39 -65t14.5 -83q0 -57 -21.5 -102.5t-57 -77t-82 -48t-97.5 -16.5q-45 0 -85 15.5t-69 43t-46 66t-17 85.5q0 33 7.5 62t22.5 56.5t37 56t51 61.5l237 270l65 -51l-201 -230l2 -2q15 8 31 12.5t38 4.5zM238 72q33 0 61.5 10.5t50 30
t33.5 47t12 61.5q0 58 -36.5 94.5t-95.5 36.5q-35 0 -63.5 -12t-49 -33t-31.5 -49.5t-11 -61.5q0 -27 10.5 -50t28.5 -39.5t41.5 -25.5t49.5 -9z" />
    <glyph glyph-name="seven" unicode="7" horiz-adv-x="523" 
d="M16 37l409 559h-342l17 88h441l-16 -94l-439 -606z" />
    <glyph glyph-name="eight" unicode="8" horiz-adv-x="544" 
d="M214 -16q-47 0 -85 14t-65 38.5t-41.5 57.5t-14.5 70q0 68 40.5 119t103.5 75l1 4q-26 21 -46 51.5t-20 77.5q0 42 18 80t50 66.5t75.5 45.5t94.5 17q84 0 134.5 -45.5t50.5 -123.5q0 -35 -11 -62t-28 -48t-38 -35.5t-40 -23.5l-1 -4q35 -18 60.5 -57t25.5 -87
q0 -53 -22 -95.5t-58.5 -72.5t-84.5 -46t-99 -16zM285 401q28 0 52.5 9t41.5 25t27 36t10 43q0 48 -28.5 73t-72.5 25q-28 0 -52.5 -8.5t-42.5 -23.5t-28 -36.5t-10 -47.5q0 -44 29 -69.5t74 -25.5zM222 72q28 0 57 9.5t52 27t37.5 43t14.5 57.5q0 24 -9.5 43.5t-26 33.5
t-39 21.5t-48.5 7.5q-30 0 -58.5 -10t-50 -28.5t-35 -45t-13.5 -58.5q0 -46 34 -73.5t85 -27.5z" />
    <glyph glyph-name="nine" unicode="9" horiz-adv-x="549" 
d="M248 250q-39 0 -73.5 15.5t-60 42.5t-40.5 65t-15 83q0 57 21.5 102.5t57 77t82 48t97.5 16.5q45 0 85 -15.5t69 -43t46 -66.5t17 -85q0 -33 -7.5 -62t-22.5 -56.5t-37 -56t-51 -61.5l-237 -270l-65 51l201 230l-2 2q-15 -8 -31 -12.5t-34 -4.5zM310 612
q-33 0 -61.5 -10.5t-50 -30t-33.5 -47t-12 -61.5q0 -58 36.5 -94.5t95.5 -36.5q35 0 63.5 12t49 33t31.5 49.5t11 61.5q0 27 -10.5 49.5t-28.5 39t-41.5 26t-49.5 9.5z" />
    <glyph glyph-name="colon" unicode=":" horiz-adv-x="232" 
d="M64 -6q-29 0 -48.5 19.5t-19.5 48.5t19.5 48.5t48.5 19.5t48.5 -19.5t19.5 -48.5t-19.5 -48.5t-48.5 -19.5zM129 360q-29 0 -48.5 19.5t-19.5 48.5t19.5 48.5t48.5 19.5t48.5 -19.5t19.5 -48.5t-19.5 -48.5t-48.5 -19.5z" />
    <glyph glyph-name="semicolon" unicode=";" horiz-adv-x="232" 
d="M129 360q-29 0 -48.5 19.5t-19.5 48.5t19.5 48.5t48.5 19.5t48.5 -19.5t19.5 -48.5t-19.5 -48.5t-48.5 -19.5zM-22 -62l67 81q-5 2 -12 6.5t-13 12t-10.5 18.5t-4.5 25q0 29 20.5 48.5t46.5 19.5q29 0 49 -19.5t20 -48.5q0 -17 -12.5 -35t-29.5 -39l-84 -100z" />
    <glyph glyph-name="less" unicode="&#x3c;" horiz-adv-x="506" 
d="M35 237l11 68l423 185l-15 -88l-316 -132l-1 -4l269 -135l-14 -79z" />
    <glyph glyph-name="equal" unicode="=" horiz-adv-x="562" 
d="M72 452h450l-13 -76h-450zM39 262h450l-14 -76h-450z" />
    <glyph glyph-name="greater" unicode="&#x3e;" horiz-adv-x="506" 
d="M440 305l-11 -68l-423 -185l15 88l316 132l1 4l-269 135l14 79z" />
    <glyph glyph-name="question" unicode="?" horiz-adv-x="493" 
d="M167 222l8 47q4 23 11 41.5t20 36t32.5 36t49.5 40.5q17 13 34.5 27t31 30.5t22 35t8.5 39.5q0 39 -27 64t-75 25q-26 0 -47 -8t-37 -21.5t-27 -30.5t-17 -36l-80 36q10 30 29 57t46.5 47t64 32t81.5 12q40 0 74 -13t58.5 -35t38 -52t13.5 -64q0 -33 -11 -60.5t-29 -51
t-41.5 -44t-49.5 -40.5q-34 -26 -54.5 -52t-25.5 -58l-7 -40h-94zM185 -6q-29 0 -48.5 19.5t-19.5 48.5t19.5 48.5t48.5 19.5t48.5 -19.5t19.5 -48.5t-19.5 -48.5t-48.5 -19.5z" />
    <glyph glyph-name="at" unicode="@" horiz-adv-x="868" 
d="M482 690q70 0 132.5 -23.5t110 -66.5t75.5 -103.5t28 -134.5q0 -51 -12.5 -98.5t-36 -85t-57.5 -60t-77 -22.5q-39 0 -66.5 19.5t-38.5 53.5q-26 -35 -65 -54t-82 -19q-33 0 -64 13t-55 36t-38.5 56t-14.5 74q0 40 14.5 81t43 74t70 53.5t96.5 20.5q45 0 76.5 -18
t46.5 -41h4l8 45h72l-46 -261q-1 -5 -1.5 -10.5t-0.5 -10.5q0 -16 11 -31.5t38 -15.5q23 0 42 18t32.5 46.5t20.5 64t7 70.5q0 59 -21 106.5t-58.5 81.5t-91 52t-117.5 18q-77 0 -142 -26.5t-112 -73t-73.5 -110.5t-26.5 -138q0 -62 22 -113t59.5 -88.5t87 -58t105.5 -20.5
q76 0 136 28l23 -67q-39 -17 -80 -25t-86 -8q-75 0 -138 27.5t-109 75t-71.5 111t-25.5 134.5q0 89 33.5 166.5t92.5 134.5t141 90t179 33zM413 172q28 0 53 11t43.5 30.5t29 45.5t10.5 57q0 51 -29 81.5t-80 30.5q-32 0 -57 -12t-43 -32.5t-27.5 -47.5t-9.5 -58
q0 -54 32.5 -80t77.5 -26z" />
    <glyph glyph-name="A" unicode="A" horiz-adv-x="668" 
d="M345 716h104l143 -716h-99l-34 194h-301l-105 -194h-104zM442 280l-60 323h-4l-174 -323h238z" />
    <glyph glyph-name="B" unicode="B" horiz-adv-x="594" 
d="M135 716h245q45 0 80 -14t59.5 -38t37 -56t12.5 -67q0 -34 -10.5 -61.5t-28 -48.5t-40.5 -35.5t-47 -23.5l-1 -4q43 -23 69 -58.5t26 -90.5q0 -47 -20 -87t-54.5 -69t-81 -46t-100.5 -17h-273zM339 409q29 0 54 7.5t43.5 22.5t29 37t10.5 51q0 41 -26.5 71t-77.5 30h-161
l-39 -219h167zM301 88q24 0 49.5 8t45.5 23.5t33 40t13 57.5q0 48 -31 77t-84 29h-170l-41 -235h185z" />
    <glyph glyph-name="C" unicode="C" horiz-adv-x="729" 
d="M652 111q-34 -32 -68 -56t-70.5 -40t-77.5 -23.5t-89 -7.5q-69 0 -127 23t-100 65t-65.5 101t-23.5 132q0 83 32.5 160t90.5 136.5t137.5 95t173.5 35.5q42 0 79 -9.5t68.5 -25.5t56.5 -38t41 -47l-74 -61q-33 48 -76 70.5t-105 22.5q-69 0 -129.5 -28t-105 -74.5
t-70 -106.5t-25.5 -125q0 -54 17.5 -98t49 -75t74 -48t92.5 -17q75 0 130 28.5t105 77.5z" />
    <glyph glyph-name="D" unicode="D" horiz-adv-x="691" 
d="M135 716h219q75 0 132.5 -24t96 -65.5t58.5 -98t20 -121.5q0 -80 -28.5 -153.5t-82.5 -130t-133 -90t-179 -33.5h-230zM243 88q69 0 128 24t102.5 66.5t68 99.5t24.5 123q0 111 -60 169t-168 58h-127l-95 -540h127z" />
    <glyph glyph-name="E" unicode="E" 
d="M211 628l-40 -227h294l-15 -86h-294l-40 -227h326l-16 -88h-418l127 716h418l-16 -88h-326z" />
    <glyph glyph-name="F" unicode="F" horiz-adv-x="522" 
d="M135 716h418l-16 -88h-326l-41 -235h294l-15 -86h-294l-55 -307h-92z" />
    <glyph glyph-name="G" unicode="G" horiz-adv-x="801" 
d="M413 383h347q0 -13 -1.5 -25.5t-3.5 -28.5q-12 -74 -40.5 -130t-70.5 -100q-110 -115 -292 -115q-62 0 -120 22.5t-102.5 65t-71.5 103.5t-27 138q0 84 31.5 160t89 133.5t138 91.5t179.5 34q39 0 76 -8t69 -22t58 -34.5t43 -45.5l-75 -63q-25 40 -75.5 62.5t-110.5 22.5
q-69 0 -129 -25t-104.5 -69t-69.5 -104t-25 -130q0 -59 19.5 -104.5t52.5 -76.5t76 -47t90 -16q66 0 119.5 22.5t93.5 64.5q52 54 75 138h-254z" />
    <glyph glyph-name="H" unicode="H" horiz-adv-x="686" 
d="M135 716h92l-55 -307h358l55 307h92l-127 -716h-92l57 323h-358l-57 -323h-92z" />
    <glyph glyph-name="I" unicode="I" horiz-adv-x="236" 
d="M135 716h92l-127 -716h-92z" />
    <glyph glyph-name="J" unicode="J" horiz-adv-x="524" 
d="M185 -16q-39 0 -73 11.5t-60 33.5t-42.5 52.5t-20.5 68.5l90 35q3 -32 13.5 -53.5t26.5 -34.5t36 -19t42 -6q29 0 54 11t45 30.5t33.5 45.5t18.5 55l88 502h92l-87 -494q-11 -62 -34.5 -106.5t-57.5 -74t-75.5 -43.5t-88.5 -14z" />
    <glyph glyph-name="K" unicode="K" horiz-adv-x="622" 
d="M664 712l-320 -307l213 -401l-1 -4h-109l-176 334l-134 -127l-37 -207h-92l127 716h92l-64 -366h4l376 366h122z" />
    <glyph glyph-name="L" unicode="L" horiz-adv-x="498" 
d="M135 716h92l-111 -628h310l-16 -88h-402z" />
    <glyph glyph-name="M" unicode="M" horiz-adv-x="830" 
d="M135 716h88l172 -436h4l323 436h99l-127 -716h-92l75 425l25 120h-4l-293 -393h-54l-155 393h-4l-17 -120l-75 -425h-92z" />
    <glyph glyph-name="N" unicode="N" horiz-adv-x="696" 
d="M135 716h105l256 -557h4l21 138l74 419h92l-127 -716h-88l-269 584h-4l-20 -138l-79 -446h-92z" />
    <glyph glyph-name="O" unicode="O" horiz-adv-x="810" 
d="M358 -16q-69 0 -128.5 23.5t-104 66.5t-69.5 102.5t-25 131.5q0 82 30.5 158.5t86 135.5t133.5 94.5t173 35.5q68 0 127.5 -23.5t103.5 -66.5t69 -102.5t25 -131.5q0 -82 -30.5 -158.5t-86 -135.5t-133 -94.5t-171.5 -35.5zM367 72q67 0 124.5 28t100.5 74t67.5 105.5
t24.5 121.5q0 57 -19 102t-51.5 76.5t-76.5 48t-94 16.5q-67 0 -125 -28t-100.5 -74t-67 -105t-24.5 -122q0 -57 19 -102t51.5 -76.5t76.5 -48t94 -16.5z" />
    <glyph glyph-name="P" unicode="P" horiz-adv-x="564" 
d="M8 0l127 716h238q42 0 78 -13.5t62 -38t40.5 -59t14.5 -75.5q0 -57 -20 -101.5t-55 -75.5t-83.5 -47t-105.5 -16h-152l-52 -290h-92zM321 378q31 0 58.5 8t48.5 25t33 43.5t12 63.5q0 51 -31 80.5t-77 29.5h-154l-44 -250h154z" />
    <glyph glyph-name="Q" unicode="Q" horiz-adv-x="810" 
d="M358 -16q-69 0 -128.5 23.5t-104 66.5t-69.5 102.5t-25 131.5q0 82 30.5 158.5t86 135.5t133.5 94.5t173 35.5q68 0 127.5 -23.5t103.5 -66.5t69 -102.5t25 -131.5q0 -102 -46.5 -193t-127.5 -151l34 -70l-82 -42l-33 66q-38 -16 -79 -25t-87 -9zM367 72q32 0 60.5 6.5
t56.5 18.5l-63 129l83 44l60 -122q55 48 87.5 114.5t32.5 138.5q0 57 -19 102t-51.5 76.5t-76.5 48t-94 16.5q-67 0 -125 -28t-100.5 -74t-67 -105t-24.5 -122q0 -57 19 -102t51.5 -76.5t76.5 -48t94 -16.5z" />
    <glyph glyph-name="R" unicode="R" horiz-adv-x="578" 
d="M135 716h237q42 0 78 -13.5t62.5 -38.5t41 -60.5t14.5 -79.5t-15 -81.5t-42 -67t-65.5 -50t-85.5 -29.5l-3 -3l148 -289l-1 -4h-104l-144 290h-104l-52 -290h-92zM315 376q32 0 61 9.5t50.5 28t34 46t12.5 63.5q0 43 -29.5 74t-86.5 31h-146l-44 -252h148z" />
    <glyph glyph-name="S" unicode="S" horiz-adv-x="553" 
d="M224 -16q-43 0 -81 12.5t-68.5 37.5t-50.5 61t-27 83l89 36q3 -30 13.5 -55.5t29.5 -45t45.5 -30.5t60.5 -11q29 0 57.5 9.5t50.5 27t35.5 42t13.5 55.5q0 45 -30 72.5t-97 53.5l-43 16q-27 10 -52.5 25t-45.5 36.5t-32.5 50t-12.5 66.5q0 45 19.5 83t52.5 65t77 42.5
t93 15.5q53 0 91 -15t63 -37.5t38 -48.5t16 -47l-89 -33q-2 14 -9 30.5t-22 30.5t-38 23t-57 9q-28 0 -53.5 -7.5t-44.5 -21.5t-30 -34.5t-11 -46.5q0 -42 28.5 -67t80.5 -44l43 -16q33 -12 62.5 -29.5t51 -40t34.5 -52t13 -65.5q0 -55 -20.5 -99t-56 -74.5t-84 -46.5
t-103.5 -16z" />
    <glyph glyph-name="T" unicode="T" horiz-adv-x="540" 
d="M160 0l111 628h-200l16 88h492l-16 -88h-200l-111 -628h-92z" />
    <glyph glyph-name="U" unicode="U" horiz-adv-x="642" 
d="M258 -16q-44 0 -84 15t-70.5 42.5t-48.5 67.5t-18 90q0 15 1 36.5t8 61.5l74 419h92l-78 -442q-4 -22 -5 -35.5t-1 -24.5q0 -63 35 -102.5t110 -39.5q43 0 77.5 14.5t60.5 40t43 60t24 75.5l80 454h92l-82 -465q-23 -127 -101.5 -197t-208.5 -70z" />
    <glyph glyph-name="V" unicode="V" horiz-adv-x="632" 
d="M75 716h100l93 -581h4l307 581h104l-387 -716h-96z" />
    <glyph glyph-name="W" unicode="W" horiz-adv-x="922" 
d="M652 0h-94l-71 472h-4l-238 -472h-94l-72 716h94l52 -563h4l235 467h88l72 -467h4l245 563h96z" />
    <glyph glyph-name="X" unicode="X" horiz-adv-x="632" 
d="M260 375l-167 341h108l126 -272h4l221 272h113l-288 -348l182 -368h-109l-142 293h-4l-243 -293h-108z" />
    <glyph glyph-name="Y" unicode="Y" horiz-adv-x="594" 
d="M189 0l59 333l-173 383h105l125 -291h4l225 291h111l-305 -383l-59 -333h-92z" />
    <glyph glyph-name="Z" unicode="Z" horiz-adv-x="564" 
d="M-14 96l472 532h-363l16 88h472l-17 -96l-473 -532h383l-16 -88h-491z" />
    <glyph glyph-name="bracketleft" unicode="[" horiz-adv-x="308" 
d="M152 792h204l-13 -76h-121l-134 -764h120l-13 -76h-203z" />
    <glyph glyph-name="backslash" unicode="\" horiz-adv-x="437" 
d="M261 0l-170 716h84l170 -716h-84z" />
    <glyph glyph-name="bracketright" unicode="]" horiz-adv-x="308" 
d="M155 -124h-203l13 76h119l134 764h-119l13 76h204z" />
    <glyph glyph-name="asciicircum" unicode="^" horiz-adv-x="470" 
d="M375 410l-88 218h-4l-161 -218h-101l241 306h72l133 -306h-92z" />
    <glyph glyph-name="underscore" unicode="_" horiz-adv-x="480" 
d="M-68 -140h479l-14 -76h-479z" />
    <glyph glyph-name="grave" unicode="`" horiz-adv-x="400" 
d="M209 588l-49 128h98l29 -128h-78z" />
    <glyph glyph-name="a" unicode="a" horiz-adv-x="510" 
d="M287 506q95 0 143.5 -44t48.5 -119q0 -12 -1.5 -25.5t-3.5 -27.5l-52 -290h-88l12 68h-4q-24 -35 -66 -59.5t-94 -24.5q-36 0 -67 10.5t-53.5 30.5t-35.5 47.5t-13 62.5q0 42 18.5 76t50.5 57.5t75.5 36.5t94.5 13q41 0 72.5 -8.5t60.5 -21.5l4 21q2 8 2 20q0 43 -31 69
t-82 26q-39 0 -69.5 -15t-59.5 -50l-72 51q35 47 89.5 71.5t120.5 24.5zM201 66q31 0 59.5 11t51 30.5t38.5 46t21 56.5q-12 9 -30 17q-16 6 -39.5 11.5t-56.5 5.5q-25 0 -49.5 -6t-43.5 -19t-31 -32t-12 -44q0 -19 8 -33.5t20.5 -24t29 -14.5t34.5 -5z" />
    <glyph glyph-name="b" unicode="b" horiz-adv-x="576" 
d="M248 -16q-50 0 -90.5 24t-61.5 60h-4l-12 -68h-87l126 716h92l-40 -226l-16 -68h4q25 34 66 59t104 25q43 0 80 -16t64.5 -45.5t43 -72t15.5 -95.5q0 -57 -21.5 -109.5t-59.5 -93.5t-90 -65.5t-113 -24.5zM255 68q38 0 71.5 15.5t58 43t39 64.5t14.5 80q0 71 -34.5 111
t-100.5 40q-39 0 -73 -17.5t-58.5 -46.5t-38.5 -66.5t-14 -77.5q0 -72 39 -109t97 -37z" />
    <glyph glyph-name="c" unicode="c" horiz-adv-x="522" 
d="M218 -16q-48 0 -87.5 17.5t-67 48t-43 72t-15.5 88.5q0 64 23 118.5t62.5 94t93 61.5t114.5 22q45 0 79 -12.5t58.5 -32.5t39.5 -45.5t22 -50.5l-86 -33q-12 42 -42.5 66t-81.5 24q-40 0 -74.5 -15.5t-59.5 -43t-39.5 -65t-14.5 -81.5q0 -30 9 -57.5t26 -47.5t43 -32
t59 -12q47 0 84.5 25t63.5 68l74 -35q-23 -36 -46.5 -63t-52 -44.5t-63 -26t-78.5 -8.5z" />
    <glyph glyph-name="d" unicode="d" horiz-adv-x="576" 
d="M208 -16q-43 0 -80 16t-64.5 45.5t-43 72t-15.5 95.5q0 57 21.5 109.5t59.5 93.5t90 65.5t113 24.5q50 0 90.5 -24t61.5 -60h4l8 68l40 226h92l-126 -716h-88l12 68h-4q-25 -34 -66.5 -59t-104.5 -25zM282 422q-38 0 -71.5 -15.5t-58.5 -43t-39 -64.5t-14 -80
q0 -71 34.5 -111t100.5 -40q39 0 73 17.5t58.5 46.5t38.5 66.5t14 77.5q0 72 -39 109t-97 37z" />
    <glyph glyph-name="e" unicode="e" horiz-adv-x="536" 
d="M459 116q-39 -65 -100 -98.5t-131 -33.5q-54 0 -95.5 18t-70 48.5t-43 71t-14.5 86.5q0 57 19.5 110.5t56.5 95.5t89.5 67t117.5 25q51 0 90 -16t65 -44t39 -65t13 -80q0 -18 -2 -38t-7 -35h-386q-1 -10 -1 -16v-13q0 -33 11.5 -58t30.5 -41t43 -24t49 -8q50 0 89.5 24
t65.5 64zM402 304v11q0 21 -7.5 40.5t-23 34t-38.5 23.5t-54 9q-60 0 -102.5 -32.5t-59.5 -85.5h285z" />
    <glyph glyph-name="f" unicode="f" horiz-adv-x="368" 
d="M345 724q24 0 42.5 -5.5t32.5 -14.5l-38 -78q-8 5 -20 8.5t-26 3.5q-35 0 -61 -20.5t-34 -65.5l-11 -62h128l-15 -84h-128l-71 -406h-92l71 406h-92l15 84h92l13 71q14 78 66.5 120.5t127.5 42.5z" />
    <glyph glyph-name="g" unicode="g" horiz-adv-x="576" 
d="M195 -232q-46 0 -81.5 14t-60 35.5t-39.5 47t-20 48.5l89 34q7 -41 38 -68t83 -27q77 0 126 45.5t63 123.5l8 47h-4q-23 -37 -67 -60.5t-104 -23.5q-42 0 -78.5 15.5t-64 45t-43.5 72.5t-16 99q0 51 19.5 103t56 93.5t88.5 67.5t118 26q57 0 96.5 -25.5t57.5 -58.5h4
l12 68h88l-87 -490q-11 -62 -38 -106t-64.5 -72t-84 -41t-95.5 -13zM250 68q39 0 73 17t59 46.5t39.5 68t14.5 82.5q0 34 -10.5 60t-28 44t-41.5 27t-51 9q-45 0 -80 -18t-59 -47.5t-36.5 -66.5t-12.5 -75q0 -72 38 -109.5t95 -37.5z" />
    <glyph glyph-name="h" unicode="h" 
d="M171 490l-16 -68h4q27 36 72 60t98 24q41 0 71 -11.5t49 -31.5t28 -46.5t9 -56.5q0 -12 -1.5 -26.5t-5.5 -37.5l-53 -296h-92l52 294q2 10 3 19.5t1 17.5q0 45 -26.5 68t-71.5 23q-31 0 -58 -13t-48 -34.5t-35.5 -49.5t-19.5 -58l-46 -267h-92l126 716h92z" />
    <glyph glyph-name="i" unicode="i" horiz-adv-x="220" 
d="M0 0l86 490h92l-86 -490h-92zM162 594q-27 0 -46 19t-19 46t19 46t46 19t46 -19t19 -46t-19 -46t-46 -19z" />
    <glyph glyph-name="j" unicode="j" horiz-adv-x="220" 
d="M-88 -226q-32 0 -55 10l35 80q12 -6 30 -6q52 0 64 65l100 567h92l-100 -568q-7 -41 -22 -69t-36.5 -45.5t-48.5 -25.5t-59 -8zM162 594q-27 0 -46 19t-19 46t19 46t46 19t46 -19t19 -46t-19 -46t-46 -19z" />
    <glyph glyph-name="k" unicode="k" horiz-adv-x="483" 
d="M135 282l240 208h126l-1 -4l-225 -190l149 -292l-1 -4h-108l-114 233l-88 -75l-28 -158h-92l126 716h92z" />
    <glyph glyph-name="l" unicode="l" horiz-adv-x="204" 
d="M-7 0l126 716h92l-126 -716h-92z" />
    <glyph glyph-name="m" unicode="m" horiz-adv-x="852" 
d="M79 490h88l-12 -68h4q26 39 67 61.5t96 22.5t91.5 -25t50.5 -69q27 43 73.5 68.5t107.5 25.5q76 0 113.5 -40t37.5 -101q0 -17 -2 -35t-7 -43l-50 -287h-92l51 292q2 14 3.5 25.5t1.5 22.5q0 39 -22 60.5t-69 21.5q-30 0 -55 -13t-44.5 -34t-33 -48t-18.5 -56l-48 -271
h-92l51 292q2 14 3.5 25.5t1.5 22.5q0 39 -23.5 60.5t-67.5 21.5q-30 0 -55.5 -13t-45 -34.5t-32.5 -48.5t-18 -55l-48 -271h-92z" />
    <glyph glyph-name="n" unicode="n" 
d="M155 422h4q25 36 68 60t98 24q72 0 115.5 -41t43.5 -110q0 -15 -1.5 -34t-5.5 -39l-50 -282h-92l52 294q4 20 4 40q0 45 -27.5 66.5t-73.5 21.5q-30 0 -56.5 -12t-47 -32.5t-34.5 -48t-19 -58.5l-48 -271h-92l86 490h88z" />
    <glyph glyph-name="o" unicode="o" horiz-adv-x="560" 
d="M298 506q51 0 93.5 -18.5t72.5 -50.5t46.5 -74.5t16.5 -90.5q0 -61 -22 -113.5t-61 -91.5t-93 -61t-117 -22q-51 0 -93.5 18.5t-72.5 50.5t-46.5 74.5t-16.5 90.5q0 61 22 113.5t61 91.5t93 61t117 22zM243 68q44 0 79.5 16.5t60 44t37.5 63t13 74.5q0 34 -11.5 62.5
t-31 49.5t-46 32.5t-55.5 11.5q-44 0 -79.5 -16.5t-60 -44t-37.5 -63t-13 -74.5q0 -34 11.5 -62.5t31 -49.5t46 -32.5t55.5 -11.5z" />
    <glyph glyph-name="p" unicode="p" horiz-adv-x="572" 
d="M336 506q43 0 80 -16t64.5 -45.5t43 -72t15.5 -95.5q0 -57 -21.5 -109.5t-59.5 -93.5t-90 -65.5t-113 -24.5q-50 0 -90.5 24t-61.5 60h-4l-8 -68l-39 -216h-92l125 706h88l-12 -68h4q25 34 66.5 59t104.5 25zM262 68q38 0 71.5 15.5t58 43t39 64.5t14.5 80
q0 71 -34.5 111t-100.5 40q-39 0 -73 -17.5t-58.5 -46.5t-38.5 -66.5t-14 -77.5q0 -72 39 -109t97 -37z" />
    <glyph glyph-name="q" unicode="q" horiz-adv-x="572" 
d="M329 -216l38 216l16 68h-4q-25 -34 -66.5 -59t-104.5 -25q-43 0 -80 16t-64.5 45.5t-43 72t-15.5 95.5q0 57 21.5 109.5t59.5 93.5t90 65.5t113 24.5q50 0 90.5 -24t61.5 -60h4l12 68h87l-123 -706h-92zM282 422q-38 0 -71.5 -15.5t-58.5 -43t-39 -64.5t-14 -80
q0 -71 34.5 -111t100.5 -40q39 0 73 17.5t58.5 46.5t38.5 66.5t14 77.5q0 72 -39 109t-97 37z" />
    <glyph glyph-name="r" unicode="r" horiz-adv-x="363" 
d="M-7 0l86 490h88l-14 -80h4q23 42 66.5 68t93.5 26q23 0 35.5 -3t25.5 -9l-39 -89q-13 4 -24.5 5.5t-28.5 1.5q-27 0 -52.5 -11t-46.5 -30.5t-35.5 -47t-20.5 -60.5l-46 -261h-92z" />
    <glyph glyph-name="s" unicode="s" horiz-adv-x="455" 
d="M186 -16q-43 0 -76 11t-57.5 29.5t-40.5 44t-24 55.5l88 35q10 -46 43 -69.5t76 -23.5q48 0 76 20t28 49q0 28 -18 45t-60 28l-56 15q-53 14 -87.5 44.5t-34.5 86.5q0 33 16 61t43 48t63 31.5t77 11.5q70 0 119 -32.5t66 -83.5l-88 -34q-11 28 -36.5 48t-66.5 20
q-43 0 -70 -16.5t-27 -46.5q0 -19 15 -35t52 -26l63 -17q60 -17 93 -51.5t33 -85.5q0 -37 -15 -67t-43 -51t-66.5 -32.5t-84.5 -11.5z" />
    <glyph glyph-name="t" unicode="t" horiz-adv-x="354" 
d="M189 -8q-25 0 -47 8t-38 22.5t-25.5 35.5t-9.5 47q0 8 1 21t4 29l44 251h-86l15 84h86l27 150h92l-27 -150h120l-15 -84h-120l-42 -238q-2 -13 -3 -22q-2 -10 -2 -18q0 -22 12 -36t37 -14q17 0 25.5 2t19.5 7l15 -82q-20 -7 -39.5 -10t-43.5 -3z" />
    <glyph glyph-name="u" unicode="u" 
d="M348 68h-4q-25 -36 -68 -60t-98 -24q-72 0 -115.5 41t-43.5 110q0 15 1.5 34t5.5 39l50 282h92l-52 -294q-4 -20 -4 -40q0 -45 27.5 -66.5t73.5 -21.5q30 0 56.5 12t47 32.5t34.5 48t19 58.5l48 271h92l-86 -490h-88z" />
    <glyph glyph-name="v" unicode="v" horiz-adv-x="498" 
d="M27 490h98l77 -380h2l213 380h100l-287 -490h-92z" />
    <glyph glyph-name="w" unicode="w" horiz-adv-x="754" 
d="M434 0l-55 376l-188 -376h-93l-71 490h94l43 -370h1l187 370h95l55 -370h1l174 370h96l-245 -490h-94z" />
    <glyph glyph-name="x" unicode="x" horiz-adv-x="472" 
d="M294 0l-90 182h-1l-149 -182h-111l216 252l-124 238h104l86 -172h1l143 172h112l-213 -243l130 -247h-104z" />
    <glyph glyph-name="y" unicode="y" horiz-adv-x="498" 
d="M5 -216l158 247l-121 459h97l86 -353h2l205 353h102l-432 -706h-97z" />
    <glyph glyph-name="z" unicode="z" horiz-adv-x="460" 
d="M-18 80l334 326h-268l15 84h384l-14 -80l-334 -326h280l-15 -84h-395z" />
    <glyph glyph-name="braceleft" unicode="{" horiz-adv-x="318" 
d="M183 -124q-30 0 -56 9t-44.5 25.5t-29 39.5t-10.5 52q0 21 3 39l30 171q1 5 1.5 10.5t0.5 10.5q0 32 -16.5 47.5t-44.5 15.5l13 76q30 0 55.5 19.5t33.5 64.5l30 171q14 81 59.5 123t131.5 42h26l-13 -76h-22q-38 0 -64 -23.5t-34 -68.5l-31 -171q-9 -51 -30.5 -77.5
t-58.5 -39.5l-1 -4q26 -10 39.5 -29t13.5 -51q0 -18 -4 -37l-31 -171q-3 -18 -3 -26q0 -33 20.5 -49.5t48.5 -16.5h22l-13 -76h-22z" />
    <glyph glyph-name="bar" unicode="|" horiz-adv-x="228" 
d="M152 792h84l-161 -912h-83z" />
    <glyph glyph-name="braceright" unicode="}" horiz-adv-x="318" 
d="M134 792q30 0 56 -9t44.5 -25.5t29 -40t10.5 -51.5q0 -21 -3 -39l-30 -171q-1 -5 -1.5 -10.5t-0.5 -10.5q0 -32 16.5 -47.5t44.5 -15.5l-13 -76q-30 0 -55.5 -19.5t-33.5 -64.5l-30 -171q-14 -81 -59.5 -123t-131.5 -42h-26l13 76h22q38 0 64 23.5t34 68.5l31 171
q9 51 30.5 77.5t58.5 39.5l1 4q-26 10 -39.5 29t-13.5 51q0 18 4 37l31 171q3 18 3 26q0 33 -20.5 49.5t-48.5 16.5h-22l13 76h22z" />
    <glyph glyph-name="asciitilde" unicode="~" horiz-adv-x="530" 
d="M356 234q-29 0 -57 10t-55 23q-27 12 -52.5 22t-49.5 10q-26 0 -41 -16.5t-20 -34.5h-72q7 63 41.5 98.5t98.5 35.5q28 0 56 -10t55 -22q27 -13 53 -23t50 -10q26 0 41 16.5t20 34.5h72q-7 -63 -41.5 -98.5t-98.5 -35.5z" />
    <glyph glyph-name="uni00A0" unicode="&#xa0;" horiz-adv-x="220" 
d="M0 0z" />
    <glyph glyph-name="exclamdown" unicode="&#xa1;" horiz-adv-x="232" 
d="M139 506q29 0 48.5 -19.5t19.5 -48.5t-19.5 -48.5t-48.5 -19.5t-48.5 19.5t-19.5 48.5t19.5 48.5t48.5 19.5zM111 10l-40 -226h-92l40 226l57 268h72z" />
    <glyph glyph-name="cent" unicode="&#xa2;" horiz-adv-x="522" 
d="M194 86q-38 7 -69.5 26.5t-54 49.5t-35 68t-12.5 81q0 59 19.5 109.5t54.5 88.5t83 61.5t105 28.5l15 85h76l-16 -87q33 -6 58.5 -20t44 -32.5t30.5 -40t18 -43.5l-87 -34q-9 32 -28 54t-50 32l-61 -345q38 9 64 32.5t47 57.5l76 -35q-40 -65 -86 -98.5t-116 -40.5
l-15 -84h-76zM116 318q0 -54 24 -94t69 -55l61 347q-35 -6 -63 -23.5t-48.5 -43.5t-31.5 -60t-11 -71z" />
    <glyph glyph-name="sterling" unicode="&#xa3;" horiz-adv-x="519" 
d="M383 523q-5 17 -12.5 33t-20 28.5t-30.5 20t-44 7.5q-27 0 -50.5 -10t-40.5 -28t-26.5 -42t-9.5 -52q0 -40 16 -79q15 -39 27 -78h138l-13 -77h-115q-2 -46 -25.5 -85t-60.5 -69l4 -4h176q37 0 58.5 15.5t36.5 41.5l70 -32q-27 -55 -69 -84t-112 -29h-309l14 80
q25 11 47.5 28t39.5 38t27.5 45t10.5 51v4h-96l13 77h66l-25 75q-13 38 -13 83q0 43 16 83t46.5 70t74 48t98.5 18q42 0 73 -12t53 -31.5t35.5 -45t21.5 -53.5z" />
    <glyph glyph-name="currency" unicode="&#xa4;" horiz-adv-x="598" 
d="M299 106q-36 0 -68.5 11t-58.5 31l-59 -57l-53 54l60 58q-17 26 -27 57t-10 65t10 65t27 57l-60 59l53 54l59 -57q26 20 58.5 30.5t68.5 10.5t68.5 -10.5t58.5 -30.5l59 57l53 -54l-59 -58q17 -26 26.5 -57t9.5 -66q0 -34 -9.5 -65t-26.5 -57l59 -58l-53 -54l-59 57
q-26 -20 -58.5 -31t-68.5 -11zM299 186q27 0 51 11t42 29.5t28.5 44t10.5 54.5t-10.5 54.5t-28.5 44t-42 29.5t-51 11t-51 -11t-42 -29.5t-28.5 -44t-10.5 -54.5t10.5 -54.5t28.5 -44t42 -29.5t51 -11z" />
    <glyph glyph-name="yen" unicode="&#xa5;" horiz-adv-x="572" 
d="M328 326l-15 -84h167l-14 -76h-167l-29 -166h-92l29 166h-171l14 76h171l15 84h-171l13 76h122l-131 282h101l121 -282h4l216 282h106l-228 -282h119l-13 -76h-167z" />
    <glyph glyph-name="brokenbar" unicode="&#xa6;" horiz-adv-x="228" 
d="M82 376l67 380h84l-67 -380h-84zM-5 -120l72 412h84l-73 -412h-83z" />
    <glyph glyph-name="section" unicode="&#xa7;" horiz-adv-x="535" 
d="M192 -232q-39 0 -76 12.5t-66.5 37t-49 60.5t-23.5 83l87 35q3 -28 13 -53t27 -44.5t41 -31t57 -11.5q28 0 52.5 7t43 21.5t29.5 35.5t11 48q0 49 -32.5 76t-97.5 47l-3 1q-71 23 -116 66t-45 105q0 26 9.5 50t25.5 44.5t37.5 37t44.5 27.5q-27 23 -43.5 55t-16.5 70
t15.5 71.5t44 59t69.5 40t92 14.5q45 0 79 -12.5t58 -32.5t39 -46.5t21 -53.5l-91 -35q-2 14 -9 30.5t-21 30t-35 22.5t-50 9q-21 0 -42 -5.5t-37.5 -16.5t-26.5 -27t-10 -37q0 -38 30.5 -62.5t91.5 -47.5l3 -1q36 -14 66.5 -31.5t52 -40t34 -50.5t12.5 -63q0 -57 -27.5 -97
t-72.5 -66q21 -21 33.5 -50t12.5 -69q0 -43 -17 -81.5t-48 -67.5t-76 -46t-100 -17zM250 174q18 -6 35 -13t34 -15q28 14 50 40.5t22 59.5q0 81 -124 124l-19 6q-20 -6 -39 -15.5t-34 -23t-24.5 -30.5t-9.5 -36q0 -35 28.5 -57.5t80.5 -39.5z" />
    <glyph glyph-name="dieresis" unicode="&#xa8;" horiz-adv-x="400" 
d="M335 602q-23 0 -40 17t-17 40q0 25 17 41t40 16q25 0 41 -16t16 -41q0 -23 -16 -40t-41 -17zM167 602q-23 0 -40 17t-17 40q0 25 17 41t40 16q25 0 41 -16t16 -41q0 -23 -16 -40t-41 -17z" />
    <glyph glyph-name="copyright" unicode="&#xa9;" horiz-adv-x="532" 
d="M266 272q-48 0 -89.5 18t-73 49.5t-49.5 73t-18 89.5q0 47 18 89t49.5 73.5t73 49.5t89.5 18q47 0 89 -18t73.5 -49.5t49.5 -73.5t18 -89q0 -48 -18 -89.5t-49.5 -73t-73.5 -49.5t-89 -18zM266 320q38 0 71 14.5t58 39.5t39 58t14 70q0 38 -14 71t-39 58t-58 39t-71 14
q-37 0 -70 -14t-58 -39t-39.5 -58t-14.5 -71q0 -37 14.5 -70t39.5 -58t58 -39.5t70 -14.5zM270 383q-26 0 -47.5 9.5t-37.5 25.5t-25 38t-9 46q0 25 9 46.5t25 37.5t37.5 25.5t47.5 9.5q31 0 50.5 -11t36.5 -28l-32 -29q-11 11 -22 17.5t-33 6.5q-29 0 -51 -21.5t-22 -53.5
t22 -53.5t51 -21.5q21 0 35 8.5t25 22.5l34 -27q-16 -21 -39 -34.5t-55 -13.5z" />
    <glyph glyph-name="ordfeminine" unicode="&#xaa;" horiz-adv-x="478" 
d="M200 272q-33 0 -61 9t-48.5 26t-32 41.5t-11.5 55.5q0 39 18 69t47.5 50.5t67.5 31.5t79 11q44 0 74.5 -9t50.5 -19l2 15q1 6 1 9v7q0 42 -28.5 63.5t-66.5 21.5t-66.5 -11.5t-51.5 -41.5l-68 40q10 17 27 33.5t41 29t55 20.5t70 8q36 0 67.5 -10.5t55 -30t37 -47.5
t13.5 -62q0 -17 -3 -35l-46 -261h-84l11 62h-4q-23 -30 -60.5 -53t-85.5 -23zM218 348q28 0 53.5 9t46.5 25t35 38t19 49q-11 8 -27 15q-14 5 -34.5 10t-48.5 5q-21 0 -42.5 -4.5t-39.5 -15t-29.5 -27t-11.5 -40.5q0 -17 7.5 -29t19 -20t25.5 -11.5t27 -3.5z" />
    <glyph glyph-name="guillemotleft" unicode="&#xab;" horiz-adv-x="556" 
d="M243 100l-60 -48l-163 219l240 219l47 -53l-187 -171zM443 100l-60 -48l-163 219l240 219l47 -53l-187 -171z" />
    <glyph glyph-name="logicalnot" unicode="&#xac;" horiz-adv-x="562" 
d="M48 385h434l-49 -280h-72l36 204h-362z" />
    <glyph glyph-name="uni00AD" unicode="&#xad;" horiz-adv-x="432" 
d="M53 348h320l-13 -76h-320z" />
    <glyph glyph-name="registered" unicode="&#xae;" horiz-adv-x="532" 
d="M266 272q-48 0 -89.5 18t-73 49.5t-49.5 73t-18 89.5q0 47 18 89t49.5 73.5t73 49.5t89.5 18q47 0 89 -18t73.5 -49.5t49.5 -73.5t18 -89q0 -48 -18 -89.5t-49.5 -73t-73.5 -49.5t-89 -18zM266 320q38 0 71 14.5t58 39.5t39 58t14 70q0 38 -14 71t-39 58t-58 39t-71 14
q-37 0 -70 -14t-58 -39t-39.5 -58t-14.5 -71q0 -37 14.5 -70t39.5 -58t58 -39.5t70 -14.5zM189 389v226h96q29 0 51 -20.5t22 -51.5q0 -23 -14.5 -41.5t-35.5 -24.5l-2 -2l60 -84v-2h-52l-55 84h-24v-84h-46zM281 515q12 0 21.5 7.5t9.5 20.5q0 10 -8 19t-22 9h-47v-56h46z
" />
    <glyph glyph-name="macron" unicode="&#xaf;" horiz-adv-x="400" 
d="M106 623l13 72h280l-13 -72h-280z" />
    <glyph glyph-name="degree" unicode="&#xb0;" horiz-adv-x="325" 
d="M186 442q-24 0 -45.5 8t-38 23t-26 36t-9.5 47q0 32 11 58.5t30.5 45.5t46 29.5t58.5 10.5q24 0 45.5 -8.5t38 -23.5t26 -36t9.5 -46q0 -32 -11 -58.5t-30.5 -45.5t-46.5 -29.5t-58 -10.5zM192 506q29 0 50 20.5t21 51.5q0 26 -15.5 42t-40.5 16q-29 0 -50 -20.5
t-21 -51.5q0 -26 15.5 -42t40.5 -16z" />
    <glyph glyph-name="plusminus" unicode="&#xb1;" horiz-adv-x="550" 
d="M315 372h181l-13 -76h-181l-28 -157h-76l28 157h-181l13 76h181l28 157h76zM-7 0l13 76h438l-14 -76h-437z" />
    <glyph glyph-name="twosuperior" unicode="&#xb2;" horiz-adv-x="304" 
d="M23 350l11 60q42 36 75 65l28 24t26 22q11 10 19 16q7 6 9 8q17 13 35 32.5t18 41.5q0 20 -13.5 30.5t-33.5 10.5q-45 0 -67 -58l-60 27q14 46 50.5 70.5t83.5 24.5q51 0 82 -28t31 -70q0 -20 -6 -36.5t-16.5 -31t-24.5 -27.5t-29 -26q-11 -9 -28 -24l-36 -30
q-21 -18 -44 -37h151l-12 -64h-249z" />
    <glyph glyph-name="threesuperior" unicode="&#xb3;" horiz-adv-x="323" 
d="M161 342q-43 0 -79 24t-45 76l65 23q8 -32 25 -45.5t41 -13.5q27 0 47 16.5t20 40.5q0 47 -61 47h-32l11 60h37q26 0 43.5 14.5t17.5 36.5q0 20 -13.5 29.5t-30.5 9.5q-27 0 -42 -14.5t-23 -28.5l-58 25q14 36 48.5 59t82.5 23t78.5 -26.5t30.5 -65.5q0 -30 -20.5 -55
t-45.5 -35q22 -11 35.5 -30.5t13.5 -46.5q0 -26 -11 -48.5t-30.5 -39t-46.5 -26t-58 -9.5z" />
    <glyph glyph-name="acute" unicode="&#xb4;" horiz-adv-x="400" 
d="M188 588l75 128h102l-95 -128h-82z" />
    <glyph glyph-name="mu" unicode="&#xb5;" 
d="M336 0l12 68h-4q-25 -36 -68 -60t-98 -24q-28 0 -52.5 11t-38.5 29h-4l-6 -56l-34 -184h-91l124 706h92l-52 -294q-4 -20 -4 -40q0 -45 27.5 -66.5t73.5 -21.5q30 0 56.5 12t47 32.5t34.5 48t19 58.5l48 271h92l-86 -490h-88z" />
    <glyph glyph-name="paragraph" unicode="&#xb6;" horiz-adv-x="624" 
d="M292 -216v512h-44q-45 0 -85.5 14.5t-71 41.5t-49 66t-18.5 88t18.5 88t49 66t71 41.5t85.5 14.5h296v-932h-84v844h-84v-844h-84z" />
    <glyph glyph-name="periodcentered" unicode="&#xb7;" horiz-adv-x="176" 
d="M88 256q-29 0 -48.5 19.5t-19.5 48.5t19.5 48.5t48.5 19.5t48.5 -19.5t19.5 -48.5t-19.5 -48.5t-48.5 -19.5z" />
    <glyph glyph-name="cedilla" unicode="&#xb8;" horiz-adv-x="400" 
d="M84 -237q-34 0 -59.5 19.5t-31.5 47.5l56 23q2 -14 12.5 -24t26.5 -10q18 0 32 12t14 35q0 14 -9.5 24.5t-26.5 10.5q-11 0 -18.5 -4t-15.5 -12l-43 22l51 93h56l-29 -48q4 1 8 1.5t12 0.5q35 0 55.5 -24.5t20.5 -63.5q0 -45 -30 -74t-81 -29z" />
    <glyph glyph-name="onesuperior" unicode="&#xb9;" horiz-adv-x="242" 
d="M110 350l50 282l-63 -25l-22 55l124 54h46l-65 -366h-70z" />
    <glyph glyph-name="ordmasculine" unicode="&#xba;" horiz-adv-x="516" 
d="M249 272q-43 0 -79 14.5t-61.5 40.5t-39.5 62t-14 80q0 48 18 95t52 84.5t81.5 60.5t107.5 23q44 0 80 -14t61 -39.5t38.5 -61.5t13.5 -81q0 -53 -20 -100.5t-55 -84t-82 -58t-101 -21.5zM256 352q32 0 61.5 13t51.5 36.5t35 56.5t13 73q0 28 -9.5 50t-25 38t-36.5 24.5
t-43 8.5q-34 0 -63 -14.5t-50 -38.5t-33 -56t-12 -68q0 -57 32.5 -90t78.5 -33z" />
    <glyph glyph-name="guillemotright" unicode="&#xbb;" horiz-adv-x="556" 
d="M78 442l60 48l163 -219l-240 -219l-47 53l187 171zM278 442l60 48l163 -219l-240 -219l-47 53l187 171z" />
    <glyph glyph-name="onequarter" unicode="&#xbc;" horiz-adv-x="736" 
d="M494 0l13 72h-171l8 48l218 246h67l-41 -234h48l-11 -60h-48l-13 -72h-70zM518 132l22 126h-4l-112 -126h94zM50 34l592 690l53 -42l-589 -691zM135 350l50 282l-63 -25l-22 55l124 54h46l-65 -366h-70z" />
    <glyph glyph-name="onehalf" unicode="&#xbd;" horiz-adv-x="776" 
d="M436 0l11 60q42 36 75 65l28 24t26 22q11 10 19 16q7 6 9 8q17 13 35 32.5t18 41.5q0 20 -13.5 30.5t-33.5 10.5q-45 0 -67 -58l-60 27q14 46 50.5 70.5t83.5 24.5q51 0 82 -28t31 -70q0 -20 -6 -36.5t-16.5 -31t-24.5 -27.5t-29 -26q-11 -9 -28 -24l-36 -30
q-21 -18 -44 -37h151l-12 -64h-249zM50 34l592 690l53 -42l-589 -691zM135 350l50 282l-63 -25l-22 55l124 54h46l-65 -366h-70z" />
    <glyph glyph-name="threequarters" unicode="&#xbe;" horiz-adv-x="829" 
d="M588 0l13 72h-171l8 48l218 246h67l-41 -234h48l-11 -60h-48l-13 -72h-70zM612 132l22 126h-4l-112 -126h94zM117 34l592 690l53 -42l-589 -691zM185 342q-43 0 -79 24t-45 76l65 23q8 -32 25 -45.5t41 -13.5q27 0 47 16.5t20 40.5q0 47 -61 47h-32l11 60h37
q26 0 43.5 14.5t17.5 36.5q0 20 -13.5 29.5t-30.5 9.5q-27 0 -42 -14.5t-23 -28.5l-58 25q14 36 48.5 59t82.5 23t78.5 -26.5t30.5 -65.5q0 -30 -20.5 -55t-45.5 -35q22 -11 35.5 -30.5t13.5 -46.5q0 -26 -11 -48.5t-30.5 -39t-46.5 -26t-58 -9.5z" />
    <glyph glyph-name="questiondown" unicode="&#xbf;" horiz-adv-x="482" 
d="M297 278l-8 -47q-4 -23 -11 -41.5t-20 -36t-32.5 -36t-49.5 -40.5q-17 -13 -34.5 -27t-31 -30.5t-22 -35t-8.5 -39.5q0 -39 27 -64t75 -25q26 0 47 8t37 21.5t27 30.5t17 36l80 -36q-11 -30 -29.5 -57t-46 -47t-64 -32t-81.5 -12q-41 0 -74.5 13t-58 35t-38 52t-13.5 64
q0 33 11 60.5t29 51t41.5 44t49.5 40.5q34 26 54.5 52t25.5 58l7 40h94zM279 506q29 0 48.5 -19.5t19.5 -48.5t-19.5 -48.5t-48.5 -19.5t-48.5 19.5t-19.5 48.5t19.5 48.5t48.5 19.5z" />
    <glyph glyph-name="Agrave" unicode="&#xc0;" horiz-adv-x="668" 
d="M345 716h104l143 -716h-99l-34 194h-301l-105 -194h-104zM442 280l-60 323h-4l-174 -323h238zM364 772l-49 128h98l29 -128h-78z" />
    <glyph glyph-name="Aacute" unicode="&#xc1;" horiz-adv-x="668" 
d="M345 716h104l143 -716h-99l-34 194h-301l-105 -194h-104zM442 280l-60 323h-4l-174 -323h238zM363 772l75 128h102l-95 -128h-82z" />
    <glyph glyph-name="Acircumflex" unicode="&#xc2;" horiz-adv-x="668" 
d="M345 716h104l143 -716h-99l-34 194h-301l-105 -194h-104zM442 280l-60 323h-4l-174 -323h238zM248 783l124 117h80l82 -117l-1 -5h-83l-41 60h-8l-59 -60h-95z" />
    <glyph glyph-name="Atilde" unicode="&#xc3;" horiz-adv-x="668" 
d="M345 716h104l143 -716h-99l-34 194h-301l-105 -194h-104zM442 280l-60 323h-4l-174 -323h238zM470 778q-18 0 -33.5 7t-29.5 16q-15 8 -30 15t-33 7q-30 0 -39 -35h-76q8 60 39 89t75 29q18 0 34 -7t31 -15q14 -9 29 -16t32 -7q30 0 39 35h76q-8 -60 -39 -89t-75 -29z
" />
    <glyph glyph-name="Adieresis" unicode="&#xc4;" horiz-adv-x="668" 
d="M345 716h104l143 -716h-99l-34 194h-301l-105 -194h-104zM442 280l-60 323h-4l-174 -323h238zM490 786q-23 0 -40 17t-17 40q0 25 17 41t40 16q25 0 41 -16t16 -41q0 -23 -16 -40t-41 -17zM322 786q-23 0 -40 17t-17 40q0 25 17 41t40 16q25 0 41 -16t16 -41
q0 -23 -16 -40t-41 -17z" />
    <glyph glyph-name="Aring" unicode="&#xc5;" horiz-adv-x="668" 
d="M326 682q-14 14 -22.5 33t-8.5 41q0 44 30 74t74 30q21 0 40 -8t33.5 -22t22.5 -33t8 -41q0 -26 -12.5 -49t-32.5 -37l134 -670h-99l-34 194h-301l-105 -194h-104zM442 280l-60 323h-4l-174 -323h238zM399 716q17 0 28.5 11.5t11.5 28.5t-11.5 28.5t-28.5 11.5
t-28.5 -11.5t-11.5 -28.5q0 -16 10.5 -27.5t25.5 -12.5h4z" />
    <glyph glyph-name="AE" unicode="&#xc6;" horiz-adv-x="960" 
d="M-59 0l552 716h478l-16 -88h-326l-40 -227h294l-15 -86h-294l-40 -227h326l-16 -88h-418l34 194h-259l-148 -194h-112zM267 280h208l62 348h-4l-39 -51z" />
    <glyph glyph-name="Ccedilla" unicode="&#xc7;" horiz-adv-x="729" 
d="M316 -237q-34 0 -59.5 19.5t-31.5 47.5l56 23q2 -14 12.5 -24t26.5 -10q18 0 32 12t14 35q0 14 -9.5 24.5t-26.5 10.5q-11 0 -18.5 -4t-15.5 -12l-43 22l44 81q-59 7 -108 33t-84 67t-54.5 96t-19.5 121q0 83 32.5 160t90.5 136.5t137.5 95t173.5 35.5q42 0 79 -9.5
t68.5 -25.5t56.5 -38t41 -47l-74 -61q-33 48 -76 70.5t-105 22.5q-69 0 -129.5 -28t-105 -74.5t-70 -106.5t-25.5 -125q0 -54 17.5 -98t49 -75t74 -48t92.5 -17q75 0 130 28.5t105 77.5l59 -67q-34 -32 -68 -56t-70.5 -40t-77 -23.5t-86.5 -7.5l-19 -32q4 1 8 1.5t12 0.5
q35 0 55.5 -24.5t20.5 -63.5q0 -45 -30 -74t-81 -29z" />
    <glyph glyph-name="Egrave" unicode="&#xc8;" 
d="M211 628l-40 -227h294l-15 -86h-294l-40 -227h326l-16 -88h-418l127 716h418l-16 -88h-326zM312 772l-49 128h98l29 -128h-78z" />
    <glyph glyph-name="Eacute" unicode="&#xc9;" 
d="M211 628l-40 -227h294l-15 -86h-294l-40 -227h326l-16 -88h-418l127 716h418l-16 -88h-326zM298 772l75 128h102l-95 -128h-82z" />
    <glyph glyph-name="Ecircumflex" unicode="&#xca;" 
d="M211 628l-40 -227h294l-15 -86h-294l-40 -227h326l-16 -88h-418l127 716h418l-16 -88h-326zM198 783l124 117h80l82 -117l-1 -5h-83l-41 60h-8l-59 -60h-95z" />
    <glyph glyph-name="Edieresis" unicode="&#xcb;" 
d="M211 628l-40 -227h294l-15 -86h-294l-40 -227h326l-16 -88h-418l127 716h418l-16 -88h-326zM431 786q-23 0 -40 17t-17 40q0 25 17 41t40 16q25 0 41 -16t16 -41q0 -23 -16 -40t-41 -17zM263 786q-23 0 -40 17t-17 40q0 25 17 41t40 16q25 0 41 -16t16 -41q0 -23 -16 -40
t-41 -17z" />
    <glyph glyph-name="Igrave" unicode="&#xcc;" horiz-adv-x="236" 
d="M135 716h92l-127 -716h-92zM159 772l-49 128h98l29 -128h-78z" />
    <glyph glyph-name="Iacute" unicode="&#xcd;" horiz-adv-x="236" 
d="M135 716h92l-127 -716h-92zM143 772l75 128h102l-95 -128h-82z" />
    <glyph glyph-name="Icircumflex" unicode="&#xce;" horiz-adv-x="236" 
d="M135 716h92l-127 -716h-92zM38 783l124 117h80l82 -117l-1 -5h-83l-41 60h-8l-59 -60h-95z" />
    <glyph glyph-name="Idieresis" unicode="&#xcf;" horiz-adv-x="236" 
d="M131 787q-23 0 -40 17t-17 40q0 25 17 41t40 16q25 0 41 -16t16 -41q0 -23 -16 -40t-41 -17zM267 787q-23 0 -40 17t-17 40q0 25 17 41t40 16q25 0 41 -16t16 -41q0 -23 -16 -40t-41 -17zM135 716h92l-127 -716h-92z" />
    <glyph glyph-name="Eth" unicode="&#xd0;" horiz-adv-x="751" 
d="M124 319h-75l13 76h76l57 321h219q75 0 132.5 -24t96 -65.5t58.5 -98t20 -121.5q0 -80 -28.5 -153.5t-82.5 -130t-133 -90t-179 -33.5h-230zM303 88q69 0 128 24t102.5 66.5t68 99.5t24.5 123q0 111 -60 169t-168 58h-127l-41 -233h200l-13 -76h-201l-40 -231h127z" />
    <glyph glyph-name="Ntilde" unicode="&#xd1;" horiz-adv-x="696" 
d="M135 716h105l256 -557h4l21 138l74 419h92l-127 -716h-88l-269 584h-4l-20 -138l-79 -446h-92zM543 778q-18 0 -33.5 7t-29.5 16q-15 8 -30 15t-33 7q-30 0 -39 -35h-76q8 60 39 89t75 29q18 0 34 -7t31 -15q14 -9 29 -16t32 -7q30 0 39 35h76q-8 -60 -39 -89t-75 -29z
" />
    <glyph glyph-name="Ograve" unicode="&#xd2;" horiz-adv-x="810" 
d="M358 -16q-69 0 -128.5 23.5t-104 66.5t-69.5 102.5t-25 131.5q0 82 30.5 158.5t86 135.5t133.5 94.5t173 35.5q68 0 127.5 -23.5t103.5 -66.5t69 -102.5t25 -131.5q0 -82 -30.5 -158.5t-86 -135.5t-133 -94.5t-171.5 -35.5zM367 72q67 0 124.5 28t100.5 74t67.5 105.5
t24.5 121.5q0 57 -19 102t-51.5 76.5t-76.5 48t-94 16.5q-67 0 -125 -28t-100.5 -74t-67 -105t-24.5 -122q0 -57 19 -102t51.5 -76.5t76.5 -48t94 -16.5zM422 772l-49 128h98l29 -128h-78z" />
    <glyph glyph-name="Oacute" unicode="&#xd3;" horiz-adv-x="810" 
d="M358 -16q-69 0 -128.5 23.5t-104 66.5t-69.5 102.5t-25 131.5q0 82 30.5 158.5t86 135.5t133.5 94.5t173 35.5q68 0 127.5 -23.5t103.5 -66.5t69 -102.5t25 -131.5q0 -82 -30.5 -158.5t-86 -135.5t-133 -94.5t-171.5 -35.5zM367 72q67 0 124.5 28t100.5 74t67.5 105.5
t24.5 121.5q0 57 -19 102t-51.5 76.5t-76.5 48t-94 16.5q-67 0 -125 -28t-100.5 -74t-67 -105t-24.5 -122q0 -57 19 -102t51.5 -76.5t76.5 -48t94 -16.5zM425 772l75 128h102l-95 -128h-82z" />
    <glyph glyph-name="Ocircumflex" unicode="&#xd4;" horiz-adv-x="810" 
d="M358 -16q-69 0 -128.5 23.5t-104 66.5t-69.5 102.5t-25 131.5q0 82 30.5 158.5t86 135.5t133.5 94.5t173 35.5q68 0 127.5 -23.5t103.5 -66.5t69 -102.5t25 -131.5q0 -82 -30.5 -158.5t-86 -135.5t-133 -94.5t-171.5 -35.5zM367 72q67 0 124.5 28t100.5 74t67.5 105.5
t24.5 121.5q0 57 -19 102t-51.5 76.5t-76.5 48t-94 16.5q-67 0 -125 -28t-100.5 -74t-67 -105t-24.5 -122q0 -57 19 -102t51.5 -76.5t76.5 -48t94 -16.5zM326 784l124 117h80l82 -117l-1 -5h-83l-41 60h-8l-59 -60h-95z" />
    <glyph glyph-name="Otilde" unicode="&#xd5;" horiz-adv-x="810" 
d="M358 -16q-69 0 -128.5 23.5t-104 66.5t-69.5 102.5t-25 131.5q0 82 30.5 158.5t86 135.5t133.5 94.5t173 35.5q68 0 127.5 -23.5t103.5 -66.5t69 -102.5t25 -131.5q0 -82 -30.5 -158.5t-86 -135.5t-133 -94.5t-171.5 -35.5zM367 72q67 0 124.5 28t100.5 74t67.5 105.5
t24.5 121.5q0 57 -19 102t-51.5 76.5t-76.5 48t-94 16.5q-67 0 -125 -28t-100.5 -74t-67 -105t-24.5 -122q0 -57 19 -102t51.5 -76.5t76.5 -48t94 -16.5zM538 778q-18 0 -33.5 7t-29.5 16q-15 8 -30 15t-33 7q-30 0 -39 -35h-76q8 60 39 89t75 29q18 0 34 -7t31 -15
q14 -9 29 -16t32 -7q30 0 39 35h76q-8 -60 -39 -89t-75 -29z" />
    <glyph glyph-name="Odieresis" unicode="&#xd6;" horiz-adv-x="810" 
d="M358 -16q-69 0 -128.5 23.5t-104 66.5t-69.5 102.5t-25 131.5q0 82 30.5 158.5t86 135.5t133.5 94.5t173 35.5q68 0 127.5 -23.5t103.5 -66.5t69 -102.5t25 -131.5q0 -82 -30.5 -158.5t-86 -135.5t-133 -94.5t-171.5 -35.5zM367 72q67 0 124.5 28t100.5 74t67.5 105.5
t24.5 121.5q0 57 -19 102t-51.5 76.5t-76.5 48t-94 16.5q-67 0 -125 -28t-100.5 -74t-67 -105t-24.5 -122q0 -57 19 -102t51.5 -76.5t76.5 -48t94 -16.5zM558 786q-23 0 -40 17t-17 40q0 25 17 41t40 16q25 0 41 -16t16 -41q0 -23 -16 -40t-41 -17zM390 786q-23 0 -40 17
t-17 40q0 25 17 41t40 16q25 0 41 -16t16 -41q0 -23 -16 -40t-41 -17z" />
    <glyph glyph-name="multiply" unicode="&#xd7;" 
d="M203 274l-130 153l57 49l131 -154l187 156l46 -56l-186 -155l130 -152l-57 -49l-131 153l-188 -156l-46 56z" />
    <glyph glyph-name="Oslash" unicode="&#xd8;" horiz-adv-x="810" 
d="M73 6l53 67q-45 43 -70 102.5t-25 132.5q0 82 30.5 158.5t86 135.5t133.5 94.5t173 35.5q46 0 87.5 -11t78.5 -31l54 68l63 -48l-54 -67q45 -43 70.5 -102.5t25.5 -132.5q0 -82 -30.5 -158.5t-86 -135.5t-133 -94.5t-171.5 -35.5q-47 0 -89 11t-79 31l-53 -67zM126 315
q0 -53 15.5 -95t44.5 -73l375 469q-54 28 -118 28q-67 0 -125 -28t-100.5 -74t-67 -105t-24.5 -122zM367 72q67 0 124.5 28t100.5 74t67.5 105.5t24.5 121.5q0 53 -16 95t-44 73l-375 -470q26 -13 56 -20t62 -7z" />
    <glyph glyph-name="Ugrave" unicode="&#xd9;" horiz-adv-x="642" 
d="M258 -16q-44 0 -84 15t-70.5 42.5t-48.5 67.5t-18 90q0 15 1 36.5t8 61.5l74 419h92l-78 -442q-4 -22 -5 -35.5t-1 -24.5q0 -63 35 -102.5t110 -39.5q43 0 77.5 14.5t60.5 40t43 60t24 75.5l80 454h92l-82 -465q-23 -127 -101.5 -197t-208.5 -70zM356 772l-49 128h98
l29 -128h-78z" />
    <glyph glyph-name="Uacute" unicode="&#xda;" horiz-adv-x="642" 
d="M258 -16q-44 0 -84 15t-70.5 42.5t-48.5 67.5t-18 90q0 15 1 36.5t8 61.5l74 419h92l-78 -442q-4 -22 -5 -35.5t-1 -24.5q0 -63 35 -102.5t110 -39.5q43 0 77.5 14.5t60.5 40t43 60t24 75.5l80 454h92l-82 -465q-23 -127 -101.5 -197t-208.5 -70zM340 772l75 128h102
l-95 -128h-82z" />
    <glyph glyph-name="Ucircumflex" unicode="&#xdb;" horiz-adv-x="642" 
d="M258 -16q-44 0 -84 15t-70.5 42.5t-48.5 67.5t-18 90q0 15 1 36.5t8 61.5l74 419h92l-78 -442q-4 -22 -5 -35.5t-1 -24.5q0 -63 35 -102.5t110 -39.5q43 0 77.5 14.5t60.5 40t43 60t24 75.5l80 454h92l-82 -465q-23 -127 -101.5 -197t-208.5 -70zM237 783l124 117h80
l82 -117l-1 -5h-83l-41 60h-8l-59 -60h-95z" />
    <glyph glyph-name="Udieresis" unicode="&#xdc;" horiz-adv-x="642" 
d="M258 -16q-44 0 -84 15t-70.5 42.5t-48.5 67.5t-18 90q0 15 1 36.5t8 61.5l74 419h92l-78 -442q-4 -22 -5 -35.5t-1 -24.5q0 -63 35 -102.5t110 -39.5q43 0 77.5 14.5t60.5 40t43 60t24 75.5l80 454h92l-82 -465q-23 -127 -101.5 -197t-208.5 -70zM475 786q-23 0 -40 17
t-17 40q0 25 17 41t40 16q25 0 41 -16t16 -41q0 -23 -16 -40t-41 -17zM307 786q-23 0 -40 17t-17 40q0 25 17 41t40 16q25 0 41 -16t16 -41q0 -23 -16 -40t-41 -17z" />
    <glyph glyph-name="Yacute" unicode="&#xdd;" horiz-adv-x="594" 
d="M189 0l59 333l-173 383h105l125 -291h4l225 291h111l-305 -383l-59 -333h-92zM311 772l75 128h102l-95 -128h-82z" />
    <glyph glyph-name="Thorn" unicode="&#xde;" horiz-adv-x="564" 
d="M8 0l127 716h92l-22 -122h147q42 0 78 -13.5t62 -38t40.5 -59t14.5 -75.5q0 -57 -20 -101.5t-55 -75.5t-83.5 -47t-105.5 -16h-153l-30 -168h-92zM300 256q31 0 58.5 8t48.5 25t33 43.5t12 63.5q0 51 -31 80.5t-77 29.5h-154l-44 -250h154z" />
    <glyph glyph-name="germandbls" unicode="&#xdf;" horiz-adv-x="562" 
d="M416 385q38 -19 64 -58t26 -96q0 -54 -20.5 -98.5t-55.5 -75.5t-83 -48t-103 -17q-17 0 -32 1t-29 3l15 88q15 -2 29 -3t24 -1q33 0 62 9t51 27t34.5 44.5t12.5 61.5q0 51 -30.5 84.5t-97.5 33.5h-31l15 86h25q27 0 53 8t46.5 23.5t33 38.5t12.5 53q0 45 -30 70t-78 25
q-55 0 -90.5 -35.5t-45.5 -92.5l-91 -516h-94l91 516q8 46 26 85.5t47.5 68.5t71 45.5t95.5 16.5q44 0 80 -13.5t61 -37.5t38.5 -56t13.5 -68q0 -64 -33 -105.5t-83 -62.5v-4z" />
    <glyph glyph-name="agrave" unicode="&#xe0;" horiz-adv-x="510" 
d="M287 506q95 0 143.5 -44t48.5 -119q0 -12 -1.5 -25.5t-3.5 -27.5l-52 -290h-88l12 68h-4q-24 -35 -66 -59.5t-94 -24.5q-36 0 -67 10.5t-53.5 30.5t-35.5 47.5t-13 62.5q0 42 18.5 76t50.5 57.5t75.5 36.5t94.5 13q41 0 72.5 -8.5t60.5 -21.5l4 21q2 8 2 20q0 43 -31 69
t-82 26q-39 0 -69.5 -15t-59.5 -50l-72 51q35 47 89.5 71.5t120.5 24.5zM201 66q31 0 59.5 11t51 30.5t38.5 46t21 56.5q-12 9 -30 17q-16 6 -39.5 11.5t-56.5 5.5q-25 0 -49.5 -6t-43.5 -19t-31 -32t-12 -44q0 -19 8 -33.5t20.5 -24t29 -14.5t34.5 -5zM265 588l-49 128h98
l29 -128h-78z" />
    <glyph glyph-name="aacute" unicode="&#xe1;" horiz-adv-x="510" 
d="M287 506q95 0 143.5 -44t48.5 -119q0 -12 -1.5 -25.5t-3.5 -27.5l-52 -290h-88l12 68h-4q-24 -35 -66 -59.5t-94 -24.5q-36 0 -67 10.5t-53.5 30.5t-35.5 47.5t-13 62.5q0 42 18.5 76t50.5 57.5t75.5 36.5t94.5 13q41 0 72.5 -8.5t60.5 -21.5l4 21q2 8 2 20q0 43 -31 69
t-82 26q-39 0 -69.5 -15t-59.5 -50l-72 51q35 47 89.5 71.5t120.5 24.5zM201 66q31 0 59.5 11t51 30.5t38.5 46t21 56.5q-12 9 -30 17q-16 6 -39.5 11.5t-56.5 5.5q-25 0 -49.5 -6t-43.5 -19t-31 -32t-12 -44q0 -19 8 -33.5t20.5 -24t29 -14.5t34.5 -5zM244 588l75 128h102
l-95 -128h-82z" />
    <glyph glyph-name="acircumflex" unicode="&#xe2;" horiz-adv-x="510" 
d="M287 506q95 0 143.5 -44t48.5 -119q0 -12 -1.5 -25.5t-3.5 -27.5l-52 -290h-88l12 68h-4q-24 -35 -66 -59.5t-94 -24.5q-36 0 -67 10.5t-53.5 30.5t-35.5 47.5t-13 62.5q0 42 18.5 76t50.5 57.5t75.5 36.5t94.5 13q41 0 72.5 -8.5t60.5 -21.5l4 21q2 8 2 20q0 43 -31 69
t-82 26q-39 0 -69.5 -15t-59.5 -50l-72 51q35 47 89.5 71.5t120.5 24.5zM201 66q31 0 59.5 11t51 30.5t38.5 46t21 56.5q-12 9 -30 17q-16 6 -39.5 11.5t-56.5 5.5q-25 0 -49.5 -6t-43.5 -19t-31 -32t-12 -44q0 -19 8 -33.5t20.5 -24t29 -14.5t34.5 -5zM148 599l124 117h80
l82 -117l-1 -5h-83l-41 60h-8l-59 -60h-95z" />
    <glyph glyph-name="atilde" unicode="&#xe3;" horiz-adv-x="510" 
d="M287 506q95 0 143.5 -44t48.5 -119q0 -12 -1.5 -25.5t-3.5 -27.5l-52 -290h-88l12 68h-4q-24 -35 -66 -59.5t-94 -24.5q-36 0 -67 10.5t-53.5 30.5t-35.5 47.5t-13 62.5q0 42 18.5 76t50.5 57.5t75.5 36.5t94.5 13q41 0 72.5 -8.5t60.5 -21.5l4 21q2 8 2 20q0 43 -31 69
t-82 26q-39 0 -69.5 -15t-59.5 -50l-72 51q35 47 89.5 71.5t120.5 24.5zM201 66q31 0 59.5 11t51 30.5t38.5 46t21 56.5q-12 9 -30 17q-16 6 -39.5 11.5t-56.5 5.5q-25 0 -49.5 -6t-43.5 -19t-31 -32t-12 -44q0 -19 8 -33.5t20.5 -24t29 -14.5t34.5 -5zM374 595
q-18 0 -33.5 7t-29.5 16q-15 8 -30 15t-33 7q-30 0 -39 -35h-76q8 60 39 89t75 29q18 0 34 -7t31 -15q14 -9 29 -16t32 -7q30 0 39 35h76q-8 -60 -39 -89t-75 -29z" />
    <glyph glyph-name="adieresis" unicode="&#xe4;" horiz-adv-x="510" 
d="M287 506q95 0 143.5 -44t48.5 -119q0 -12 -1.5 -25.5t-3.5 -27.5l-52 -290h-88l12 68h-4q-24 -35 -66 -59.5t-94 -24.5q-36 0 -67 10.5t-53.5 30.5t-35.5 47.5t-13 62.5q0 42 18.5 76t50.5 57.5t75.5 36.5t94.5 13q41 0 72.5 -8.5t60.5 -21.5l4 21q2 8 2 20q0 43 -31 69
t-82 26q-39 0 -69.5 -15t-59.5 -50l-72 51q35 47 89.5 71.5t120.5 24.5zM201 66q31 0 59.5 11t51 30.5t38.5 46t21 56.5q-12 9 -30 17q-16 6 -39.5 11.5t-56.5 5.5q-25 0 -49.5 -6t-43.5 -19t-31 -32t-12 -44q0 -19 8 -33.5t20.5 -24t29 -14.5t34.5 -5zM391 602
q-23 0 -40 17t-17 40q0 25 17 41t40 16q25 0 41 -16t16 -41q0 -23 -16 -40t-41 -17zM223 602q-23 0 -40 17t-17 40q0 25 17 41t40 16q25 0 41 -16t16 -41q0 -23 -16 -40t-41 -17z" />
    <glyph glyph-name="aring" unicode="&#xe5;" horiz-adv-x="510" 
d="M287 506q95 0 143.5 -44t48.5 -119q0 -12 -1.5 -25.5t-3.5 -27.5l-52 -290h-88l12 68h-4q-24 -35 -66 -59.5t-94 -24.5q-36 0 -67 10.5t-53.5 30.5t-35.5 47.5t-13 62.5q0 42 18.5 76t50.5 57.5t75.5 36.5t94.5 13q41 0 72.5 -8.5t60.5 -21.5l4 21q2 8 2 20q0 43 -31 69
t-82 26q-39 0 -69.5 -15t-59.5 -50l-72 51q35 47 89.5 71.5t120.5 24.5zM201 66q31 0 59.5 11t51 30.5t38.5 46t21 56.5q-12 9 -30 17q-16 6 -39.5 11.5t-56.5 5.5q-25 0 -49.5 -6t-43.5 -19t-31 -32t-12 -44q0 -19 8 -33.5t20.5 -24t29 -14.5t34.5 -5zM307 565q-22 0 -41 8
t-33 22.5t-22 33.5t-8 40q0 44 30 74t74 30q21 0 40 -8t33.5 -22t22.5 -33t8 -41q0 -21 -8 -40t-22.5 -33.5t-33.5 -22.5t-40 -8zM307 624q18 0 31 13.5t13 31.5t-13 31t-31 13t-31 -13t-13 -31t13 -31.5t31 -13.5z" />
    <glyph glyph-name="ae" unicode="&#xe6;" horiz-adv-x="905" 
d="M828 116q-39 -65 -100.5 -98.5t-134.5 -33.5q-72 0 -119.5 32t-71.5 83q-38 -52 -92.5 -83.5t-123.5 -31.5q-38 0 -69.5 10.5t-54.5 30.5t-36 47.5t-13 62.5q0 42 18.5 76t50.5 57.5t76 36.5t94 13q41 0 72.5 -8.5t60.5 -21.5l4 21q2 10 2 20q0 44 -31 69.5t-79 25.5
q-41 0 -77.5 -18.5t-54.5 -50.5l-77 41q31 48 84 79t136 31q60 0 101 -26.5t62 -68.5q37 43 89.5 69t116.5 26q50 0 88 -15.5t63.5 -43.5t38.5 -65.5t13 -80.5q0 -18 -2 -37t-7 -36h-385q-1 -5 -1.5 -13.5t-0.5 -15.5q0 -33 11.5 -58t30 -41t42 -24t47.5 -8q52 0 91 23.5
t65 63.5zM201 66q31 0 59.5 11t51 30.5t38.5 46t21 56.5q-12 9 -30 17q-16 6 -39.5 11.5t-56.5 5.5q-25 0 -49.5 -6t-43.5 -18.5t-31 -31.5t-12 -45q0 -19 8 -33.5t20.5 -24t29 -14.5t34.5 -5zM771 304v11q0 16 -5 35t-19 35t-38 26.5t-61 10.5q-57 0 -100 -32.5t-60 -85.5
h283z" />
    <glyph glyph-name="ccedilla" unicode="&#xe7;" horiz-adv-x="522" 
d="M188 -237q-34 0 -59.5 19.5t-31.5 47.5l56 23q2 -14 12.5 -24t26.5 -10q18 0 32 12t14 35q0 14 -9.5 24.5t-26.5 10.5q-11 0 -18.5 -4t-15.5 -12l-43 22l45 82q-38 8 -68.5 28t-52 49.5t-33 66t-11.5 77.5q0 64 23 118.5t62.5 94t93 61.5t114.5 22q45 0 79 -12.5
t58.5 -32.5t39.5 -45.5t22 -50.5l-86 -33q-12 42 -42.5 66t-81.5 24q-40 0 -74.5 -15.5t-59.5 -43t-39.5 -65t-14.5 -81.5q0 -30 9 -57.5t26 -47.5t43 -32t59 -12q47 0 84.5 25t63.5 68l74 -35q-23 -36 -46.5 -63t-52 -44.5t-62 -26t-75.5 -8.5l-19 -32q4 1 8 1.5t12 0.5
q35 0 55.5 -24.5t20.5 -63.5q0 -45 -30 -74t-81 -29z" />
    <glyph glyph-name="egrave" unicode="&#xe8;" horiz-adv-x="536" 
d="M459 116q-39 -65 -100 -98.5t-131 -33.5q-54 0 -95.5 18t-70 48.5t-43 71t-14.5 86.5q0 57 19.5 110.5t56.5 95.5t89.5 67t117.5 25q51 0 90 -16t65 -44t39 -65t13 -80q0 -18 -2 -38t-7 -35h-386q-1 -10 -1 -16v-13q0 -33 11.5 -58t30.5 -41t43 -24t49 -8q50 0 89.5 24
t65.5 64zM402 304v11q0 21 -7.5 40.5t-23 34t-38.5 23.5t-54 9q-60 0 -102.5 -32.5t-59.5 -85.5h285zM272 588l-49 128h98l29 -128h-78z" />
    <glyph glyph-name="eacute" unicode="&#xe9;" horiz-adv-x="536" 
d="M459 116q-39 -65 -100 -98.5t-131 -33.5q-54 0 -95.5 18t-70 48.5t-43 71t-14.5 86.5q0 57 19.5 110.5t56.5 95.5t89.5 67t117.5 25q51 0 90 -16t65 -44t39 -65t13 -80q0 -18 -2 -38t-7 -35h-386q-1 -10 -1 -16v-13q0 -33 11.5 -58t30.5 -41t43 -24t49 -8q50 0 89.5 24
t65.5 64zM402 304v11q0 21 -7.5 40.5t-23 34t-38.5 23.5t-54 9q-60 0 -102.5 -32.5t-59.5 -85.5h285zM256 588l75 128h102l-95 -128h-82z" />
    <glyph glyph-name="ecircumflex" unicode="&#xea;" horiz-adv-x="536" 
d="M459 116q-39 -65 -100 -98.5t-131 -33.5q-54 0 -95.5 18t-70 48.5t-43 71t-14.5 86.5q0 57 19.5 110.5t56.5 95.5t89.5 67t117.5 25q51 0 90 -16t65 -44t39 -65t13 -80q0 -18 -2 -38t-7 -35h-386q-1 -10 -1 -16v-13q0 -33 11.5 -58t30.5 -41t43 -24t49 -8q50 0 89.5 24
t65.5 64zM402 304v11q0 21 -7.5 40.5t-23 34t-38.5 23.5t-54 9q-60 0 -102.5 -32.5t-59.5 -85.5h285zM169 590l124 117h80l82 -117l-1 -5h-83l-41 60h-8l-59 -60h-95z" />
    <glyph glyph-name="edieresis" unicode="&#xeb;" horiz-adv-x="536" 
d="M459 116q-39 -65 -100 -98.5t-131 -33.5q-54 0 -95.5 18t-70 48.5t-43 71t-14.5 86.5q0 57 19.5 110.5t56.5 95.5t89.5 67t117.5 25q51 0 90 -16t65 -44t39 -65t13 -80q0 -18 -2 -38t-7 -35h-386q-1 -10 -1 -16v-13q0 -33 11.5 -58t30.5 -41t43 -24t49 -8q50 0 89.5 24
t65.5 64zM402 304v11q0 21 -7.5 40.5t-23 34t-38.5 23.5t-54 9q-60 0 -102.5 -32.5t-59.5 -85.5h285zM401 602q-23 0 -40 17t-17 40q0 25 17 41t40 16q25 0 41 -16t16 -41q0 -23 -16 -40t-41 -17zM233 602q-23 0 -40 17t-17 40q0 25 17 41t40 16q25 0 41 -16t16 -41
q0 -23 -16 -40t-41 -17z" />
    <glyph glyph-name="igrave" unicode="&#xec;" horiz-adv-x="220" 
d="M0 0l86 490h92l-86 -490h-92zM114 588l-49 128h98l29 -128h-78z" />
    <glyph glyph-name="iacute" unicode="&#xed;" horiz-adv-x="220" 
d="M0 0l86 490h92l-86 -490h-92zM105 588l75 128h102l-95 -128h-82z" />
    <glyph glyph-name="icircumflex" unicode="&#xee;" horiz-adv-x="220" 
d="M0 0l86 490h92l-86 -490h-92zM6 599l124 117h80l82 -117l-1 -5h-83l-41 60h-8l-59 -60h-95z" />
    <glyph glyph-name="idieresis" unicode="&#xef;" horiz-adv-x="220" 
d="M93 602q-23 0 -40 17t-17 40q0 25 17 41t40 16q25 0 41 -16t16 -41q0 -23 -16 -40t-41 -17zM229 602q-23 0 -40 17t-17 40q0 25 17 41t40 16q25 0 41 -16t16 -41q0 -23 -16 -40t-41 -17zM0 0l86 490h92l-86 -490h-92z" />
    <glyph glyph-name="eth" unicode="&#xf0;" horiz-adv-x="571" 
d="M421 426q-11 42 -29 74.5t-43 58.5l-130 -53l-26 63l94 38q-43 26 -98 40l31 77q48 -13 88 -33t73 -46l113 47l25 -62l-86 -36q45 -55 67 -124t22 -149q0 -64 -17 -124.5t-51.5 -108t-87 -76t-123.5 -28.5q-47 0 -88.5 16t-73 44.5t-49.5 68.5t-18 89q0 54 20.5 103.5
t56.5 87t86 59.5t109 22q45 0 77 -15t53 -36zM252 72q32 0 62 13.5t53 36.5t37 55t14 68q0 63 -33.5 103.5t-102.5 40.5q-38 0 -69.5 -14t-54.5 -39t-36 -58t-13 -72q0 -32 11.5 -56.5t31 -42t45.5 -26.5t55 -9z" />
    <glyph glyph-name="ntilde" unicode="&#xf1;" 
d="M155 422h4q25 36 68 60t98 24q72 0 115.5 -41t43.5 -110q0 -15 -1.5 -34t-5.5 -39l-50 -282h-92l52 294q4 20 4 40q0 45 -27.5 66.5t-73.5 21.5q-30 0 -56.5 -12t-47 -32.5t-34.5 -48t-19 -58.5l-48 -271h-92l86 490h88zM394 595q-18 0 -33.5 7t-29.5 16q-15 8 -30 15
t-33 7q-30 0 -39 -35h-76q8 60 39 89t75 29q18 0 34 -7t31 -15q14 -9 29 -16t32 -7q30 0 39 35h76q-8 -60 -39 -89t-75 -29z" />
    <glyph glyph-name="ograve" unicode="&#xf2;" horiz-adv-x="560" 
d="M298 506q51 0 93.5 -18.5t72.5 -50.5t46.5 -74.5t16.5 -90.5q0 -61 -22 -113.5t-61 -91.5t-93 -61t-117 -22q-51 0 -93.5 18.5t-72.5 50.5t-46.5 74.5t-16.5 90.5q0 61 22 113.5t61 91.5t93 61t117 22zM243 68q44 0 79.5 16.5t60 44t37.5 63t13 74.5q0 34 -11.5 62.5
t-31 49.5t-46 32.5t-55.5 11.5q-44 0 -79.5 -16.5t-60 -44t-37.5 -63t-13 -74.5q0 -34 11.5 -62.5t31 -49.5t46 -32.5t55.5 -11.5zM276 588l-49 128h98l29 -128h-78z" />
    <glyph glyph-name="oacute" unicode="&#xf3;" horiz-adv-x="560" 
d="M298 506q51 0 93.5 -18.5t72.5 -50.5t46.5 -74.5t16.5 -90.5q0 -61 -22 -113.5t-61 -91.5t-93 -61t-117 -22q-51 0 -93.5 18.5t-72.5 50.5t-46.5 74.5t-16.5 90.5q0 61 22 113.5t61 91.5t93 61t117 22zM243 68q44 0 79.5 16.5t60 44t37.5 63t13 74.5q0 34 -11.5 62.5
t-31 49.5t-46 32.5t-55.5 11.5q-44 0 -79.5 -16.5t-60 -44t-37.5 -63t-13 -74.5q0 -34 11.5 -62.5t31 -49.5t46 -32.5t55.5 -11.5zM272 588l75 128h102l-95 -128h-82z" />
    <glyph glyph-name="ocircumflex" unicode="&#xf4;" horiz-adv-x="560" 
d="M298 506q51 0 93.5 -18.5t72.5 -50.5t46.5 -74.5t16.5 -90.5q0 -61 -22 -113.5t-61 -91.5t-93 -61t-117 -22q-51 0 -93.5 18.5t-72.5 50.5t-46.5 74.5t-16.5 90.5q0 61 22 113.5t61 91.5t93 61t117 22zM243 68q44 0 79.5 16.5t60 44t37.5 63t13 74.5q0 34 -11.5 62.5
t-31 49.5t-46 32.5t-55.5 11.5q-44 0 -79.5 -16.5t-60 -44t-37.5 -63t-13 -74.5q0 -34 11.5 -62.5t31 -49.5t46 -32.5t55.5 -11.5zM175 599l124 117h80l82 -117l-1 -5h-83l-41 60h-8l-59 -60h-95z" />
    <glyph glyph-name="otilde" unicode="&#xf5;" horiz-adv-x="560" 
d="M298 506q51 0 93.5 -18.5t72.5 -50.5t46.5 -74.5t16.5 -90.5q0 -61 -22 -113.5t-61 -91.5t-93 -61t-117 -22q-51 0 -93.5 18.5t-72.5 50.5t-46.5 74.5t-16.5 90.5q0 61 22 113.5t61 91.5t93 61t117 22zM243 68q44 0 79.5 16.5t60 44t37.5 63t13 74.5q0 34 -11.5 62.5
t-31 49.5t-46 32.5t-55.5 11.5q-44 0 -79.5 -16.5t-60 -44t-37.5 -63t-13 -74.5q0 -34 11.5 -62.5t31 -49.5t46 -32.5t55.5 -11.5zM395 595q-18 0 -33.5 7t-29.5 16q-15 8 -30 15t-33 7q-30 0 -39 -35h-76q8 60 39 89t75 29q18 0 34 -7t31 -15q14 -9 29 -16t32 -7
q30 0 39 35h76q-8 -60 -39 -89t-75 -29z" />
    <glyph glyph-name="odieresis" unicode="&#xf6;" horiz-adv-x="560" 
d="M298 506q51 0 93.5 -18.5t72.5 -50.5t46.5 -74.5t16.5 -90.5q0 -61 -22 -113.5t-61 -91.5t-93 -61t-117 -22q-51 0 -93.5 18.5t-72.5 50.5t-46.5 74.5t-16.5 90.5q0 61 22 113.5t61 91.5t93 61t117 22zM243 68q44 0 79.5 16.5t60 44t37.5 63t13 74.5q0 34 -11.5 62.5
t-31 49.5t-46 32.5t-55.5 11.5q-44 0 -79.5 -16.5t-60 -44t-37.5 -63t-13 -74.5q0 -34 11.5 -62.5t31 -49.5t46 -32.5t55.5 -11.5zM415 602q-23 0 -40 17t-17 40q0 25 17 41t40 16q25 0 41 -16t16 -41q0 -23 -16 -40t-41 -17zM247 602q-23 0 -40 17t-17 40q0 25 17 41t40 16
q25 0 41 -16t16 -41q0 -23 -16 -40t-41 -17z" />
    <glyph glyph-name="divide" unicode="&#xf7;" horiz-adv-x="550" 
d="M33 233l14 76h438l-14 -76h-438zM227 20q-29 0 -48.5 19.5t-19.5 48.5t19.5 48.5t48.5 19.5t48.5 -19.5t19.5 -48.5t-19.5 -48.5t-48.5 -19.5zM291 386q-29 0 -48.5 19.5t-19.5 48.5t19.5 48.5t48.5 19.5t48.5 -19.5t19.5 -48.5t-19.5 -48.5t-48.5 -19.5z" />
    <glyph glyph-name="oslash" unicode="&#xf8;" horiz-adv-x="560" 
d="M298 506q67 0 120 -33l45 57l57 -44l-48 -59q26 -32 40.5 -71t14.5 -84q0 -61 -22 -113.5t-61 -91.5t-93 -61t-117 -22q-28 0 -52.5 5.5t-46.5 15.5l-34 -42l-58 43l32 40q-33 32 -51.5 76.5t-18.5 95.5q0 61 22 113.5t61 91.5t93 61t117 22zM99 224q0 -31 9 -57.5
t26 -46.5l226 282q-32 20 -71 20q-44 0 -79.5 -16.5t-60 -44t-37.5 -63t-13 -74.5zM243 68q44 0 79.5 16.5t60 44t37.5 63t13 74.5q0 23 -6 44.5t-16 39.5l-218 -273q22 -9 50 -9z" />
    <glyph glyph-name="ugrave" unicode="&#xf9;" 
d="M348 68h-4q-25 -36 -68 -60t-98 -24q-72 0 -115.5 41t-43.5 110q0 15 1.5 34t5.5 39l50 282h92l-52 -294q-4 -20 -4 -40q0 -45 27.5 -66.5t73.5 -21.5q30 0 56.5 12t47 32.5t34.5 48t19 58.5l48 271h92l-86 -490h-88zM278 588l-49 128h98l29 -128h-78z" />
    <glyph glyph-name="uacute" unicode="&#xfa;" 
d="M348 68h-4q-25 -36 -68 -60t-98 -24q-72 0 -115.5 41t-43.5 110q0 15 1.5 34t5.5 39l50 282h92l-52 -294q-4 -20 -4 -40q0 -45 27.5 -66.5t73.5 -21.5q30 0 56.5 12t47 32.5t34.5 48t19 58.5l48 271h92l-86 -490h-88zM259 588l75 128h102l-95 -128h-82z" />
    <glyph glyph-name="ucircumflex" unicode="&#xfb;" 
d="M348 68h-4q-25 -36 -68 -60t-98 -24q-72 0 -115.5 41t-43.5 110q0 15 1.5 34t5.5 39l50 282h92l-52 -294q-4 -20 -4 -40q0 -45 27.5 -66.5t73.5 -21.5q30 0 56.5 12t47 32.5t34.5 48t19 58.5l48 271h92l-86 -490h-88zM169 584l124 117h80l82 -117l-1 -5h-83l-41 60h-8
l-59 -60h-95z" />
    <glyph glyph-name="udieresis" unicode="&#xfc;" 
d="M348 68h-4q-25 -36 -68 -60t-98 -24q-72 0 -115.5 41t-43.5 110q0 15 1.5 34t5.5 39l50 282h92l-52 -294q-4 -20 -4 -40q0 -45 27.5 -66.5t73.5 -21.5q30 0 56.5 12t47 32.5t34.5 48t19 58.5l48 271h92l-86 -490h-88zM408 602q-23 0 -40 17t-17 40q0 25 17 41t40 16
q25 0 41 -16t16 -41q0 -23 -16 -40t-41 -17zM240 602q-23 0 -40 17t-17 40q0 25 17 41t40 16q25 0 41 -16t16 -41q0 -23 -16 -40t-41 -17z" />
    <glyph glyph-name="yacute" unicode="&#xfd;" horiz-adv-x="498" 
d="M246 588l75 128h102l-95 -128h-82zM5 -216l158 247l-121 459h97l86 -353h2l205 353h102l-432 -706h-97z" />
    <glyph glyph-name="thorn" unicode="&#xfe;" horiz-adv-x="576" 
d="M349 506q43 0 80 -16t64.5 -45.5t43 -72t15.5 -95.5q0 -57 -21.5 -109.5t-59.5 -93.5t-90 -65.5t-113 -24.5q-50 0 -90.5 24t-61.5 60h-4l-8 -68l-38 -216h-92l164 932h92l-40 -226l-16 -68h4q25 34 66.5 59t104.5 25zM275 68q38 0 71.5 15.5t58 43t39 64.5t14.5 80
q0 71 -34.5 111t-100.5 40q-39 0 -73 -17.5t-58.5 -46.5t-38.5 -66.5t-14 -77.5q0 -72 39 -109t97 -37z" />
    <glyph glyph-name="ydieresis" unicode="&#xff;" horiz-adv-x="498" 
d="M5 -216l158 247l-121 459h97l86 -353h2l205 353h102l-432 -706h-97zM385 602q-23 0 -40 17t-17 40q0 25 17 41t40 16q25 0 41 -16t16 -41q0 -23 -16 -40t-41 -17zM217 602q-23 0 -40 17t-17 40q0 25 17 41t40 16q25 0 41 -16t16 -41q0 -23 -16 -40t-41 -17z" />
    <glyph glyph-name="Amacron" unicode="&#x100;" horiz-adv-x="668" 
d="M345 716h104l143 -716h-99l-34 194h-301l-105 -194h-104zM442 280l-60 323h-4l-174 -323h238zM262 807l13 72h280l-13 -72h-280z" />
    <glyph glyph-name="amacron" unicode="&#x101;" horiz-adv-x="510" 
d="M287 506q95 0 143.5 -44t48.5 -119q0 -12 -1.5 -25.5t-3.5 -27.5l-52 -290h-88l12 68h-4q-24 -35 -66 -59.5t-94 -24.5q-36 0 -67 10.5t-53.5 30.5t-35.5 47.5t-13 62.5q0 42 18.5 76t50.5 57.5t75.5 36.5t94.5 13q41 0 72.5 -8.5t60.5 -21.5l4 21q2 8 2 20q0 43 -31 69
t-82 26q-39 0 -69.5 -15t-59.5 -50l-72 51q35 47 89.5 71.5t120.5 24.5zM201 66q31 0 59.5 11t51 30.5t38.5 46t21 56.5q-12 9 -30 17q-16 6 -39.5 11.5t-56.5 5.5q-25 0 -49.5 -6t-43.5 -19t-31 -32t-12 -44q0 -19 8 -33.5t20.5 -24t29 -14.5t34.5 -5zM167 623l13 72h280
l-13 -72h-280z" />
    <glyph glyph-name="Abreve" unicode="&#x102;" horiz-adv-x="668" 
d="M345 716h104l143 -716h-99l-34 194h-301l-105 -194h-104zM442 280l-60 323h-4l-174 -323h238zM405 770q-24 0 -44.5 8t-35.5 22t-24 33t-9 42q0 5 0.5 10.5t1.5 10.5h74q-1 -4 -1 -11q0 -19 11.5 -32.5t34.5 -13.5q25 0 42 15t22 42h73q-11 -65 -49.5 -95.5t-95.5 -30.5z
" />
    <glyph glyph-name="abreve" unicode="&#x103;" horiz-adv-x="510" 
d="M287 506q95 0 143.5 -44t48.5 -119q0 -12 -1.5 -25.5t-3.5 -27.5l-52 -290h-88l12 68h-4q-24 -35 -66 -59.5t-94 -24.5q-36 0 -67 10.5t-53.5 30.5t-35.5 47.5t-13 62.5q0 42 18.5 76t50.5 57.5t75.5 36.5t94.5 13q41 0 72.5 -8.5t60.5 -21.5l4 21q2 8 2 20q0 43 -31 69
t-82 26q-39 0 -69.5 -15t-59.5 -50l-72 51q35 47 89.5 71.5t120.5 24.5zM201 66q31 0 59.5 11t51 30.5t38.5 46t21 56.5q-12 9 -30 17q-16 6 -39.5 11.5t-56.5 5.5q-25 0 -49.5 -6t-43.5 -19t-31 -32t-12 -44q0 -19 8 -33.5t20.5 -24t29 -14.5t34.5 -5zM301 586
q-24 0 -44.5 8t-35.5 22t-24 33t-9 42q0 5 0.5 10.5t1.5 10.5h74q-1 -4 -1 -11q0 -19 11.5 -32.5t34.5 -13.5q25 0 42 15t22 42h73q-11 -65 -49.5 -95.5t-95.5 -30.5z" />
    <glyph glyph-name="Aogonek" unicode="&#x104;" horiz-adv-x="668" 
d="M520 -224q-46 0 -74.5 27t-28.5 65q0 41 18 70.5t58 61.5l-34 194h-301l-105 -194h-104l396 716h104l143 -716q-14 -8 -29.5 -20t-29 -27t-22.5 -32t-9 -33q0 -18 10.5 -27t26.5 -9q8 0 13.5 1t14.5 4l19 -67q-30 -14 -66 -14zM442 280l-60 323h-4l-174 -323h238z" />
    <glyph glyph-name="aogonek" unicode="&#x105;" horiz-adv-x="510" 
d="M349 -224q-46 0 -74.5 27t-28.5 65q0 41 22 75t65 57l12 68h-4q-24 -35 -66 -59.5t-94 -24.5q-36 0 -67 10.5t-53.5 30.5t-35.5 47.5t-13 62.5q0 42 18.5 76t50.5 57.5t75.5 36.5t94.5 13q41 0 72.5 -8.5t60.5 -21.5l4 21q2 8 2 20q0 43 -31 69t-82 26q-39 0 -69.5 -15
t-59.5 -50l-72 51q35 47 89.5 71.5t120.5 24.5q95 0 143.5 -44t48.5 -119q0 -12 -1.5 -25.5t-3.5 -27.5l-52 -290q-14 -8 -29.5 -20t-29 -27t-22.5 -32t-9 -33q0 -18 10.5 -27t26.5 -9q8 0 13.5 1t14.5 4l19 -67q-30 -14 -66 -14zM200 66q31 0 59.5 11t51 30.5t38.5 46
t21 56.5q-12 9 -30 17q-16 6 -39.5 11.5t-56.5 5.5q-25 0 -49.5 -6t-43.5 -19t-31 -32t-12 -44q0 -19 8 -33.5t20.5 -24t29 -14.5t34.5 -5z" />
    <glyph glyph-name="Cacute" unicode="&#x106;" horiz-adv-x="729" 
d="M652 111q-34 -32 -68 -56t-70.5 -40t-77.5 -23.5t-89 -7.5q-69 0 -127 23t-100 65t-65.5 101t-23.5 132q0 83 32.5 160t90.5 136.5t137.5 95t173.5 35.5q42 0 79 -9.5t68.5 -25.5t56.5 -38t41 -47l-74 -61q-33 48 -76 70.5t-105 22.5q-69 0 -129.5 -28t-105 -74.5
t-70 -106.5t-25.5 -125q0 -54 17.5 -98t49 -75t74 -48t92.5 -17q75 0 130 28.5t105 77.5zM421 772l75 128h102l-95 -128h-82z" />
    <glyph glyph-name="cacute" unicode="&#x107;" horiz-adv-x="522" 
d="M218 -16q-48 0 -87.5 17.5t-67 48t-43 72t-15.5 88.5q0 64 23 118.5t62.5 94t93 61.5t114.5 22q45 0 79 -12.5t58.5 -32.5t39.5 -45.5t22 -50.5l-86 -33q-12 42 -42.5 66t-81.5 24q-40 0 -74.5 -15.5t-59.5 -43t-39.5 -65t-14.5 -81.5q0 -30 9 -57.5t26 -47.5t43 -32
t59 -12q47 0 84.5 25t63.5 68l74 -35q-23 -36 -46.5 -63t-52 -44.5t-63 -26t-78.5 -8.5zM263 588l75 128h102l-95 -128h-82z" />
    <glyph glyph-name="Ccircumflex" unicode="&#x108;" horiz-adv-x="729" 
d="M652 111q-34 -32 -68 -56t-70.5 -40t-77.5 -23.5t-89 -7.5q-69 0 -127 23t-100 65t-65.5 101t-23.5 132q0 83 32.5 160t90.5 136.5t137.5 95t173.5 35.5q42 0 79 -9.5t68.5 -25.5t56.5 -38t41 -47l-74 -61q-33 48 -76 70.5t-105 22.5q-69 0 -129.5 -28t-105 -74.5
t-70 -106.5t-25.5 -125q0 -54 17.5 -98t49 -75t74 -48t92.5 -17q75 0 130 28.5t105 77.5zM320 784l124 117h80l82 -117l-1 -5h-83l-41 60h-8l-59 -60h-95z" />
    <glyph glyph-name="ccircumflex" unicode="&#x109;" horiz-adv-x="522" 
d="M218 -16q-48 0 -87.5 17.5t-67 48t-43 72t-15.5 88.5q0 64 23 118.5t62.5 94t93 61.5t114.5 22q45 0 79 -12.5t58.5 -32.5t39.5 -45.5t22 -50.5l-86 -33q-12 42 -42.5 66t-81.5 24q-40 0 -74.5 -15.5t-59.5 -43t-39.5 -65t-14.5 -81.5q0 -30 9 -57.5t26 -47.5t43 -32
t59 -12q47 0 84.5 25t63.5 68l74 -35q-23 -36 -46.5 -63t-52 -44.5t-63 -26t-78.5 -8.5zM170 599l124 117h80l82 -117l-1 -5h-83l-41 60h-8l-59 -60h-95z" />
    <glyph glyph-name="Cdotaccent" unicode="&#x10a;" horiz-adv-x="729" 
d="M652 111q-34 -32 -68 -56t-70.5 -40t-77.5 -23.5t-89 -7.5q-69 0 -127 23t-100 65t-65.5 101t-23.5 132q0 83 32.5 160t90.5 136.5t137.5 95t173.5 35.5q42 0 79 -9.5t68.5 -25.5t56.5 -38t41 -47l-74 -61q-33 48 -76 70.5t-105 22.5q-69 0 -129.5 -28t-105 -74.5
t-70 -106.5t-25.5 -125q0 -54 17.5 -98t49 -75t74 -48t92.5 -17q75 0 130 28.5t105 77.5zM482 804q-20 0 -36 16t-16 36q0 23 16 37.5t36 14.5q23 0 37.5 -14.5t14.5 -37.5q0 -20 -14.5 -36t-37.5 -16z" />
    <glyph glyph-name="cdotaccent" unicode="&#x10b;" horiz-adv-x="522" 
d="M218 -16q-48 0 -87.5 17.5t-67 48t-43 72t-15.5 88.5q0 64 23 118.5t62.5 94t93 61.5t114.5 22q45 0 79 -12.5t58.5 -32.5t39.5 -45.5t22 -50.5l-86 -33q-12 42 -42.5 66t-81.5 24q-40 0 -74.5 -15.5t-59.5 -43t-39.5 -65t-14.5 -81.5q0 -30 9 -57.5t26 -47.5t43 -32
t59 -12q47 0 84.5 25t63.5 68l74 -35q-23 -36 -46.5 -63t-52 -44.5t-63 -26t-78.5 -8.5zM326 602q-23 0 -40 17t-17 40q0 25 17 41t40 16q25 0 41 -16t16 -41q0 -23 -16 -40t-41 -17z" />
    <glyph glyph-name="Ccaron" unicode="&#x10c;" horiz-adv-x="729" 
d="M652 111q-34 -32 -68 -56t-70.5 -40t-77.5 -23.5t-89 -7.5q-69 0 -127 23t-100 65t-65.5 101t-23.5 132q0 83 32.5 160t90.5 136.5t137.5 95t173.5 35.5q42 0 79 -9.5t68.5 -25.5t56.5 -38t41 -47l-74 -61q-33 48 -76 70.5t-105 22.5q-69 0 -129.5 -28t-105 -74.5
t-70 -106.5t-25.5 -125q0 -54 17.5 -98t49 -75t74 -48t92.5 -17q75 0 130 28.5t105 77.5zM620 895l-124 -117h-80l-82 117l1 5h83l41 -60h8l59 60h95z" />
    <glyph glyph-name="ccaron" unicode="&#x10d;" horiz-adv-x="522" 
d="M218 -16q-48 0 -87.5 17.5t-67 48t-43 72t-15.5 88.5q0 64 23 118.5t62.5 94t93 61.5t114.5 22q45 0 79 -12.5t58.5 -32.5t39.5 -45.5t22 -50.5l-86 -33q-12 42 -42.5 66t-81.5 24q-40 0 -74.5 -15.5t-59.5 -43t-39.5 -65t-14.5 -81.5q0 -30 9 -57.5t26 -47.5t43 -32
t59 -12q47 0 84.5 25t63.5 68l74 -35q-23 -36 -46.5 -63t-52 -44.5t-63 -26t-78.5 -8.5zM483 711l-124 -117h-80l-82 117l1 5h83l41 -60h8l59 60h95z" />
    <glyph glyph-name="Dcaron" unicode="&#x10e;" horiz-adv-x="691" 
d="M135 716h219q75 0 132.5 -24t96 -65.5t58.5 -98t20 -121.5q0 -80 -28.5 -153.5t-82.5 -130t-133 -90t-179 -33.5h-230zM243 88q69 0 128 24t102.5 66.5t68 99.5t24.5 123q0 111 -60 169t-168 58h-127l-95 -540h127zM525 895l-124 -117h-80l-82 117l1 5h83l41 -60h8l59 60
h95z" />
    <glyph glyph-name="dcaron" unicode="&#x10f;" horiz-adv-x="660" 
d="M208 -16q-43 0 -80 16t-64.5 45.5t-43 72t-15.5 95.5q0 57 21.5 109.5t59.5 93.5t90 65.5t113 24.5q50 0 90.5 -24t61.5 -60h4l8 68l40 226h92l-126 -716h-88l12 68h-4q-25 -34 -66.5 -59t-104.5 -25zM282 422q-38 0 -71.5 -15.5t-58.5 -43t-39 -64.5t-14 -80
q0 -71 34.5 -111t100.5 -40q39 0 73 17.5t58.5 46.5t38.5 66.5t14 77.5q0 72 -39 109t-97 37zM610 506l37 210h100l-73 -210h-64z" />
    <glyph glyph-name="Dcroat" unicode="&#x110;" horiz-adv-x="691" 
d="M67 336h-78l11 72h80l55 308h219q75 0 132.5 -24t96 -65.5t58.5 -98t20 -121.5q0 -80 -28.5 -153.5t-82.5 -130t-133 -90t-179 -33.5h-230zM243 88q69 0 128 24t102.5 66.5t68 99.5t24.5 123q0 111 -60 169t-168 58h-127l-39 -220h180l-12 -72h-181l-43 -248h127z" />
    <glyph glyph-name="dcroat" unicode="&#x111;" horiz-adv-x="576" 
d="M208 -16q-43 0 -80 16t-64.5 45.5t-43 72t-15.5 95.5q0 57 21.5 109.5t59.5 93.5t90 65.5t113 24.5q50 0 90.5 -24t61.5 -60h4l8 68l14 82h-146l13 72h146l13 72h92l-13 -72h62l-13 -72h-61l-101 -572h-88l12 68h-4q-25 -34 -66.5 -59t-104.5 -25zM282 422
q-38 0 -71.5 -15.5t-58.5 -43t-39 -64.5t-14 -80q0 -71 34.5 -111t100.5 -40q39 0 73 17.5t58.5 46.5t38.5 66.5t14 77.5q0 72 -39 109t-97 37z" />
    <glyph glyph-name="Emacron" unicode="&#x112;" 
d="M211 628l-40 -227h294l-15 -86h-294l-40 -227h326l-16 -88h-418l127 716h418l-16 -88h-326zM211 807l13 72h280l-13 -72h-280z" />
    <glyph glyph-name="emacron" unicode="&#x113;" horiz-adv-x="536" 
d="M459 116q-39 -65 -100 -98.5t-131 -33.5q-54 0 -95.5 18t-70 48.5t-43 71t-14.5 86.5q0 57 19.5 110.5t56.5 95.5t89.5 67t117.5 25q51 0 90 -16t65 -44t39 -65t13 -80q0 -18 -2 -38t-7 -35h-386q-1 -10 -1 -16v-13q0 -33 11.5 -58t30.5 -41t43 -24t49 -8q50 0 89.5 24
t65.5 64zM402 304v11q0 21 -7.5 40.5t-23 34t-38.5 23.5t-54 9q-60 0 -102.5 -32.5t-59.5 -85.5h285zM178 623l13 72h280l-13 -72h-280z" />
    <glyph glyph-name="Ebreve" unicode="&#x114;" 
d="M211 628l-40 -227h294l-15 -86h-294l-40 -227h326l-16 -88h-418l127 716h418l-16 -88h-326zM344 770q-24 0 -44.5 8t-35.5 22t-24 33t-9 42q0 5 0.5 10.5t1.5 10.5h74q-1 -4 -1 -11q0 -19 11.5 -32.5t34.5 -13.5q25 0 42 15t22 42h73q-11 -65 -49.5 -95.5t-95.5 -30.5z
" />
    <glyph glyph-name="ebreve" unicode="&#x115;" horiz-adv-x="536" 
d="M459 116q-39 -65 -100 -98.5t-131 -33.5q-54 0 -95.5 18t-70 48.5t-43 71t-14.5 86.5q0 57 19.5 110.5t56.5 95.5t89.5 67t117.5 25q51 0 90 -16t65 -44t39 -65t13 -80q0 -18 -2 -38t-7 -35h-386q-1 -10 -1 -16v-13q0 -33 11.5 -58t30.5 -41t43 -24t49 -8q50 0 89.5 24
t65.5 64zM402 304v11q0 21 -7.5 40.5t-23 34t-38.5 23.5t-54 9q-60 0 -102.5 -32.5t-59.5 -85.5h285zM315 586q-24 0 -44.5 8t-35.5 22t-24 33t-9 42q0 5 0.5 10.5t1.5 10.5h74q-1 -4 -1 -11q0 -19 11.5 -32.5t34.5 -13.5q25 0 42 15t22 42h73q-11 -65 -49.5 -95.5
t-95.5 -30.5z" />
    <glyph glyph-name="Edotaccent" unicode="&#x116;" 
d="M211 628l-40 -227h294l-15 -86h-294l-40 -227h326l-16 -88h-418l127 716h418l-16 -88h-326zM372 804q-20 0 -36 16t-16 36q0 23 16 37.5t36 14.5q23 0 37.5 -14.5t14.5 -37.5q0 -20 -14.5 -36t-37.5 -16z" />
    <glyph glyph-name="edotaccent" unicode="&#x117;" horiz-adv-x="536" 
d="M459 116q-39 -65 -100 -98.5t-131 -33.5q-54 0 -95.5 18t-70 48.5t-43 71t-14.5 86.5q0 57 19.5 110.5t56.5 95.5t89.5 67t117.5 25q51 0 90 -16t65 -44t39 -65t13 -80q0 -18 -2 -38t-7 -35h-386q-1 -10 -1 -16v-13q0 -33 11.5 -58t30.5 -41t43 -24t49 -8q50 0 89.5 24
t65.5 64zM402 304v11q0 21 -7.5 40.5t-23 34t-38.5 23.5t-54 9q-60 0 -102.5 -32.5t-59.5 -85.5h285zM325 602q-23 0 -40 17t-17 40q0 25 17 41t40 16q25 0 41 -16t16 -41q0 -23 -16 -40t-41 -17z" />
    <glyph glyph-name="Eogonek" unicode="&#x118;" 
d="M354 -224q-46 0 -74.5 27t-28.5 65q0 41 21.5 73.5t61.5 58.5h-326l127 716h418l-16 -88h-326l-40 -227h294l-15 -86h-294l-40 -227h326l-16 -88q-14 -8 -29.5 -20t-29 -27t-22.5 -32t-9 -33q0 -18 10.5 -27t26.5 -9q8 0 13.5 1t14.5 4l19 -67q-30 -14 -66 -14z" />
    <glyph glyph-name="eogonek" unicode="&#x119;" horiz-adv-x="536" 
d="M253 -224q-46 0 -74.5 27t-28.5 65q0 68 60 116q-49 3 -87 21.5t-64.5 49t-40 70t-13.5 83.5q0 57 21.5 110.5t59.5 95.5t90.5 67t115.5 25q50 0 88 -15.5t63.5 -43.5t38.5 -65.5t13 -80.5q0 -18 -2 -37.5t-7 -35.5h-386q-1 -7 -1 -14v-15q0 -33 11.5 -58t30.5 -41
t42 -24t47 -8q53 0 92.5 24t65.5 64l71 -40q-23 -38 -53.5 -65t-68.5 -44q-21 -9 -39.5 -23t-32.5 -29.5t-22 -33t-8 -33.5q0 -18 10.5 -27t26.5 -9q8 0 13.5 1t14.5 4l19 -67q-30 -14 -66 -14zM402 304v11q0 16 -5 35t-19 35t-38 26.5t-61 10.5q-57 0 -100 -32.5t-60 -85.5
h283z" />
    <glyph glyph-name="Ecaron" unicode="&#x11a;" 
d="M211 628l-40 -227h294l-15 -86h-294l-40 -227h326l-16 -88h-418l127 716h418l-16 -88h-326zM510 895l-124 -117h-80l-82 117l1 5h83l41 -60h8l59 60h95z" />
    <glyph glyph-name="ecaron" unicode="&#x11b;" horiz-adv-x="536" 
d="M459 116q-39 -65 -100 -98.5t-131 -33.5q-54 0 -95.5 18t-70 48.5t-43 71t-14.5 86.5q0 57 19.5 110.5t56.5 95.5t89.5 67t117.5 25q51 0 90 -16t65 -44t39 -65t13 -80q0 -18 -2 -38t-7 -35h-386q-1 -10 -1 -16v-13q0 -33 11.5 -58t30.5 -41t43 -24t49 -8q50 0 89.5 24
t65.5 64zM402 304v11q0 21 -7.5 40.5t-23 34t-38.5 23.5t-54 9q-60 0 -102.5 -32.5t-59.5 -85.5h285zM473 711l-124 -117h-80l-82 117l1 5h83l41 -60h8l59 60h95z" />
    <glyph glyph-name="Gcircumflex" unicode="&#x11c;" horiz-adv-x="801" 
d="M413 383h347q0 -13 -1.5 -25.5t-3.5 -28.5q-12 -74 -40.5 -130t-70.5 -100q-110 -115 -292 -115q-62 0 -120 22.5t-102.5 65t-71.5 103.5t-27 138q0 84 31.5 160t89 133.5t138 91.5t179.5 34q39 0 76 -8t69 -22t58 -34.5t43 -45.5l-75 -63q-25 40 -75.5 62.5t-110.5 22.5
q-69 0 -129 -25t-104.5 -69t-69.5 -104t-25 -130q0 -59 19.5 -104.5t52.5 -76.5t76 -47t90 -16q66 0 119.5 22.5t93.5 64.5q52 54 75 138h-254zM322 784l124 117h80l82 -117l-1 -5h-83l-41 60h-8l-59 -60h-95z" />
    <glyph glyph-name="gcircumflex" unicode="&#x11d;" horiz-adv-x="576" 
d="M195 -232q-46 0 -81.5 14t-60 35.5t-39.5 47t-20 48.5l89 34q7 -41 38 -68t83 -27q77 0 126 45.5t63 123.5l8 47h-4q-23 -37 -67 -60.5t-104 -23.5q-42 0 -78.5 15.5t-64 45t-43.5 72.5t-16 99q0 51 19.5 103t56 93.5t88.5 67.5t118 26q57 0 96.5 -25.5t57.5 -58.5h4
l12 68h88l-87 -490q-11 -62 -38 -106t-64.5 -72t-84 -41t-95.5 -13zM250 68q39 0 73 17t59 46.5t39.5 68t14.5 82.5q0 34 -10.5 60t-28 44t-41.5 27t-51 9q-45 0 -80 -18t-59 -47.5t-36.5 -66.5t-12.5 -75q0 -72 38 -109.5t95 -37.5zM174 599l124 117h80l82 -117l-1 -5h-83
l-41 60h-8l-59 -60h-95z" />
    <glyph glyph-name="Gbreve" unicode="&#x11e;" horiz-adv-x="801" 
d="M413 383h347q0 -13 -1.5 -25.5t-3.5 -28.5q-12 -74 -40.5 -130t-70.5 -100q-110 -115 -292 -115q-62 0 -120 22.5t-102.5 65t-71.5 103.5t-27 138q0 84 31.5 160t89 133.5t138 91.5t179.5 34q39 0 76 -8t69 -22t58 -34.5t43 -45.5l-75 -63q-25 40 -75.5 62.5t-110.5 22.5
q-69 0 -129 -25t-104.5 -69t-69.5 -104t-25 -130q0 -59 19.5 -104.5t52.5 -76.5t76 -47t90 -16q66 0 119.5 22.5t93.5 64.5q52 54 75 138h-254zM470 770q-24 0 -44.5 8t-35.5 22t-24 33t-9 42q0 5 0.5 10.5t1.5 10.5h74q-1 -4 -1 -11q0 -19 11.5 -32.5t34.5 -13.5
q25 0 42 15t22 42h73q-11 -65 -49.5 -95.5t-95.5 -30.5z" />
    <glyph glyph-name="gbreve" unicode="&#x11f;" horiz-adv-x="576" 
d="M195 -232q-46 0 -81.5 14t-60 35.5t-39.5 47t-20 48.5l89 34q7 -41 38 -68t83 -27q77 0 126 45.5t63 123.5l8 47h-4q-23 -37 -67 -60.5t-104 -23.5q-42 0 -78.5 15.5t-64 45t-43.5 72.5t-16 99q0 51 19.5 103t56 93.5t88.5 67.5t118 26q57 0 96.5 -25.5t57.5 -58.5h4
l12 68h88l-87 -490q-11 -62 -38 -106t-64.5 -72t-84 -41t-95.5 -13zM250 68q39 0 73 17t59 46.5t39.5 68t14.5 82.5q0 34 -10.5 60t-28 44t-41.5 27t-51 9q-45 0 -80 -18t-59 -47.5t-36.5 -66.5t-12.5 -75q0 -72 38 -109.5t95 -37.5zM334 586q-24 0 -44.5 8t-35.5 22t-24 33
t-9 42q0 5 0.5 10.5t1.5 10.5h74q-1 -4 -1 -11q0 -19 11.5 -32.5t34.5 -13.5q25 0 42 15t22 42h73q-11 -65 -49.5 -95.5t-95.5 -30.5z" />
    <glyph glyph-name="Gdotaccent" unicode="&#x120;" horiz-adv-x="801" 
d="M413 383h347q0 -13 -1.5 -25.5t-3.5 -28.5q-12 -74 -40.5 -130t-70.5 -100q-110 -115 -292 -115q-62 0 -120 22.5t-102.5 65t-71.5 103.5t-27 138q0 84 31.5 160t89 133.5t138 91.5t179.5 34q39 0 76 -8t69 -22t58 -34.5t43 -45.5l-75 -63q-25 40 -75.5 62.5t-110.5 22.5
q-69 0 -129 -25t-104.5 -69t-69.5 -104t-25 -130q0 -59 19.5 -104.5t52.5 -76.5t76 -47t90 -16q66 0 119.5 22.5t93.5 64.5q52 54 75 138h-254zM486 804q-20 0 -36 16t-16 36q0 23 16 37.5t36 14.5q23 0 37.5 -14.5t14.5 -37.5q0 -20 -14.5 -36t-37.5 -16z" />
    <glyph glyph-name="gdotaccent" unicode="&#x121;" horiz-adv-x="576" 
d="M195 -232q-46 0 -81.5 14t-60 35.5t-39.5 47t-20 48.5l89 34q7 -41 38 -68t83 -27q77 0 126 45.5t63 123.5l8 47h-4q-23 -37 -67 -60.5t-104 -23.5q-42 0 -78.5 15.5t-64 45t-43.5 72.5t-16 99q0 51 19.5 103t56 93.5t88.5 67.5t118 26q57 0 96.5 -25.5t57.5 -58.5h4
l12 68h88l-87 -490q-11 -62 -38 -106t-64.5 -72t-84 -41t-95.5 -13zM250 68q39 0 73 17t59 46.5t39.5 68t14.5 82.5q0 34 -10.5 60t-28 44t-41.5 27t-51 9q-45 0 -80 -18t-59 -47.5t-36.5 -66.5t-12.5 -75q0 -72 38 -109.5t95 -37.5zM337 602q-23 0 -40 17t-17 40
q0 25 17 41t40 16q25 0 41 -16t16 -41q0 -23 -16 -40t-41 -17z" />
    <glyph glyph-name="uni0122" unicode="&#x122;" horiz-adv-x="801" 
d="M413 383h347q0 -13 -1.5 -25.5t-3.5 -28.5q-12 -74 -40.5 -130t-70.5 -100q-110 -115 -292 -115q-62 0 -120 22.5t-102.5 65t-71.5 103.5t-27 138q0 84 31.5 160t89 133.5t138 91.5t179.5 34q39 0 76 -8t69 -22t58 -34.5t43 -45.5l-75 -63q-25 40 -75.5 62.5t-110.5 22.5
q-69 0 -129 -25t-104.5 -69t-69.5 -104t-25 -130q0 -59 19.5 -104.5t52.5 -76.5t76 -47t90 -16q66 0 119.5 22.5t93.5 64.5q52 54 75 138h-254zM288 -216l49 55q-20 4 -31.5 19.5t-11.5 35.5q0 21 16.5 39.5t42.5 18.5q28 0 44 -18t16 -43q0 -14 -4.5 -28t-13.5 -25l-70 -85
z" />
    <glyph glyph-name="uni0123" unicode="&#x123;" horiz-adv-x="576" 
d="M195 -232q-46 0 -81.5 14t-60 35.5t-39.5 47t-20 48.5l89 34q7 -41 38 -68t83 -27q77 0 126 45.5t63 123.5l8 47h-4q-23 -37 -67 -60.5t-104 -23.5q-42 0 -78.5 15.5t-64 45t-43.5 72.5t-16 99q0 51 19.5 103t56 93.5t88.5 67.5t118 26q57 0 96.5 -25.5t57.5 -58.5h4
l12 68h88l-87 -490q-11 -62 -38 -106t-64.5 -72t-84 -41t-95.5 -13zM250 68q39 0 73 17t59 46.5t39.5 68t14.5 82.5q0 34 -10.5 60t-28 44t-41.5 27t-51 9q-45 0 -80 -18t-59 -47.5t-36.5 -66.5t-12.5 -75q0 -72 38 -109.5t95 -37.5zM403.009 739.974l-48.9941 -54.9932
q19.998 -4 31.4961 -19.498q11.499 -15.498 11.499 -35.4951q0 -20.998 -16.498 -39.4951q-16.498 -18.498 -42.4951 -18.498q-27.9961 0 -43.9941 17.998t-15.998 42.9941q0 13.999 4.49902 27.9971q4.5 13.998 13.498 24.9971l69.9922 84.9893z" />
    <glyph glyph-name="Hcircumflex" unicode="&#x124;" horiz-adv-x="686" 
d="M135 716h92l-55 -307h358l55 307h92l-127 -716h-92l57 323h-358l-57 -323h-92zM267 783l124 117h80l82 -117l-1 -5h-83l-41 60h-8l-59 -60h-95z" />
    <glyph glyph-name="hcircumflex" unicode="&#x125;" 
d="M171 490l-16 -68h4q27 36 72 60t98 24q41 0 71 -11.5t49 -31.5t28 -46.5t9 -56.5q0 -12 -1.5 -26.5t-5.5 -37.5l-53 -296h-92l52 294q2 10 3 19.5t1 17.5q0 45 -26.5 68t-71.5 23q-31 0 -58 -13t-48 -34.5t-35.5 -49.5t-19.5 -58l-46 -267h-92l126 716h92zM180 783
l124 117h80l82 -117l-1 -5h-83l-41 60h-8l-59 -60h-95z" />
    <glyph glyph-name="Hbar" unicode="&#x126;" horiz-adv-x="686" 
d="M98 506h-64l12 72h64l25 138h92l-25 -138h358l25 138h92l-25 -138h64l-12 -72h-64l-90 -506h-92l57 323h-358l-57 -323h-92zM530 409l17 97h-358l-17 -97h358z" />
    <glyph glyph-name="hbar" unicode="&#x127;" 
d="M198 644h144l-13 -72h-144l-14 -82l-16 -68h4q27 36 72 60t98 24q41 0 71 -11.5t49 -31.5t28 -46.5t9 -56.5q0 -12 -1.5 -26.5t-5.5 -37.5l-53 -296h-92l52 294q2 10 3 19.5t1 17.5q0 45 -26.5 68t-71.5 23q-31 0 -58 -13t-48 -34.5t-35.5 -49.5t-19.5 -58l-47 -267h-91
l100 572h-64l13 72h64l13 72h92z" />
    <glyph glyph-name="Itilde" unicode="&#x128;" horiz-adv-x="236" 
d="M135 716h92l-127 -716h-92zM253 778q-18 0 -33.5 7t-29.5 16q-15 8 -30 15t-33 7q-30 0 -39 -35h-76q8 60 39 89t75 29q18 0 34 -7t31 -15q14 -9 29 -16t32 -7q30 0 39 35h76q-8 -60 -39 -89t-75 -29z" />
    <glyph glyph-name="itilde" unicode="&#x129;" horiz-adv-x="220" 
d="M0 0l86 490h92l-86 -490h-92zM226 594q-18 0 -33.5 7t-29.5 16q-15 8 -30 15t-33 7q-30 0 -39 -35h-76q8 60 39 89t75 29q18 0 34 -7t31 -15q14 -9 29 -16t32 -7q30 0 39 35h76q-8 -60 -39 -89t-75 -29z" />
    <glyph glyph-name="Imacron" unicode="&#x12a;" horiz-adv-x="236" 
d="M69 807l13 72h248l-13 -72h-248zM135 716h92l-127 -716h-92z" />
    <glyph glyph-name="imacron" unicode="&#x12b;" horiz-adv-x="220" 
d="M0 0l86 490h92l-86 -490h-92zM17 623l13 72h280l-13 -72h-280z" />
    <glyph glyph-name="Ibreve" unicode="&#x12c;" horiz-adv-x="236" 
d="M135 716h92l-127 -716h-92zM189 770q-24 0 -44.5 8t-35.5 22t-24 33t-9 42q0 5 0.5 10.5t1.5 10.5h74q-1 -4 -1 -11q0 -19 11.5 -32.5t34.5 -13.5q25 0 42 15t22 42h73q-11 -65 -49.5 -95.5t-95.5 -30.5z" />
    <glyph glyph-name="ibreve" unicode="&#x12d;" horiz-adv-x="220" 
d="M0 0l86 490h92l-86 -490h-92zM156 586q-24 0 -44.5 8t-35.5 22t-24 33t-9 42q0 5 0.5 10.5t1.5 10.5h74q-1 -4 -1 -11q0 -19 11.5 -32.5t34.5 -13.5q25 0 42 15t22 42h73q-11 -65 -49.5 -95.5t-95.5 -30.5z" />
    <glyph glyph-name="Iogonek" unicode="&#x12e;" horiz-adv-x="236" 
d="M28 -224q-46 0 -74.5 27t-28.5 65q0 41 21.5 73.5t61.5 58.5l127 716h92l-127 -716q-14 -8 -29.5 -20t-29 -27t-22.5 -32t-9 -33q0 -18 10.5 -27t26.5 -9q8 0 13.5 1t14.5 4l19 -67q-30 -14 -66 -14z" />
    <glyph glyph-name="iogonek" unicode="&#x12f;" horiz-adv-x="220" 
d="M20 -224q-46 0 -74.5 27t-28.5 65q0 41 21.5 73.5t61.5 58.5l86 490h92l-86 -490q-14 -8 -29.5 -20t-29 -27t-22.5 -32t-9 -33q0 -18 10.5 -27t26.5 -9q8 0 13.5 1t14.5 4l19 -67q-30 -14 -66 -14zM162 594q-27 0 -46 19t-19 46t19 46t46 19t46 -19t19 -46t-19 -46
t-46 -19z" />
    <glyph glyph-name="Idotaccent" unicode="&#x130;" horiz-adv-x="236" 
d="M135 716h92l-127 -716h-92zM204 804q-20 0 -36 16t-16 36q0 23 16 37.5t36 14.5q23 0 37.5 -14.5t14.5 -37.5q0 -20 -14.5 -36t-37.5 -16z" />
    <glyph glyph-name="dotlessi" unicode="&#x131;" horiz-adv-x="220" 
d="M0 0l86 490h92l-86 -490h-92z" />
    <glyph glyph-name="Jcircumflex" unicode="&#x134;" horiz-adv-x="524" 
d="M185 -16q-39 0 -73 11.5t-60 33.5t-42.5 52.5t-20.5 68.5l90 35q3 -32 13.5 -53.5t26.5 -34.5t36 -19t42 -6q29 0 54 11t45 30.5t33.5 45.5t18.5 55l88 502h92l-87 -494q-11 -62 -34.5 -106.5t-57.5 -74t-75.5 -43.5t-88.5 -14zM338 783l124 117h80l82 -117l-1 -5h-83
l-41 60h-8l-59 -60h-95z" />
    <glyph glyph-name="jcircumflex" unicode="&#x135;" horiz-adv-x="220" 
d="M-88 -226q-32 0 -55 10l35 80q12 -6 30 -6q52 0 64 65l100 567h92l-100 -568q-7 -41 -22 -69t-36.5 -45.5t-48.5 -25.5t-59 -8zM-2 599l124 117h80l82 -117l-1 -5h-83l-41 60h-8l-59 -60h-95z" />
    <glyph glyph-name="uni0136" unicode="&#x136;" horiz-adv-x="610" 
d="M664 712l-320 -307l213 -401l-1 -4h-109l-176 334l-134 -127l-37 -207h-92l127 716h92l-64 -366h4l376 366h122zM191 -216l49 55q-20 4 -31.5 19.5t-11.5 35.5q0 21 16.5 39.5t42.5 18.5q28 0 44 -18t16 -43q0 -14 -4.5 -28t-13.5 -25l-70 -85z" />
    <glyph glyph-name="uni0137" unicode="&#x137;" horiz-adv-x="475" 
d="M135 282l240 208h126l-1 -4l-225 -190l149 -292l-1 -4h-108l-114 233l-88 -75l-28 -158h-92l126 716h92zM121 -216l49 55q-20 4 -31.5 19.5t-11.5 35.5q0 21 16.5 39.5t42.5 18.5q28 0 44 -18t16 -43q0 -14 -4.5 -28t-13.5 -25l-70 -85z" />
    <glyph glyph-name="kgreenlandic" unicode="&#x138;" horiz-adv-x="475" 
d="M171 490l-39 -220h4l235 220h120l-1 -4l-256 -232l182 -250l-1 -4h-110l-173 246h-4l-44 -246h-91l86 490h92z" />
    <glyph glyph-name="Lacute" unicode="&#x139;" horiz-adv-x="498" 
d="M135 716h92l-111 -628h310l-16 -88h-402zM144 772l75 128h102l-95 -128h-82z" />
    <glyph glyph-name="lacute" unicode="&#x13a;" horiz-adv-x="204" 
d="M-7 0l126 716h92l-126 -716h-92zM128 772l75 128h102l-95 -128h-82z" />
    <glyph glyph-name="uni013B" unicode="&#x13b;" horiz-adv-x="498" 
d="M135 716h92l-111 -628h310l-16 -88h-402zM151 -216l49 55q-20 4 -31.5 19.5t-11.5 35.5q0 21 16.5 39.5t42.5 18.5q28 0 44 -18t16 -43q0 -14 -4.5 -28t-13.5 -25l-70 -85z" />
    <glyph glyph-name="uni013C" unicode="&#x13c;" horiz-adv-x="204" 
d="M-7 0l126 716h92l-126 -716h-92zM-48 -216l49 55q-20 4 -31.5 19.5t-11.5 35.5q0 21 16.5 39.5t42.5 18.5q28 0 44 -18t16 -43q0 -14 -4.5 -28t-13.5 -25l-70 -85z" />
    <glyph glyph-name="Lcaron" unicode="&#x13d;" horiz-adv-x="498" 
d="M135 716h92l-111 -628h310l-16 -88h-402zM362 506l37 210h100l-73 -210h-64z" />
    <glyph glyph-name="lcaron" unicode="&#x13e;" horiz-adv-x="308" 
d="M-7 0l126 716h92l-126 -716h-92zM258 506l37 210h100l-73 -210h-64z" />
    <glyph glyph-name="Ldot" unicode="&#x13f;" horiz-adv-x="498" 
d="M135 716h92l-111 -628h310l-16 -88h-402zM348 276q-29 0 -48.5 19.5t-19.5 48.5t19.5 48.5t48.5 19.5t48.5 -19.5t19.5 -48.5t-19.5 -48.5t-48.5 -19.5z" />
    <glyph glyph-name="Lslash" unicode="&#x141;" horiz-adv-x="574" 
d="M133 276l-69 -38l-37 67l123 69l61 342h92l-49 -278l133 75l37 -68l-188 -105l-44 -252h310l-16 -88h-402z" />
    <glyph glyph-name="lslash" unicode="&#x142;" horiz-adv-x="364" 
d="M69 0l50 286l-60 -38l-40 67l119 77l57 324h92l-46 -261l76 50l41 -68l-136 -88l-62 -349h-91z" />
    <glyph glyph-name="Nacute" unicode="&#x143;" horiz-adv-x="696" 
d="M135 716h105l256 -557h4l21 138l74 419h92l-127 -716h-88l-269 584h-4l-20 -138l-79 -446h-92zM370 772l75 128h102l-95 -128h-82z" />
    <glyph glyph-name="nacute" unicode="&#x144;" 
d="M155 422h4q25 36 68 60t98 24q72 0 115.5 -41t43.5 -110q0 -15 -1.5 -34t-5.5 -39l-50 -282h-92l52 294q4 20 4 40q0 45 -27.5 66.5t-73.5 21.5q-30 0 -56.5 -12t-47 -32.5t-34.5 -48t-19 -58.5l-48 -271h-92l86 490h88zM276 588l75 128h102l-95 -128h-82z" />
    <glyph glyph-name="uni0145" unicode="&#x145;" horiz-adv-x="696" 
d="M135 716h105l256 -557h4l21 138l74 419h92l-127 -716h-88l-269 584h-4l-20 -138l-79 -446h-92zM213 -216l49 55q-20 4 -31.5 19.5t-11.5 35.5q0 21 16.5 39.5t42.5 18.5q28 0 44 -18t16 -43q0 -14 -4.5 -28t-13.5 -25l-70 -85z" />
    <glyph glyph-name="uni0146" unicode="&#x146;" 
d="M155 422h4q25 36 68 60t98 24q72 0 115.5 -41t43.5 -110q0 -15 -1.5 -34t-5.5 -39l-50 -282h-92l52 294q4 20 4 40q0 45 -27.5 66.5t-73.5 21.5q-30 0 -56.5 -12t-47 -32.5t-34.5 -48t-19 -58.5l-48 -271h-92l86 490h88zM131 -216l49 55q-20 4 -31.5 19.5t-11.5 35.5
q0 21 16.5 39.5t42.5 18.5q28 0 44 -18t16 -43q0 -14 -4.5 -28t-13.5 -25l-70 -85z" />
    <glyph glyph-name="Ncaron" unicode="&#x147;" horiz-adv-x="696" 
d="M135 716h105l256 -557h4l21 138l74 419h92l-127 -716h-88l-269 584h-4l-20 -138l-79 -446h-92zM578 895l-124 -117h-80l-82 117l1 5h83l41 -60h8l59 60h95z" />
    <glyph glyph-name="ncaron" unicode="&#x148;" 
d="M155 422h4q25 36 68 60t98 24q72 0 115.5 -41t43.5 -110q0 -15 -1.5 -34t-5.5 -39l-50 -282h-92l52 294q4 20 4 40q0 45 -27.5 66.5t-73.5 21.5q-30 0 -56.5 -12t-47 -32.5t-34.5 -48t-19 -58.5l-48 -271h-92l86 490h88zM480 711l-124 -117h-80l-82 117l1 5h83l41 -60h8
l59 60h95z" />
    <glyph glyph-name="Eng" unicode="&#x14a;" horiz-adv-x="696" 
d="M135 716h105l256 -557h4l21 138l74 419h92l-141 -794q-7 -41 -22 -69t-36.5 -45.5t-48.5 -25.5t-59 -8t-55 10l35 80q12 -6 30 -6q52 0 64 65l15 81l-266 580h-4l-20 -138l-79 -446h-92z" />
    <glyph glyph-name="eng" unicode="&#x14b;" 
d="M155 422h4q25 36 68 60t98 24q72 0 115.5 -41t43.5 -110q0 -15 -1.5 -34t-5.5 -39l-64 -360q-7 -41 -22 -69t-36.5 -45.5t-48.5 -25.5t-59 -8t-55 10l35 80q12 -6 30 -6q52 0 64 65l66 371q4 20 4 40q0 45 -27.5 66.5t-73.5 21.5q-30 0 -56.5 -12t-47 -32.5t-34.5 -48
t-19 -58.5l-48 -271h-92l86 490h88z" />
    <glyph glyph-name="Omacron" unicode="&#x14c;" horiz-adv-x="810" 
d="M358 -16q-69 0 -128.5 23.5t-104 66.5t-69.5 102.5t-25 131.5q0 82 30.5 158.5t86 135.5t133.5 94.5t173 35.5q68 0 127.5 -23.5t103.5 -66.5t69 -102.5t25 -131.5q0 -82 -30.5 -158.5t-86 -135.5t-133 -94.5t-171.5 -35.5zM367 72q67 0 124.5 28t100.5 74t67.5 105.5
t24.5 121.5q0 57 -19 102t-51.5 76.5t-76.5 48t-94 16.5q-67 0 -125 -28t-100.5 -74t-67 -105t-24.5 -122q0 -57 19 -102t51.5 -76.5t76.5 -48t94 -16.5zM326 807l13 72h280l-13 -72h-280z" />
    <glyph glyph-name="omacron" unicode="&#x14d;" horiz-adv-x="560" 
d="M298 506q51 0 93.5 -18.5t72.5 -50.5t46.5 -74.5t16.5 -90.5q0 -61 -22 -113.5t-61 -91.5t-93 -61t-117 -22q-51 0 -93.5 18.5t-72.5 50.5t-46.5 74.5t-16.5 90.5q0 61 22 113.5t61 91.5t93 61t117 22zM243 68q44 0 79.5 16.5t60 44t37.5 63t13 74.5q0 34 -11.5 62.5
t-31 49.5t-46 32.5t-55.5 11.5q-44 0 -79.5 -16.5t-60 -44t-37.5 -63t-13 -74.5q0 -34 11.5 -62.5t31 -49.5t46 -32.5t55.5 -11.5zM185 623l13 72h280l-13 -72h-280z" />
    <glyph glyph-name="Obreve" unicode="&#x14e;" horiz-adv-x="810" 
d="M358 -16q-69 0 -128.5 23.5t-104 66.5t-69.5 102.5t-25 131.5q0 82 30.5 158.5t86 135.5t133.5 94.5t173 35.5q68 0 127.5 -23.5t103.5 -66.5t69 -102.5t25 -131.5q0 -82 -30.5 -158.5t-86 -135.5t-133 -94.5t-171.5 -35.5zM367 72q67 0 124.5 28t100.5 74t67.5 105.5
t24.5 121.5q0 57 -19 102t-51.5 76.5t-76.5 48t-94 16.5q-67 0 -125 -28t-100.5 -74t-67 -105t-24.5 -122q0 -57 19 -102t51.5 -76.5t76.5 -48t94 -16.5zM468 770q-24 0 -44.5 8t-35.5 22t-24 33t-9 42q0 5 0.5 10.5t1.5 10.5h74q-1 -4 -1 -11q0 -19 11.5 -32.5t34.5 -13.5
q25 0 42 15t22 42h73q-11 -65 -49.5 -95.5t-95.5 -30.5z" />
    <glyph glyph-name="obreve" unicode="&#x14f;" horiz-adv-x="560" 
d="M298 506q51 0 93.5 -18.5t72.5 -50.5t46.5 -74.5t16.5 -90.5q0 -61 -22 -113.5t-61 -91.5t-93 -61t-117 -22q-51 0 -93.5 18.5t-72.5 50.5t-46.5 74.5t-16.5 90.5q0 61 22 113.5t61 91.5t93 61t117 22zM243 68q44 0 79.5 16.5t60 44t37.5 63t13 74.5q0 34 -11.5 62.5
t-31 49.5t-46 32.5t-55.5 11.5q-44 0 -79.5 -16.5t-60 -44t-37.5 -63t-13 -74.5q0 -34 11.5 -62.5t31 -49.5t46 -32.5t55.5 -11.5zM325 586q-24 0 -44.5 8t-35.5 22t-24 33t-9 42q0 5 0.5 10.5t1.5 10.5h74q-1 -4 -1 -11q0 -19 11.5 -32.5t34.5 -13.5q25 0 42 15t22 42h73
q-11 -65 -49.5 -95.5t-95.5 -30.5z" />
    <glyph glyph-name="Ohungarumlaut" unicode="&#x150;" horiz-adv-x="810" 
d="M358 -16q-69 0 -128.5 23.5t-104 66.5t-69.5 102.5t-25 131.5q0 82 30.5 158.5t86 135.5t133.5 94.5t173 35.5q68 0 127.5 -23.5t103.5 -66.5t69 -102.5t25 -131.5q0 -82 -30.5 -158.5t-86 -135.5t-133 -94.5t-171.5 -35.5zM367 72q67 0 124.5 28t100.5 74t67.5 105.5
t24.5 121.5q0 57 -19 102t-51.5 76.5t-76.5 48t-94 16.5q-67 0 -125 -28t-100.5 -74t-67 -105t-24.5 -122q0 -57 19 -102t51.5 -76.5t76.5 -48t94 -16.5zM341 772l75 128h102l-95 -128h-82zM506 772l75 128h102l-95 -128h-82z" />
    <glyph glyph-name="ohungarumlaut" unicode="&#x151;" horiz-adv-x="560" 
d="M298 506q51 0 93.5 -18.5t72.5 -50.5t46.5 -74.5t16.5 -90.5q0 -61 -22 -113.5t-61 -91.5t-93 -61t-117 -22q-51 0 -93.5 18.5t-72.5 50.5t-46.5 74.5t-16.5 90.5q0 61 22 113.5t61 91.5t93 61t117 22zM243 68q44 0 79.5 16.5t60 44t37.5 63t13 74.5q0 34 -11.5 62.5
t-31 49.5t-46 32.5t-55.5 11.5q-44 0 -79.5 -16.5t-60 -44t-37.5 -63t-13 -74.5q0 -34 11.5 -62.5t31 -49.5t46 -32.5t55.5 -11.5zM194 588l75 128h102l-95 -128h-82zM359 588l75 128h102l-95 -128h-82z" />
    <glyph glyph-name="OE" unicode="&#x152;" horiz-adv-x="1149" 
d="M821 628l-40 -227h294l-15 -86h-294l-40 -227h326l-16 -88h-418l16 91q-55 -50 -124 -78.5t-152 -28.5q-69 0 -128.5 23.5t-104 66.5t-69.5 102.5t-25 131.5q0 82 30.5 158.5t86 135.5t134 94.5t173.5 35.5q86 0 156 -36.5t112 -101.5l22 122h418l-16 -88h-326zM367 72
q67 0 124.5 28t100.5 74t67.5 105.5t24.5 121.5q0 57 -19 102t-51.5 76.5t-76.5 48t-94 16.5q-67 0 -125 -28t-100.5 -74t-67 -105t-24.5 -122q0 -57 19 -102t51.5 -76.5t76.5 -48t94 -16.5z" />
    <glyph glyph-name="oe" unicode="&#x153;" horiz-adv-x="952" 
d="M892 116q-39 -65 -100.5 -98.5t-134.5 -33.5q-67 0 -112.5 28.5t-70.5 75.5q-38 -48 -95 -76t-129 -28q-51 0 -93.5 18.5t-72.5 50.5t-46.5 74.5t-16.5 90.5q0 61 22 113.5t61 91.5t93 61t117 22q67 0 116 -30.5t76 -81.5q36 51 91 81.5t128 30.5q50 0 88 -15.5
t63.5 -43.5t38.5 -65.5t13 -80.5q0 -37 -9 -73h-385q-1 -5 -1.5 -13.5t-0.5 -15.5q0 -33 11.5 -58t30 -41t42 -24t47.5 -8q52 0 91 23.5t65 63.5zM259 68q44 0 79.5 16.5t60 44t37.5 63t13 74.5q0 34 -11.5 62.5t-31 49.5t-46 32.5t-55.5 11.5q-44 0 -79.5 -16.5t-60 -44
t-37.5 -63t-13 -74.5q0 -34 11.5 -62.5t31 -49.5t46 -32.5t55.5 -11.5zM835 304v11q0 16 -5 35t-19 35t-38 26.5t-61 10.5q-57 0 -100 -32.5t-60 -85.5h283z" />
    <glyph glyph-name="Racute" unicode="&#x154;" horiz-adv-x="578" 
d="M135 716h237q42 0 78 -13.5t62.5 -38.5t41 -60.5t14.5 -79.5t-15 -81.5t-42 -67t-65.5 -50t-85.5 -29.5l-3 -3l148 -289l-1 -4h-104l-144 290h-104l-52 -290h-92zM315 376q32 0 61 9.5t50.5 28t34 46t12.5 63.5q0 43 -29.5 74t-86.5 31h-146l-44 -252h148zM299 772
l75 128h102l-95 -128h-82z" />
    <glyph glyph-name="racute" unicode="&#x155;" horiz-adv-x="363" 
d="M-7 0l86 490h88l-14 -80h4q23 42 66.5 68t93.5 26q23 0 35.5 -3t25.5 -9l-39 -89q-13 4 -24.5 5.5t-28.5 1.5q-27 0 -52.5 -11t-46.5 -30.5t-35.5 -47t-20.5 -60.5l-46 -261h-92zM198 588l75 128h102l-95 -128h-82z" />
    <glyph glyph-name="uni0156" unicode="&#x156;" horiz-adv-x="578" 
d="M135 716h237q42 0 78 -13.5t62.5 -38.5t41 -60.5t14.5 -79.5t-15 -81.5t-42 -67t-65.5 -50t-85.5 -29.5l-3 -3l148 -289l-1 -4h-104l-144 290h-104l-52 -290h-92zM315 376q32 0 61 9.5t50.5 28t34 46t12.5 63.5q0 43 -29.5 74t-86.5 31h-146l-44 -252h148zM166 -216
l49 55q-20 4 -31.5 19.5t-11.5 35.5q0 21 16.5 39.5t42.5 18.5q28 0 44 -18t16 -43q0 -14 -4.5 -28t-13.5 -25l-70 -85z" />
    <glyph glyph-name="uni0157" unicode="&#x157;" horiz-adv-x="363" 
d="M-7 0l86 490h88l-14 -80h4q23 42 66.5 68t93.5 26q23 0 35.5 -3t25.5 -9l-39 -89q-13 4 -24.5 5.5t-28.5 1.5q-27 0 -52.5 -11t-46.5 -30.5t-35.5 -47t-20.5 -60.5l-46 -261h-92zM-40 -216l49 55q-20 4 -31.5 19.5t-11.5 35.5q0 21 16.5 39.5t42.5 18.5q28 0 44 -18
t16 -43q0 -14 -4.5 -28t-13.5 -25l-70 -85z" />
    <glyph glyph-name="Rcaron" unicode="&#x158;" horiz-adv-x="578" 
d="M135 716h237q42 0 78 -13.5t62.5 -38.5t41 -60.5t14.5 -79.5t-15 -81.5t-42 -67t-65.5 -50t-85.5 -29.5l-3 -3l148 -289l-1 -4h-104l-144 290h-104l-52 -290h-92zM315 376q32 0 61 9.5t50.5 28t34 46t12.5 63.5q0 43 -29.5 74t-86.5 31h-146l-44 -252h148zM499 895
l-124 -117h-80l-82 117l1 5h83l41 -60h8l59 60h95z" />
    <glyph glyph-name="rcaron" unicode="&#x159;" horiz-adv-x="363" 
d="M-7 0l86 490h88l-14 -80h4q23 42 66.5 68t93.5 26q23 0 35.5 -3t25.5 -9l-39 -89q-13 4 -24.5 5.5t-28.5 1.5q-27 0 -52.5 -11t-46.5 -30.5t-35.5 -47t-20.5 -60.5l-46 -261h-92zM400 711l-124 -117h-80l-82 117l1 5h83l41 -60h8l59 60h95z" />
    <glyph glyph-name="Sacute" unicode="&#x15a;" horiz-adv-x="553" 
d="M224 -16q-43 0 -81 12.5t-68.5 37.5t-50.5 61t-27 83l89 36q3 -30 13.5 -55.5t29.5 -45t45.5 -30.5t60.5 -11q29 0 57.5 9.5t50.5 27t35.5 42t13.5 55.5q0 45 -30 72.5t-97 53.5l-43 16q-27 10 -52.5 25t-45.5 36.5t-32.5 50t-12.5 66.5q0 45 19.5 83t52.5 65t77 42.5
t93 15.5q53 0 91 -15t63 -37.5t38 -48.5t16 -47l-89 -33q-2 14 -9 30.5t-22 30.5t-38 23t-57 9q-28 0 -53.5 -7.5t-44.5 -21.5t-30 -34.5t-11 -46.5q0 -42 28.5 -67t80.5 -44l43 -16q33 -12 62.5 -29.5t51 -40t34.5 -52t13 -65.5q0 -55 -20.5 -99t-56 -74.5t-84 -46.5
t-103.5 -16zM291 772l75 128h102l-95 -128h-82z" />
    <glyph glyph-name="sacute" unicode="&#x15b;" horiz-adv-x="455" 
d="M186 -16q-43 0 -76 11t-57.5 29.5t-40.5 44t-24 55.5l88 35q10 -46 43 -69.5t76 -23.5q48 0 76 20t28 49q0 28 -18 45t-60 28l-56 15q-53 14 -87.5 44.5t-34.5 86.5q0 33 16 61t43 48t63 31.5t77 11.5q70 0 119 -32.5t66 -83.5l-88 -34q-11 28 -36.5 48t-66.5 20
q-43 0 -70 -16.5t-27 -46.5q0 -19 15 -35t52 -26l63 -17q60 -17 93 -51.5t33 -85.5q0 -37 -15 -67t-43 -51t-66.5 -32.5t-84.5 -11.5zM221 588l75 128h102l-95 -128h-82z" />
    <glyph glyph-name="Scircumflex" unicode="&#x15c;" horiz-adv-x="553" 
d="M224 -16q-43 0 -81 12.5t-68.5 37.5t-50.5 61t-27 83l89 36q3 -30 13.5 -55.5t29.5 -45t45.5 -30.5t60.5 -11q29 0 57.5 9.5t50.5 27t35.5 42t13.5 55.5q0 45 -30 72.5t-97 53.5l-43 16q-27 10 -52.5 25t-45.5 36.5t-32.5 50t-12.5 66.5q0 45 19.5 83t52.5 65t77 42.5
t93 15.5q53 0 91 -15t63 -37.5t38 -48.5t16 -47l-89 -33q-2 14 -9 30.5t-22 30.5t-38 23t-57 9q-28 0 -53.5 -7.5t-44.5 -21.5t-30 -34.5t-11 -46.5q0 -42 28.5 -67t80.5 -44l43 -16q33 -12 62.5 -29.5t51 -40t34.5 -52t13 -65.5q0 -55 -20.5 -99t-56 -74.5t-84 -46.5
t-103.5 -16zM182 784l124 117h80l82 -117l-1 -5h-83l-41 60h-8l-59 -60h-95z" />
    <glyph glyph-name="scircumflex" unicode="&#x15d;" horiz-adv-x="455" 
d="M186 -16q-43 0 -76 11t-57.5 29.5t-40.5 44t-24 55.5l88 35q10 -46 43 -69.5t76 -23.5q48 0 76 20t28 49q0 28 -18 45t-60 28l-56 15q-53 14 -87.5 44.5t-34.5 86.5q0 33 16 61t43 48t63 31.5t77 11.5q70 0 119 -32.5t66 -83.5l-88 -34q-11 28 -36.5 48t-66.5 20
q-43 0 -70 -16.5t-27 -46.5q0 -19 15 -35t52 -26l63 -17q60 -17 93 -51.5t33 -85.5q0 -37 -15 -67t-43 -51t-66.5 -32.5t-84.5 -11.5zM129 599l124 117h80l82 -117l-1 -5h-83l-41 60h-8l-59 -60h-95z" />
    <glyph glyph-name="uni015E" unicode="&#x15e;" horiz-adv-x="553" 
d="M186 -237q-34 0 -59.5 19.5t-31.5 47.5l56 23q2 -14 12.5 -24t26.5 -10q18 0 32 12t14 35q0 14 -9.5 24.5t-26.5 10.5q-11 0 -18.5 -4t-15.5 -12l-43 22l45 83q-66 14 -113 62t-58 126l89 36q3 -30 13.5 -55.5t29.5 -45t45.5 -30.5t60.5 -11q29 0 57.5 9.5t50.5 27
t35.5 42t13.5 55.5q0 45 -30 72.5t-97 53.5l-43 16q-27 10 -52.5 25t-45.5 36.5t-32.5 50t-12.5 66.5q0 45 19.5 83t52.5 65t77 42.5t93 15.5q53 0 91 -15t63 -37.5t38 -48.5t16 -47l-89 -33q-2 14 -9 30.5t-22 30.5t-38 23t-57 9q-28 0 -53.5 -7.5t-44.5 -21.5t-30 -34.5
t-11 -46.5q0 -42 28.5 -67t80.5 -44l43 -16q33 -12 62.5 -29.5t51 -40t34.5 -52t13 -65.5q0 -55 -20.5 -99t-56 -74.5t-84 -46.5t-103.5 -16h-4l-19 -32q4 1 8 1.5t12 0.5q35 0 55.5 -24.5t20.5 -63.5q0 -45 -30 -74t-81 -29z" />
    <glyph glyph-name="uni015F" unicode="&#x15f;" horiz-adv-x="455" 
d="M154 -237q-34 0 -59.5 19.5t-31.5 47.5l56 23q2 -14 12.5 -24t26.5 -10q18 0 32 12t14 35q0 14 -9.5 24.5t-26.5 10.5q-11 0 -18.5 -4t-15.5 -12l-43 22l44 82q-62 11 -97.5 47.5t-49.5 87.5l88 35q10 -46 43 -69.5t76 -23.5q48 0 76 20t28 49q0 28 -18 45t-60 28l-56 15
q-53 14 -87.5 44.5t-34.5 86.5q0 33 16 61t43 48t63 31.5t77 11.5q70 0 119 -32.5t66 -83.5l-88 -34q-11 28 -36.5 48t-66.5 20q-43 0 -70 -16.5t-27 -46.5q0 -19 15 -35t52 -26l63 -17q60 -17 93 -51.5t33 -85.5q0 -37 -15 -67t-42.5 -51t-65.5 -32.5t-84 -11.5l-19 -32
q4 1 8 1.5t12 0.5q35 0 55.5 -24.5t20.5 -63.5q0 -45 -30 -74t-81 -29z" />
    <glyph glyph-name="Scaron" unicode="&#x160;" horiz-adv-x="553" 
d="M224 -16q-43 0 -81 12.5t-68.5 37.5t-50.5 61t-27 83l89 36q3 -30 13.5 -55.5t29.5 -45t45.5 -30.5t60.5 -11q29 0 57.5 9.5t50.5 27t35.5 42t13.5 55.5q0 45 -30 72.5t-97 53.5l-43 16q-27 10 -52.5 25t-45.5 36.5t-32.5 50t-12.5 66.5q0 45 19.5 83t52.5 65t77 42.5
t93 15.5q53 0 91 -15t63 -37.5t38 -48.5t16 -47l-89 -33q-2 14 -9 30.5t-22 30.5t-38 23t-57 9q-28 0 -53.5 -7.5t-44.5 -21.5t-30 -34.5t-11 -46.5q0 -42 28.5 -67t80.5 -44l43 -16q33 -12 62.5 -29.5t51 -40t34.5 -52t13 -65.5q0 -55 -20.5 -99t-56 -74.5t-84 -46.5
t-103.5 -16zM499 895l-124 -117h-80l-82 117l1 5h83l41 -60h8l59 60h95z" />
    <glyph glyph-name="scaron" unicode="&#x161;" horiz-adv-x="455" 
d="M186 -16q-43 0 -76 11t-57.5 29.5t-40.5 44t-24 55.5l88 35q10 -46 43 -69.5t76 -23.5q48 0 76 20t28 49q0 28 -18 45t-60 28l-56 15q-53 14 -87.5 44.5t-34.5 86.5q0 33 16 61t43 48t63 31.5t77 11.5q70 0 119 -32.5t66 -83.5l-88 -34q-11 28 -36.5 48t-66.5 20
q-43 0 -70 -16.5t-27 -46.5q0 -19 15 -35t52 -26l63 -17q60 -17 93 -51.5t33 -85.5q0 -37 -15 -67t-43 -51t-66.5 -32.5t-84.5 -11.5zM433 711l-124 -117h-80l-82 117l1 5h83l41 -60h8l59 60h95z" />
    <glyph glyph-name="uni0162" unicode="&#x162;" horiz-adv-x="540" 
d="M172 -237q-34 0 -59.5 19.5t-31.5 47.5l56 23q2 -14 12.5 -24t26.5 -10q18 0 32 12t14 35q0 14 -9.5 24.5t-26.5 10.5q-11 0 -18.5 -4t-15.5 -12l-43 22l51 93l111 628h-200l16 88h492l-16 -88h-200l-111 -628h-36l-29 -48q4 1 8 1.5t12 0.5q35 0 55.5 -24.5t20.5 -63.5
q0 -45 -30 -74t-81 -29z" />
    <glyph glyph-name="uni0163" unicode="&#x163;" horiz-adv-x="354" 
d="M189 -8h-10t-10 1l-25 -41q4 1 8 1.5t12 0.5q35 0 55.5 -24.5t20.5 -63.5q0 -45 -30 -74t-81 -29q-34 0 -59.5 19.5t-31.5 47.5l56 23q2 -14 12.5 -24t26.5 -10q18 0 32 12t14 35q0 14 -9.5 24.5t-26.5 10.5q-11 0 -18.5 -4t-15.5 -12l-43 22l54 102q-23 14 -37 38
t-14 58q0 8 0.5 18t4.5 32l44 251h-86l15 84h86l27 150h92l-27 -150h120l-15 -84h-120l-42 -238q-2 -11 -2.5 -18.5t-0.5 -17.5q0 -22 11 -38t36 -16q17 0 25.5 2t19.5 7l15 -82q-20 -7 -39.5 -10t-43.5 -3z" />
    <glyph glyph-name="Tcaron" unicode="&#x164;" horiz-adv-x="540" 
d="M160 0l111 628h-200l16 88h492l-16 -88h-200l-111 -628h-92zM504 895l-124 -117h-80l-82 117l1 5h83l41 -60h8l59 60h95z" />
    <glyph glyph-name="tcaron" unicode="&#x165;" horiz-adv-x="354" 
d="M301 554l29 162h92l-57 -162h-64zM189 -8q-25 0 -47 8t-38 22.5t-25.5 35.5t-9.5 47q0 8 1 21t4 29l44 251h-86l15 84h86l27 150h92l-27 -150h120l-15 -84h-120l-42 -238q-2 -13 -3 -22q-2 -10 -2 -18q0 -22 12 -36t37 -14q17 0 25.5 2t19.5 7l15 -82q-20 -7 -39.5 -10
t-43.5 -3z" />
    <glyph glyph-name="Tbar" unicode="&#x166;" horiz-adv-x="540" 
d="M160 0l59 338h-127l13 72h127l39 218h-200l16 88h492l-16 -88h-200l-39 -218h129l-13 -72h-129l-59 -338h-92z" />
    <glyph glyph-name="tbar" unicode="&#x167;" horiz-adv-x="354" 
d="M189 -8q-51 0 -85.5 29t-34.5 84q0 8 0.5 18t4.5 32l11 67h-84l15 84h84l18 100h-86l15 84h86l27 150h92l-27 -150h120l-15 -84h-120l-18 -100h122l-15 -84h-122l-9 -54q-2 -11 -2.5 -18.5t-0.5 -17.5q0 -22 11 -38t36 -16q17 0 25.5 2t19.5 7l15 -82q-20 -7 -39.5 -10
t-43.5 -3z" />
    <glyph glyph-name="Utilde" unicode="&#x168;" horiz-adv-x="642" 
d="M258 -16q-44 0 -84 15t-70.5 42.5t-48.5 67.5t-18 90q0 15 1 36.5t8 61.5l74 419h92l-78 -442q-4 -22 -5 -35.5t-1 -24.5q0 -63 35 -102.5t110 -39.5q43 0 77.5 14.5t60.5 40t43 60t24 75.5l80 454h92l-82 -465q-23 -127 -101.5 -197t-208.5 -70zM459 778q-18 0 -33.5 7
t-29.5 16q-15 8 -30 15t-33 7q-30 0 -39 -35h-76q8 60 39 89t75 29q18 0 34 -7t31 -15q14 -9 29 -16t32 -7q30 0 39 35h76q-8 -60 -39 -89t-75 -29z" />
    <glyph glyph-name="utilde" unicode="&#x169;" 
d="M348 68h-4q-25 -36 -68 -60t-98 -24q-72 0 -115.5 41t-43.5 110q0 15 1.5 34t5.5 39l50 282h92l-52 -294q-4 -20 -4 -40q0 -45 27.5 -66.5t73.5 -21.5q30 0 56.5 12t47 32.5t34.5 48t19 58.5l48 271h92l-86 -490h-88zM390 594q-18 0 -33.5 7t-29.5 16q-15 8 -30 15t-33 7
q-30 0 -39 -35h-76q8 60 39 89t75 29q18 0 34 -7t31 -15q14 -9 29 -16t32 -7q30 0 39 35h76q-8 -60 -39 -89t-75 -29z" />
    <glyph glyph-name="Umacron" unicode="&#x16a;" horiz-adv-x="642" 
d="M258 -16q-44 0 -84 15t-70.5 42.5t-48.5 67.5t-18 90q0 15 1 36.5t8 61.5l74 419h92l-78 -442q-4 -22 -5 -35.5t-1 -24.5q0 -63 35 -102.5t110 -39.5q43 0 77.5 14.5t60.5 40t43 60t24 75.5l80 454h92l-82 -465q-23 -127 -101.5 -197t-208.5 -70zM255 807l13 72h280
l-13 -72h-280z" />
    <glyph glyph-name="umacron" unicode="&#x16b;" 
d="M348 68h-4q-25 -36 -68 -60t-98 -24q-72 0 -115.5 41t-43.5 110q0 15 1.5 34t5.5 39l50 282h92l-52 -294q-4 -20 -4 -40q0 -45 27.5 -66.5t73.5 -21.5q30 0 56.5 12t47 32.5t34.5 48t19 58.5l48 271h92l-86 -490h-88zM177 623l13 72h280l-13 -72h-280z" />
    <glyph glyph-name="Ubreve" unicode="&#x16c;" horiz-adv-x="642" 
d="M258 -16q-44 0 -84 15t-70.5 42.5t-48.5 67.5t-18 90q0 15 1 36.5t8 61.5l74 419h92l-78 -442q-4 -22 -5 -35.5t-1 -24.5q0 -63 35 -102.5t110 -39.5q43 0 77.5 14.5t60.5 40t43 60t24 75.5l80 454h92l-82 -465q-23 -127 -101.5 -197t-208.5 -70zM391 770q-24 0 -44.5 8
t-35.5 22t-24 33t-9 42q0 5 0.5 10.5t1.5 10.5h74q-1 -4 -1 -11q0 -19 11.5 -32.5t34.5 -13.5q25 0 42 15t22 42h73q-11 -65 -49.5 -95.5t-95.5 -30.5z" />
    <glyph glyph-name="ubreve" unicode="&#x16d;" 
d="M348 68h-4q-25 -36 -68 -60t-98 -24q-72 0 -115.5 41t-43.5 110q0 15 1.5 34t5.5 39l50 282h92l-52 -294q-4 -20 -4 -40q0 -45 27.5 -66.5t73.5 -21.5q30 0 56.5 12t47 32.5t34.5 48t19 58.5l48 271h92l-86 -490h-88zM317 571q-24 0 -44.5 8t-35.5 22t-24 33t-9 42
q0 5 0.5 10.5t1.5 10.5h74q-1 -4 -1 -11q0 -19 11.5 -32.5t34.5 -13.5q25 0 42 15t22 42h73q-11 -65 -49.5 -95.5t-95.5 -30.5z" />
    <glyph glyph-name="Uring" unicode="&#x16e;" horiz-adv-x="642" 
d="M258 -16q-44 0 -84 15t-70.5 42.5t-48.5 67.5t-18 90q0 15 1 36.5t8 61.5l74 419h92l-78 -442q-4 -22 -5 -35.5t-1 -24.5q0 -63 35 -102.5t110 -39.5q43 0 77.5 14.5t60.5 40t43 60t24 75.5l80 454h92l-82 -465q-23 -127 -101.5 -197t-208.5 -70zM400 752q-22 0 -41 8
t-33 22.5t-22 33.5t-8 40q0 44 30 74t74 30q21 0 40 -8t33.5 -22t22.5 -33t8 -41q0 -21 -8 -40t-22.5 -33.5t-33.5 -22.5t-40 -8zM400 811q18 0 31 13.5t13 31.5t-13 31t-31 13t-31 -13t-13 -31t13 -31.5t31 -13.5z" />
    <glyph glyph-name="uring" unicode="&#x16f;" 
d="M348 68h-4q-25 -36 -68 -60t-98 -24q-72 0 -115.5 41t-43.5 110q0 15 1.5 34t5.5 39l50 282h92l-52 -294q-4 -20 -4 -40q0 -45 27.5 -66.5t73.5 -21.5q30 0 56.5 12t47 32.5t34.5 48t19 58.5l48 271h92l-86 -490h-88zM321 568q-22 0 -41 8t-33 22.5t-22 33.5t-8 40
q0 44 30 74t74 30q21 0 40 -8t33.5 -22t22.5 -33t8 -41q0 -21 -8 -40t-22.5 -33.5t-33.5 -22.5t-40 -8zM321 627q18 0 31 13.5t13 31.5t-13 31t-31 13t-31 -13t-13 -31t13 -31.5t31 -13.5z" />
    <glyph glyph-name="Uhungarumlaut" unicode="&#x170;" horiz-adv-x="642" 
d="M258 -16q-44 0 -84 15t-70.5 42.5t-48.5 67.5t-18 90q0 15 1 36.5t8 61.5l74 419h92l-78 -442q-4 -22 -5 -35.5t-1 -24.5q0 -63 35 -102.5t110 -39.5q43 0 77.5 14.5t60.5 40t43 60t24 75.5l80 454h92l-82 -465q-23 -127 -101.5 -197t-208.5 -70zM258 772l75 128h102
l-95 -128h-82zM423 772l75 128h102l-95 -128h-82z" />
    <glyph glyph-name="uhungarumlaut" unicode="&#x171;" 
d="M348 68h-4q-25 -36 -68 -60t-98 -24q-72 0 -115.5 41t-43.5 110q0 15 1.5 34t5.5 39l50 282h92l-52 -294q-4 -20 -4 -40q0 -45 27.5 -66.5t73.5 -21.5q30 0 56.5 12t47 32.5t34.5 48t19 58.5l48 271h92l-86 -490h-88zM181 588l75 128h102l-95 -128h-82zM345 588l75 128
h102l-95 -128h-82z" />
    <glyph glyph-name="Uogonek" unicode="&#x172;" horiz-adv-x="642" 
d="M296 -224q-46 0 -74.5 27t-28.5 65q0 68 60 116q-43 1 -82 16.5t-69 43t-47.5 67t-17.5 88.5q0 15 1 36.5t8 61.5l74 419h92l-78 -442q-4 -22 -5 -35.5t-1 -24.5q0 -63 35 -102.5t110 -39.5q43 0 77.5 14.5t60.5 40t43 60t24 75.5l80 454h92l-82 -465q-17 -97 -62.5 -157
t-125.5 -90q-48 -18 -75 -50.5t-27 -65.5q0 -18 10.5 -27t26.5 -9q8 0 13.5 1t14.5 4l19 -67q-30 -14 -66 -14z" />
    <glyph glyph-name="uogonek" unicode="&#x173;" 
d="M352 -224q-46 0 -74.5 27t-28.5 65q0 80 87 132l12 68h-4q-25 -36 -68 -60t-98 -24q-72 0 -115.5 41t-43.5 110q0 15 1.5 34t5.5 39l50 282h92l-52 -294q-4 -20 -4 -40q0 -45 27.5 -66.5t73.5 -21.5q30 0 56.5 12t47 32.5t34.5 48t19 58.5l48 271h92l-86 -490
q-14 -8 -29.5 -20t-29 -27t-22.5 -32t-9 -33q0 -18 10.5 -27t26.5 -9q8 0 13.5 1t14.5 4l19 -67q-30 -14 -66 -14z" />
    <glyph glyph-name="Wcircumflex" unicode="&#x174;" horiz-adv-x="922" 
d="M652 0h-94l-71 472h-4l-238 -472h-94l-72 716h94l52 -563h4l235 467h88l72 -467h4l245 563h96zM379 783l124 117h80l82 -117l-1 -5h-83l-41 60h-8l-59 -60h-95z" />
    <glyph glyph-name="wcircumflex" unicode="&#x175;" horiz-adv-x="754" 
d="M434 0l-55 376l-188 -376h-93l-71 490h94l43 -370h1l187 370h95l55 -370h1l174 370h96l-245 -490h-94zM267 599l124 117h80l82 -117l-1 -5h-83l-41 60h-8l-59 -60h-95z" />
    <glyph glyph-name="Ycircumflex" unicode="&#x176;" horiz-adv-x="594" 
d="M189 0l59 333l-173 383h105l125 -291h4l225 291h111l-305 -383l-59 -333h-92zM209 783l124 117h80l82 -117l-1 -5h-83l-41 60h-8l-59 -60h-95z" />
    <glyph glyph-name="ycircumflex" unicode="&#x177;" horiz-adv-x="498" 
d="M5 -216l158 247l-121 459h97l86 -353h2l205 353h102l-432 -706h-97zM147 599l124 117h80l82 -117l-1 -5h-83l-41 60h-8l-59 -60h-95z" />
    <glyph glyph-name="Ydieresis" unicode="&#x178;" horiz-adv-x="594" 
d="M189 0l59 333l-173 383h105l125 -291h4l225 291h111l-305 -383l-59 -333h-92zM451 786q-23 0 -40 17t-17 40q0 25 17 41t40 16q25 0 41 -16t16 -41q0 -23 -16 -40t-41 -17zM283 786q-23 0 -40 17t-17 40q0 25 17 41t40 16q25 0 41 -16t16 -41q0 -23 -16 -40t-41 -17z" />
    <glyph glyph-name="Zacute" unicode="&#x179;" horiz-adv-x="564" 
d="M-14 96l472 532h-363l16 88h472l-17 -96l-473 -532h383l-16 -88h-491zM295 772l75 128h102l-95 -128h-82z" />
    <glyph glyph-name="zacute" unicode="&#x17a;" horiz-adv-x="460" 
d="M-18 80l334 326h-268l15 84h384l-14 -80l-334 -326h280l-15 -84h-395zM221 588l75 128h102l-95 -128h-82z" />
    <glyph glyph-name="Zdotaccent" unicode="&#x17b;" horiz-adv-x="564" 
d="M-14 96l472 532h-363l16 88h472l-17 -96l-473 -532h383l-16 -88h-491zM372 804q-20 0 -36 16t-16 36q0 23 16 37.5t36 14.5q23 0 37.5 -14.5t14.5 -37.5q0 -20 -14.5 -36t-37.5 -16z" />
    <glyph glyph-name="zdotaccent" unicode="&#x17c;" horiz-adv-x="460" 
d="M-18 80l334 326h-268l15 84h384l-14 -80l-334 -326h280l-15 -84h-395zM287 602q-23 0 -40 17t-17 40q0 25 17 41t40 16q25 0 41 -16t16 -41q0 -23 -16 -40t-41 -17z" />
    <glyph glyph-name="Zcaron" unicode="&#x17d;" horiz-adv-x="564" 
d="M-14 96l472 532h-363l16 88h472l-17 -96l-473 -532h383l-16 -88h-491zM514 895l-124 -117h-80l-82 117l1 5h83l41 -60h8l59 60h95z" />
    <glyph glyph-name="zcaron" unicode="&#x17e;" horiz-adv-x="460" 
d="M-18 80l334 326h-268l15 84h384l-14 -80l-334 -326h280l-15 -84h-395zM436 711l-124 -117h-80l-82 117l1 5h83l41 -60h8l59 60h95z" />
    <glyph glyph-name="uni0192" unicode="&#x192;" horiz-adv-x="563" 
d="M107 -220q-35 0 -68 14l23 80q20 -10 45 -10q27 0 47 17.5t25 46.5l78 394h-103v84h119l37 182q6 29 20.5 53t36 41.5t49.5 27.5t61 10q44 0 74 -13l-32 -79q-16 8 -42 8q-29 0 -51.5 -15t-28.5 -45l-34 -170h127v-84h-144l-81 -408q-6 -29 -19.5 -53.5t-33.5 -42.5
t-47 -28t-58 -10z" />
    <glyph glyph-name="Aringacute" unicode="&#x1fa;" horiz-adv-x="668" 
d="M326 682q-14 14 -22.5 33t-8.5 41q0 41 26 69.5t65 33.5l44 73h92l-64 -91q20 -14 32.5 -36.5t12.5 -48.5t-12.5 -49t-32.5 -37l134 -670h-99l-34 194h-301l-105 -194h-104zM442 280l-60 323h-4l-174 -323h238zM399 716q17 0 28.5 11.5t11.5 28.5t-11.5 28.5t-28.5 11.5
t-28.5 -11.5t-11.5 -28.5t11.5 -28.5t28.5 -11.5z" />
    <glyph glyph-name="aringacute" unicode="&#x1fb;" horiz-adv-x="510" 
d="M277 794l58 106h102l-79 -106h-81zM287 506q95 0 143.5 -44t48.5 -119q0 -12 -1.5 -25.5t-3.5 -27.5l-52 -290h-88l12 68h-4q-24 -35 -66 -59.5t-94 -24.5q-36 0 -67 10.5t-53.5 30.5t-35.5 47.5t-13 62.5q0 42 18.5 76t50.5 57.5t75.5 36.5t94.5 13q41 0 72.5 -8.5
t60.5 -21.5l4 21q2 8 2 20q0 43 -31 69t-82 26q-39 0 -69.5 -15t-59.5 -50l-72 51q35 47 89.5 71.5t120.5 24.5zM201 66q31 0 59.5 11t51 30.5t38.5 46t21 56.5q-12 9 -30 17q-16 6 -39.5 11.5t-56.5 5.5q-25 0 -49.5 -6t-43.5 -19t-31 -32t-12 -44q0 -19 8 -33.5t20.5 -24
t29 -14.5t34.5 -5zM307 568q-22 0 -41 8t-33 22.5t-22 33.5t-8 40q0 44 30 74t74 30q21 0 40 -8t33.5 -22t22.5 -33t8 -41q0 -21 -8 -40t-22.5 -33.5t-33.5 -22.5t-40 -8zM307 627q18 0 31 13.5t13 31.5t-13 31t-31 13t-31 -13t-13 -31t13 -31.5t31 -13.5z" />
    <glyph glyph-name="AEacute" unicode="&#x1fc;" horiz-adv-x="960" 
d="M-59 0l552 716h478l-16 -88h-326l-40 -227h294l-15 -86h-294l-40 -227h326l-16 -88h-418l34 194h-259l-148 -194h-112zM267 280h208l62 348h-4l-39 -51zM680 772l75 128h102l-95 -128h-82z" />
    <glyph glyph-name="aeacute" unicode="&#x1fd;" horiz-adv-x="905" 
d="M828 116q-39 -65 -100.5 -98.5t-134.5 -33.5q-72 0 -119.5 32t-71.5 83q-38 -52 -92.5 -83.5t-123.5 -31.5q-38 0 -69.5 10.5t-54.5 30.5t-36 47.5t-13 62.5q0 42 18.5 76t50.5 57.5t76 36.5t94 13q41 0 72.5 -8.5t60.5 -21.5l4 21q2 10 2 20q0 44 -31 69.5t-79 25.5
q-41 0 -77.5 -18.5t-54.5 -50.5l-77 41q31 48 84 79t136 31q60 0 101 -26.5t62 -68.5q37 43 89.5 69t116.5 26q50 0 88 -15.5t63.5 -43.5t38.5 -65.5t13 -80.5q0 -18 -2 -37t-7 -36h-385q-1 -5 -1.5 -13.5t-0.5 -15.5q0 -33 11.5 -58t30 -41t42 -24t47.5 -8q52 0 91 23.5
t65 63.5zM201 66q31 0 59.5 11t51 30.5t38.5 46t21 56.5q-12 9 -30 17q-16 6 -39.5 11.5t-56.5 5.5q-25 0 -49.5 -6t-43.5 -18.5t-31 -31.5t-12 -45q0 -19 8 -33.5t20.5 -24t29 -14.5t34.5 -5zM771 304v11q0 16 -5 35t-19 35t-38 26.5t-61 10.5q-57 0 -100 -32.5t-60 -85.5
h283zM437 588l75 128h102l-95 -128h-82z" />
    <glyph glyph-name="Oslashacute" unicode="&#x1fe;" horiz-adv-x="810" 
d="M80 6l50 62q-47 43 -73 104t-26 136q0 82 30.5 158.5t86 135.5t133.5 94.5t173 35.5q47 0 90.5 -11.5t80.5 -32.5l56 70l63 -48l-56 -70q43 -43 67 -101.5t24 -130.5q0 -82 -30.5 -158.5t-86 -135.5t-133 -94.5t-171.5 -35.5q-48 0 -87.5 10t-74.5 28l-52 -63zM126 315
q0 -55 17.5 -97.5t46.5 -74.5l376 471q-26 14 -58 22t-65 8q-67 0 -125 -28t-100.5 -73.5t-67 -105t-24.5 -122.5zM367 72q67 0 124.5 28t100.5 74t67.5 105.5t24.5 121.5q0 51 -15 92t-41 72l-374 -469q49 -24 113 -24zM436 772l75 128h102l-95 -128h-82z" />
    <glyph glyph-name="oslashacute" unicode="&#x1ff;" horiz-adv-x="560" 
d="M298 506q31 0 59 -7t52 -20l41 51l57 -44l-41 -52q29 -32 45 -73.5t16 -88.5q0 -61 -22 -113.5t-61 -91.5t-93 -61t-117 -22q-31 0 -58 7t-51 19l-37 -47l-58 43l38 47q-30 32 -46.5 74.5t-16.5 90.5q0 61 22 113.5t61 91.5t93 61t117 22zM99 224q0 -56 29 -96l223 279
q-14 7 -29.5 11t-32.5 4q-44 0 -79.5 -16.5t-60 -44t-37.5 -63t-13 -74.5zM243 68q44 0 79.5 16.5t60 44t37.5 63t13 74.5q0 54 -28 93l-222 -278q26 -13 60 -13zM275 588l75 128h102l-95 -128h-82z" />
    <glyph glyph-name="uni0218" unicode="&#x218;" horiz-adv-x="553" 
d="M224 -16q-43 0 -81 12.5t-68.5 37.5t-50.5 61t-27 83l89 36q3 -30 13.5 -55.5t29.5 -45t45.5 -30.5t60.5 -11q29 0 57.5 9.5t50.5 27t35.5 42t13.5 55.5q0 45 -30 72.5t-97 53.5l-43 16q-27 10 -52.5 25t-45.5 36.5t-32.5 50t-12.5 66.5q0 45 19.5 83t52.5 65t77 42.5
t93 15.5q53 0 91 -15t63 -37.5t38 -48.5t16 -47l-89 -33q-2 14 -9 30.5t-22 30.5t-38 23t-57 9q-28 0 -53.5 -7.5t-44.5 -21.5t-30 -34.5t-11 -46.5q0 -42 28.5 -67t80.5 -44l43 -16q33 -12 62.5 -29.5t51 -40t34.5 -52t13 -65.5q0 -55 -20.5 -99t-56 -74.5t-84 -46.5
t-103.5 -16zM137 -216l49 55q-20 4 -31.5 19.5t-11.5 35.5q0 21 16.5 39.5t42.5 18.5q28 0 44 -18t16 -43q0 -14 -4.5 -28t-13.5 -25l-70 -85z" />
    <glyph glyph-name="uni0219" unicode="&#x219;" horiz-adv-x="455" 
d="M186 -16q-43 0 -76 11t-57.5 29.5t-40.5 44t-24 55.5l88 35q10 -46 43 -69.5t76 -23.5q48 0 76 20t28 49q0 28 -18 45t-60 28l-56 15q-53 14 -87.5 44.5t-34.5 86.5q0 33 16 61t43 48t63 31.5t77 11.5q70 0 119 -32.5t66 -83.5l-88 -34q-11 28 -36.5 48t-66.5 20
q-43 0 -70 -16.5t-27 -46.5q0 -19 15 -35t52 -26l63 -17q60 -17 93 -51.5t33 -85.5q0 -37 -15 -67t-43 -51t-66.5 -32.5t-84.5 -11.5zM98 -216l49 55q-20 4 -31.5 19.5t-11.5 35.5q0 21 16.5 39.5t42.5 18.5q28 0 44 -18t16 -43q0 -14 -4.5 -28t-13.5 -25l-70 -85z" />
    <glyph glyph-name="uni021A" unicode="&#x21a;" horiz-adv-x="540" 
d="M160 0l111 628h-200l16 88h492l-16 -88h-200l-111 -628h-92zM118 -216l49 55q-20 4 -31.5 19.5t-11.5 35.5q0 21 16.5 39.5t42.5 18.5q28 0 44 -18t16 -43q0 -14 -4.5 -28t-13.5 -25l-70 -85z" />
    <glyph glyph-name="uni021B" unicode="&#x21b;" horiz-adv-x="354" 
d="M189 -8q-25 0 -47 8t-38 22.5t-25.5 35.5t-9.5 47q0 8 1 21t4 29l44 251h-86l15 84h86l27 150h92l-27 -150h120l-15 -84h-120l-42 -238q-2 -13 -3 -22q-2 -10 -2 -18q0 -22 12 -36t37 -14q17 0 25.5 2t19.5 7l15 -82q-20 -7 -39.5 -10t-43.5 -3zM82 -216l49 55
q-20 4 -31.5 19.5t-11.5 35.5q0 21 16.5 39.5t42.5 18.5q28 0 44 -18t16 -43q0 -14 -4.5 -28t-13.5 -25l-70 -85z" />
    <glyph glyph-name="uni0237" unicode="&#x237;" horiz-adv-x="220" 
d="M-88 -226q-32 0 -55 10l35 80q12 -6 30 -6q52 0 64 65l100 567h92l-100 -568q-7 -41 -22 -69t-36.5 -45.5t-48.5 -25.5t-59 -8z" />
    <glyph glyph-name="circumflex" unicode="&#x2c6;" horiz-adv-x="400" 
d="M98 599l124 117h80l82 -117l-1 -5h-83l-41 60h-8l-59 -60h-95z" />
    <glyph glyph-name="caron" unicode="&#x2c7;" horiz-adv-x="400" 
d="M405 711l-124 -117h-80l-82 117l1 5h83l41 -60h8l59 60h95z" />
    <glyph glyph-name="breve" unicode="&#x2d8;" horiz-adv-x="400" 
d="M245 586q-24 0 -44.5 8t-35.5 22t-24 33t-9 42q0 5 0.5 10.5t1.5 10.5h74q-1 -4 -1 -11q0 -19 11.5 -32.5t34.5 -13.5q25 0 42 15t22 42h73q-11 -65 -49.5 -95.5t-95.5 -30.5z" />
    <glyph glyph-name="dotaccent" unicode="&#x2d9;" horiz-adv-x="232" 
d="M169 602q-23 0 -40 17t-17 40q0 25 17 41t40 16q25 0 41 -16t16 -41q0 -23 -16 -40t-41 -17z" />
    <glyph glyph-name="ring" unicode="&#x2da;" horiz-adv-x="400" 
d="M250 568q-22 0 -41 8t-33 22.5t-22 33.5t-8 40q0 44 30 74t74 30q21 0 40 -8t33.5 -22t22.5 -33t8 -41q0 -21 -8 -40t-22.5 -33.5t-33.5 -22.5t-40 -8zM250 627q18 0 31 13.5t13 31.5t-13 31t-31 13t-31 -13t-13 -31t13 -31.5t31 -13.5z" />
    <glyph glyph-name="tilde" unicode="&#x2dc;" horiz-adv-x="400" 
d="M315 594q-18 0 -33.5 7t-29.5 16q-15 8 -30 15t-33 7q-30 0 -39 -35h-76q8 60 39 89t75 29q18 0 34 -7t31 -15q14 -9 29 -16t32 -7q30 0 39 35h76q-8 -60 -39 -89t-75 -29z" />
    <glyph glyph-name="uni0374" unicode="&#x374;" horiz-adv-x="277" 
d="M181 716h119l-154 -210h-82z" />
    <glyph glyph-name="uni0375" unicode="&#x375;" horiz-adv-x="277" 
d="M156 -88h-116l117 210h80z" />
    <glyph glyph-name="uni037E" unicode="&#x37e;" horiz-adv-x="232" 
d="M129 360q-29 0 -48.5 19.5t-19.5 48.5t19.5 48.5t48.5 19.5t48.5 -19.5t19.5 -48.5t-19.5 -48.5t-48.5 -19.5zM-22 -62l67 81q-5 2 -12 6.5t-13 12t-10.5 18.5t-4.5 25q0 29 20.5 48.5t46.5 19.5q29 0 49 -19.5t20 -48.5q0 -17 -12.5 -35t-29.5 -39l-84 -100z" />
    <glyph glyph-name="tonos" unicode="&#x384;" horiz-adv-x="400" 
d="M168 588l75 128h102l-95 -128h-82z" />
    <glyph glyph-name="dieresistonos" unicode="&#x385;" horiz-adv-x="400" 
d="M367 607q-20 0 -36 16t-16 36q0 23 16 37.5t36 14.5q23 0 37.5 -14.5t14.5 -37.5q0 -20 -14.5 -36t-37.5 -16zM135 607q-20 0 -36 16t-16 36q0 23 16 37.5t36 14.5q23 0 37.5 -14.5t14.5 -37.5q0 -20 -14.5 -36t-37.5 -16zM207 588l25 144h64l-25 -144h-64z" />
    <glyph glyph-name="Alphatonos" unicode="&#x386;" horiz-adv-x="668" 
d="M345 716h104l143 -716h-99l-34 194h-301l-105 -194h-104zM442 280l-60 323h-4l-174 -323h238zM86 588l75 128h102l-95 -128h-82z" />
    <glyph glyph-name="anoteleia" unicode="&#x387;" horiz-adv-x="176" 
d="M88 256q-29 0 -48.5 19.5t-19.5 48.5t19.5 48.5t48.5 19.5t48.5 -19.5t19.5 -48.5t-19.5 -48.5t-48.5 -19.5z" />
    <glyph glyph-name="Epsilontonos" unicode="&#x388;" horiz-adv-x="582" 
d="M251 628l-40 -227h294l-15 -86h-294l-40 -227h326l-16 -88h-418l127 716h418l-16 -88h-326zM-43 588l75 128h102l-95 -128h-82z" />
    <glyph glyph-name="Etatonos" unicode="&#x389;" horiz-adv-x="726" 
d="M175 716h92l-55 -307h358l55 307h92l-127 -716h-92l57 323h-358l-57 -323h-92zM-43 588l75 128h102l-95 -128h-82z" />
    <glyph glyph-name="Iotatonos" unicode="&#x38a;" horiz-adv-x="276" 
d="M175 716h92l-127 -716h-92zM-43 588l75 128h102l-95 -128h-82z" />
    <glyph glyph-name="Omicrontonos" unicode="&#x38c;" horiz-adv-x="773" 
d="M322 -16q-69 0 -128.5 23.5t-104 66.5t-69.5 102.5t-25 131.5q0 82 30.5 158.5t86 135.5t133.5 94.5t173 35.5q68 0 127.5 -23.5t103.5 -66.5t69 -102.5t25 -131.5q0 -82 -30.5 -158.5t-86 -135.5t-133 -94.5t-171.5 -35.5zM331 72q67 0 124.5 28t100.5 74t67.5 105.5
t24.5 121.5q0 57 -19 102t-51.5 76.5t-76.5 48t-94 16.5q-67 0 -125 -28t-100.5 -74t-67 -105t-24.5 -122q0 -57 19 -102t51.5 -76.5t76.5 -48t94 -16.5zM-43 588l75 128h102l-95 -128h-82z" />
    <glyph glyph-name="Upsilontonos" unicode="&#x38e;" horiz-adv-x="666" 
d="M261 0l59 333l-173 383h105l125 -291h4l225 291h111l-305 -383l-59 -333h-92zM-43 588l75 128h102l-95 -128h-82z" />
    <glyph glyph-name="Omegatonos" unicode="&#x38f;" horiz-adv-x="748" 
d="M-43 588l75 128h102l-95 -128h-82zM347 0l23 128q51 12 96 40t79 67t53.5 86.5t19.5 97.5q0 51 -16.5 93t-46.5 71t-72.5 45t-93.5 16q-62 0 -116 -23t-94 -62.5t-63 -92.5t-23 -113q0 -47 13 -83.5t34.5 -64.5t50.5 -47t61 -30l-23 -128h-276l14 88h161l1 4
q-24 18 -47 42t-42 55t-30.5 69.5t-11.5 84.5q0 79 30 149.5t84 123.5t128.5 84.5t163.5 31.5q74 0 131.5 -25t96.5 -67t59.5 -97t20.5 -115q0 -56 -16 -105t-46 -91t-72 -77.5t-93 -62.5l-1 -4h155l-15 -88h-277z" />
    <glyph glyph-name="iotadieresistonos" unicode="&#x390;" horiz-adv-x="220" 
d="M0 0l86 490h92l-86 -490h-92zM278 607q-20 0 -36 16t-16 36q0 23 16 37.5t36 14.5q23 0 37.5 -14.5t14.5 -37.5q0 -20 -14.5 -36t-37.5 -16zM46 607q-20 0 -36 16t-16 36q0 23 16 37.5t36 14.5q23 0 37.5 -14.5t14.5 -37.5q0 -20 -14.5 -36t-37.5 -16zM118 588l25 144h64
l-25 -144h-64z" />
    <glyph glyph-name="Alpha" unicode="&#x391;" horiz-adv-x="668" 
d="M345 716h104l143 -716h-99l-34 194h-301l-105 -194h-104zM442 280l-60 323h-4l-174 -323h238z" />
    <glyph glyph-name="Beta" unicode="&#x392;" horiz-adv-x="594" 
d="M135 716h245q45 0 80 -14t59.5 -38t37 -56t12.5 -67q0 -34 -10.5 -61.5t-28 -48.5t-40.5 -35.5t-47 -23.5l-1 -4q43 -23 69 -58.5t26 -90.5q0 -47 -20 -87t-54.5 -69t-81 -46t-100.5 -17h-273zM339 409q29 0 54 7.5t43.5 22.5t29 37t10.5 51q0 41 -26.5 71t-77.5 30h-161
l-39 -219h167zM301 88q24 0 49.5 8t45.5 23.5t33 40t13 57.5q0 48 -31 77t-84 29h-170l-41 -235h185z" />
    <glyph glyph-name="Gamma" unicode="&#x393;" horiz-adv-x="498" 
d="M135 716h402l-16 -88h-310l-111 -628h-92z" />
    <glyph glyph-name="uni0394" unicode="&#x394;" horiz-adv-x="660" 
d="M341 716h104l139 -716h-635zM101 88h368l-91 515h-4z" />
    <glyph glyph-name="Epsilon" unicode="&#x395;" 
d="M211 628l-40 -227h294l-15 -86h-294l-40 -227h326l-16 -88h-418l127 716h418l-16 -88h-326z" />
    <glyph glyph-name="Zeta" unicode="&#x396;" horiz-adv-x="564" 
d="M-14 96l472 532h-363l16 88h472l-17 -96l-473 -532h383l-16 -88h-491z" />
    <glyph glyph-name="Eta" unicode="&#x397;" horiz-adv-x="686" 
d="M135 716h92l-55 -307h358l55 307h92l-127 -716h-92l57 323h-358l-57 -323h-92z" />
    <glyph glyph-name="Theta" unicode="&#x398;" horiz-adv-x="824" 
d="M241 314l15 88h322l-15 -88h-322zM358 -16q-69 0 -128.5 23.5t-104 66.5t-69.5 102.5t-25 131.5q0 82 30.5 158.5t86 135.5t133.5 94.5t173 35.5q68 0 127.5 -23.5t103.5 -66.5t69 -102.5t25 -131.5q0 -82 -30.5 -158.5t-86 -135.5t-133 -94.5t-171.5 -35.5zM367 72
q67 0 124.5 28t100.5 74t67.5 105.5t24.5 121.5q0 57 -19 102t-51.5 76.5t-76.5 48t-94 16.5q-67 0 -125 -28t-100.5 -74t-67 -105t-24.5 -122q0 -57 19 -102t51.5 -76.5t76.5 -48t94 -16.5z" />
    <glyph glyph-name="Iota" unicode="&#x399;" horiz-adv-x="236" 
d="M135 716h92l-127 -716h-92z" />
    <glyph glyph-name="Kappa" unicode="&#x39a;" horiz-adv-x="610" 
d="M656 712l-382 -367l269 -341l-1 -4h-118l-260 336h-4l-60 -336h-92l127 716h92l-63 -356h4l365 356h124z" />
    <glyph glyph-name="Lambda" unicode="&#x39b;" horiz-adv-x="652" 
d="M337 716h104l135 -716h-98l-103 603h-4l-317 -603h-105z" />
    <glyph glyph-name="Mu" unicode="&#x39c;" horiz-adv-x="830" 
d="M135 716h88l172 -436h4l323 436h99l-127 -716h-92l75 425l25 120h-4l-293 -393h-54l-155 393h-4l-17 -120l-75 -425h-92z" />
    <glyph glyph-name="Nu" unicode="&#x39d;" horiz-adv-x="696" 
d="M135 716h105l256 -557h4l21 138l74 419h92l-127 -716h-88l-269 584h-4l-20 -138l-79 -446h-92z" />
    <glyph glyph-name="Xi" unicode="&#x39e;" horiz-adv-x="490" 
d="M75 628l16 88h434l-16 -88h-434zM-35 0l16 88h433l-16 -88h-433zM52 314l15 88h370l-15 -88h-370z" />
    <glyph glyph-name="Omicron" unicode="&#x39f;" horiz-adv-x="810" 
d="M358 -16q-69 0 -128.5 23.5t-104 66.5t-69.5 102.5t-25 131.5q0 82 30.5 158.5t86 135.5t133.5 94.5t173 35.5q68 0 127.5 -23.5t103.5 -66.5t69 -102.5t25 -131.5q0 -82 -30.5 -158.5t-86 -135.5t-133 -94.5t-171.5 -35.5zM367 72q67 0 124.5 28t100.5 74t67.5 105.5
t24.5 121.5q0 57 -19 102t-51.5 76.5t-76.5 48t-94 16.5q-67 0 -125 -28t-100.5 -74t-67 -105t-24.5 -122q0 -57 19 -102t51.5 -76.5t76.5 -48t94 -16.5z" />
    <glyph glyph-name="Pi" unicode="&#x3a0;" horiz-adv-x="662" 
d="M135 716h518l-127 -716h-92l111 628h-334l-111 -628h-92z" />
    <glyph glyph-name="Rho" unicode="&#x3a1;" horiz-adv-x="564" 
d="M8 0l127 716h238q42 0 78 -13.5t62 -38t40.5 -59t14.5 -75.5q0 -57 -20 -101.5t-55 -75.5t-83.5 -47t-105.5 -16h-152l-52 -290h-92zM321 378q31 0 58.5 8t48.5 25t33 43.5t12 63.5q0 51 -31 80.5t-77 29.5h-154l-44 -250h154z" />
    <glyph glyph-name="Sigma" unicode="&#x3a3;" horiz-adv-x="502" 
d="M188 628l178 -262l-265 -278h325l-16 -88h-433l17 96l260 275l-168 249l17 96h434l-16 -88h-333z" />
    <glyph glyph-name="Tau" unicode="&#x3a4;" horiz-adv-x="540" 
d="M160 0l111 628h-200l16 88h492l-16 -88h-200l-111 -628h-92z" />
    <glyph glyph-name="Upsilon" unicode="&#x3a5;" horiz-adv-x="594" 
d="M189 0l59 333l-173 383h105l125 -291h4l225 291h111l-305 -383l-59 -333h-92z" />
    <glyph glyph-name="Phi" unicode="&#x3a6;" horiz-adv-x="786" 
d="M283 0l10 58q-59 6 -107 27.5t-82.5 56t-53 81t-18.5 103.5q0 70 27.5 128.5t77 102t116.5 69.5t147 32l10 58h92l-11 -59q60 -7 108.5 -29t83 -57.5t53 -82.5t18.5 -104q0 -69 -27.5 -126.5t-76.5 -100t-116.5 -68.5t-148.5 -32l-10 -57h-92zM659 378q0 84 -47 133.5
t-136 59.5l-76 -427q54 6 101 24t82 48t55.5 71t20.5 91zM127 336q0 -83 46.5 -132t134.5 -60l76 427q-52 -6 -98.5 -25t-82 -49t-56 -71t-20.5 -90z" />
    <glyph glyph-name="Chi" unicode="&#x3a7;" horiz-adv-x="632" 
d="M260 375l-167 341h108l126 -272h4l221 272h113l-288 -348l182 -368h-109l-142 293h-4l-243 -293h-108z" />
    <glyph glyph-name="Psi" unicode="&#x3a8;" horiz-adv-x="734" 
d="M284 156q-47 0 -86.5 15.5t-68.5 45t-45.5 73t-16.5 99.5q0 17 1.5 35t5.5 37l45 255h92l-48 -268q-6 -33 -6 -61q0 -69 36.5 -106t106.5 -37l84 472h92l-84 -472q43 0 78.5 15t61.5 41.5t43 62.5t25 79l49 274h92l-52 -290q-11 -64 -39.5 -114.5t-70 -85t-93.5 -52.5
t-110 -18l-27 -156h-92z" />
    <glyph glyph-name="uni03A9" unicode="&#x3a9;" horiz-adv-x="792" 
d="M390 0l23 128q51 12 96 40t79 67t53.5 86.5t19.5 97.5q0 51 -16.5 93t-46.5 71t-72.5 45t-93.5 16q-62 0 -116 -23t-94 -62.5t-63 -92.5t-23 -113q0 -47 13 -83.5t34.5 -64.5t50.5 -47t61 -30l-23 -128h-276l14 88h161l1 4q-24 18 -47 42t-42 55t-30.5 69.5t-11.5 84.5
q0 79 30 149.5t84 123.5t128.5 84.5t163.5 31.5q74 0 131.5 -25t96.5 -67t59.5 -97t20.5 -115q0 -56 -16 -105t-46 -91t-72 -77.5t-93 -62.5l-1 -4h155l-15 -88h-277z" />
    <glyph glyph-name="Iotadieresis" unicode="&#x3aa;" horiz-adv-x="236" 
d="M274 804q-20 0 -36 16t-16 36q0 23 16 37.5t36 14.5q23 0 37.5 -14.5t14.5 -37.5q0 -20 -14.5 -36t-37.5 -16zM122 804q-20 0 -36 16t-16 36q0 23 16 37.5t36 14.5q23 0 37.5 -14.5t14.5 -37.5q0 -20 -14.5 -36t-37.5 -16zM135 716h92l-127 -716h-92z" />
    <glyph glyph-name="Upsilondieresis" unicode="&#x3ab;" horiz-adv-x="594" 
d="M189 0l59 333l-173 383h105l125 -291h4l225 291h111l-305 -383l-59 -333h-92zM449 786q-23 0 -40 17t-17 40q0 25 17 41t40 16q25 0 41 -16t16 -41q0 -23 -16 -40t-41 -17zM281 786q-23 0 -40 17t-17 40q0 25 17 41t40 16q25 0 41 -16t16 -41q0 -23 -16 -40t-41 -17z" />
    <glyph glyph-name="alphatonos" unicode="&#x3ac;" horiz-adv-x="572" 
d="M208 -16q-43 0 -80 16t-64.5 45.5t-43 72t-15.5 95.5q0 57 21.5 109.5t59.5 93.5t90 65.5t113 24.5q50 0 91 -24t62 -60h4l12 68h88l-87 -490h-88l12 68h-4q-25 -34 -66.5 -59t-104.5 -25zM282 422q-38 0 -71.5 -15.5t-58.5 -43t-39 -64.5t-14 -80q0 -71 34.5 -111
t100.5 -40q39 0 73 17.5t58.5 46.5t38.5 66.5t14 77.5q0 72 -39 109t-97 37zM264 588l75 128h102l-95 -128h-82z" />
    <glyph glyph-name="epsilontonos" unicode="&#x3ad;" horiz-adv-x="500" 
d="M249 422q-21 0 -40.5 -4.5t-35 -13.5t-25 -23t-9.5 -33q0 -62 77 -62h70l-13 -74h-86q-20 0 -38 -5t-32.5 -15t-23 -24t-8.5 -32q0 -31 24.5 -49.5t71.5 -18.5q23 0 42 4t36.5 12t34 20.5t34.5 29.5l60 -59q-25 -23 -49 -40.5t-50 -28.5t-54.5 -16.5t-61.5 -5.5
q-42 0 -76 10.5t-58 29t-37 43.5t-13 55q0 49 29 82t80 47v4q-19 11 -35.5 34t-16.5 61q0 35 16 63.5t44 49t66 32t83 11.5q57 0 97.5 -21.5t72.5 -63.5l-70 -55q-20 26 -44.5 41t-61.5 15zM244 588l75 128h102l-95 -128h-82z" />
    <glyph glyph-name="etatonos" unicode="&#x3ae;" 
d="M274 588l75 128h102l-95 -128h-82zM155 422h4q25 36 68 60t98 24q72 0 115.5 -41t43.5 -110q0 -15 -1.5 -34t-5.5 -39l-88 -498h-92l90 510q4 20 4 40q0 45 -27.5 66.5t-73.5 21.5q-30 0 -56.5 -12t-47 -32.5t-34.5 -48t-19 -58.5l-48 -271h-92l86 490h88z" />
    <glyph glyph-name="iotatonos" unicode="&#x3af;" horiz-adv-x="220" 
d="M0 0l86 490h92l-86 -490h-92zM105 588l75 128h102l-95 -128h-82z" />
    <glyph glyph-name="upsilondieresistonos" unicode="&#x3b0;" horiz-adv-x="538" 
d="M211 -16q-40 0 -74 13.5t-58.5 38.5t-38.5 61t-14 81q0 13 1.5 26.5t3.5 27.5l45 258h92l-46 -259q-2 -13 -3 -22t-1 -23q0 -59 30 -88.5t79 -29.5q43 0 75.5 16t54.5 45.5t33.5 70t11.5 89.5q0 54 -10.5 102.5t-30.5 98.5h98q14 -35 25.5 -83.5t11.5 -107.5
q0 -65 -17.5 -122.5t-52.5 -100.5t-88.5 -67.5t-126.5 -24.5zM420 607q-20 0 -36 16t-16 36q0 23 16 37.5t36 14.5q23 0 37.5 -14.5t14.5 -37.5q0 -20 -14.5 -36t-37.5 -16zM188 607q-20 0 -36 16t-16 36q0 23 16 37.5t36 14.5q23 0 37.5 -14.5t14.5 -37.5q0 -20 -14.5 -36
t-37.5 -16zM260 588l25 144h64l-25 -144h-64z" />
    <glyph glyph-name="alpha" unicode="&#x3b1;" horiz-adv-x="572" 
d="M208 -16q-43 0 -80 16t-64.5 45.5t-43 72t-15.5 95.5q0 57 21.5 109.5t59.5 93.5t90 65.5t113 24.5q50 0 91 -24t62 -60h4l12 68h88l-87 -490h-88l12 68h-4q-25 -34 -66.5 -59t-104.5 -25zM282 422q-38 0 -71.5 -15.5t-58.5 -43t-39 -64.5t-14 -80q0 -71 34.5 -111
t100.5 -40q39 0 73 17.5t58.5 46.5t38.5 66.5t14 77.5q0 72 -39 109t-97 37z" />
    <glyph glyph-name="beta" unicode="&#x3b2;" horiz-adv-x="562" 
d="M415 385q38 -21 64 -59.5t26 -97.5q0 -54 -20 -98.5t-54.5 -77t-81 -50.5t-98.5 -18q-42 0 -81.5 18.5t-59.5 49.5h-4l-8 -68l-35 -200h-93l128 732q8 46 26 85.5t47.5 68.5t70.5 45.5t95 16.5q43 0 79 -13.5t61.5 -37t39.5 -54.5t14 -66q0 -67 -33 -109.5t-82 -62.5z
M260 72q26 0 53 10t48.5 29t35 47t13.5 63q0 55 -37 87t-94 32h-32l15 86h29q27 0 53 8.5t46.5 23.5t33 37t12.5 49q0 46 -30.5 73t-79.5 27q-54 0 -89 -35.5t-45 -92.5l-52 -296q-3 -20 -3 -36q0 -52 32.5 -82t90.5 -30z" />
    <glyph glyph-name="gamma" unicode="&#x3b3;" horiz-adv-x="530" 
d="M124 -216l40 224l-129 482h98l92 -386h2l229 386h101l-301 -480l-40 -226h-92z" />
    <glyph glyph-name="delta" unicode="&#x3b4;" horiz-adv-x="560" 
d="M222 -16q-46 0 -85.5 17t-69 47.5t-46 73t-16.5 93.5t16 99t48.5 87t83 65.5t119.5 33.5l-149 144l13 72h400l-15 -84h-265l175 -161q45 -42 66 -88.5t21 -105.5q0 -63 -21 -116.5t-59.5 -93t-93 -61.5t-122.5 -22zM236 68q39 0 73.5 13t60 38.5t40.5 63.5t15 88
q0 34 -11 61.5t-30 47.5t-45 31t-57 11q-40 0 -74 -15t-58.5 -42t-38.5 -64t-14 -81q0 -35 10.5 -63.5t29.5 -48t44.5 -30t54.5 -10.5z" />
    <glyph glyph-name="epsilon" unicode="&#x3b5;" horiz-adv-x="482" 
d="M262 422q-21 0 -40.5 -4.5t-35 -13.5t-25 -23t-9.5 -33q0 -62 77 -62h70l-13 -74h-86q-20 0 -38 -5t-32.5 -15t-23 -24t-8.5 -32q0 -31 24.5 -49.5t71.5 -18.5q23 0 42 4t36.5 12t34 20.5t34.5 29.5l60 -59q-25 -23 -49 -40.5t-50 -28.5t-54.5 -16.5t-61.5 -5.5
q-42 0 -76 10.5t-58 29t-37 43.5t-13 55q0 49 29 82t80 47v4q-19 11 -35.5 34t-16.5 61q0 35 16 63.5t44 49t66 32t83 11.5q57 0 97.5 -21.5t72.5 -63.5l-70 -55q-20 26 -44.5 41t-61.5 15z" />
    <glyph glyph-name="zeta" unicode="&#x3b6;" horiz-adv-x="472" 
d="M250 -84q25 0 42 11t17 34q0 39 -49 39h-120q-67 0 -102.5 35.5t-35.5 89.5q0 48 24.5 81.5t66.5 59.5q9 5 23 14t31.5 20t37.5 23l38 24q44 27 95 59h-251l15 84h384l-15 -82q-85 -55 -154 -100q-29 -19 -57 -37q-29 -19 -52 -34t-38 -25l-18 -12q-39 -25 -39 -62
q0 -25 17.5 -39.5t45.5 -14.5h108q66 0 100 -30.5t34 -84.5q0 -63 -43 -100t-120 -37z" />
    <glyph glyph-name="eta" unicode="&#x3b7;" 
d="M155 422h4q25 36 68 60t98 24q72 0 115.5 -41t43.5 -110q0 -15 -1.5 -34t-5.5 -39l-88 -498h-92l90 510q4 20 4 40q0 45 -27.5 66.5t-73.5 21.5q-30 0 -56.5 -12t-47 -32.5t-34.5 -48t-19 -58.5l-48 -271h-92l86 490h88z" />
    <glyph glyph-name="theta" unicode="&#x3b8;" horiz-adv-x="655" 
d="M264 -16q-52 0 -94 20t-72 58t-46 92t-16 123q0 84 25.5 160.5t70.5 135t107 93t135 34.5q52 0 94 -20t72 -58t46 -92t16 -123q0 -84 -25.5 -160.5t-70.5 -135t-107 -93t-135 -34.5zM276 72q39 0 75.5 19t67 53t52.5 80t31 100h-370q-1 -10 -1 -15v-13q0 -106 38 -165
t107 -59zM362 612q-36 0 -70 -16t-63 -45t-51.5 -68.5t-34.5 -86.5h364q-2 103 -39.5 159.5t-105.5 56.5z" />
    <glyph glyph-name="iota" unicode="&#x3b9;" horiz-adv-x="220" 
d="M0 0l86 490h92l-86 -490h-92z" />
    <glyph glyph-name="kappa" unicode="&#x3ba;" horiz-adv-x="475" 
d="M171 490l-39 -220h4l235 220h120l-1 -4l-256 -232l182 -250l-1 -4h-110l-173 246h-4l-44 -246h-91l86 490h92z" />
    <glyph glyph-name="lambda" unicode="&#x3bb;" horiz-adv-x="498" 
d="M258 706l180 -706h-96l-82 349h-2l-206 -349h-103l281 461l-69 245h97z" />
    <glyph glyph-name="nu" unicode="&#x3bd;" horiz-adv-x="498" 
d="M27 490h98l77 -380h2l213 380h100l-287 -490h-92z" />
    <glyph glyph-name="xi" unicode="&#x3be;" horiz-adv-x="516" 
d="M331 732q65 0 113.5 -28t77.5 -79l-79 -52q-22 37 -50.5 54t-72.5 17q-30 0 -57 -8t-47 -24t-31.5 -39t-11.5 -53q0 -48 34.5 -75t85.5 -27h91l-15 -86h-110q-39 0 -69.5 -10t-52 -28t-33 -42.5t-11.5 -52.5t10 -48.5t27.5 -34t41 -20.5t50.5 -7h65q72 0 106 -30t34 -83
q0 -32 -12.5 -58.5t-34 -45t-51.5 -29t-65 -11.5l15 84q20 0 39 12.5t19 34.5q0 37 -43 37h-82q-49 0 -88.5 13.5t-67.5 37.5t-43.5 57t-15.5 72q0 72 38 121.5t114 81.5l1 4q-11 8 -23.5 19.5t-23.5 28t-18 38t-7 50.5q0 41 17.5 78.5t50 66.5t79.5 46.5t106 17.5z" />
    <glyph glyph-name="omicron" unicode="&#x3bf;" horiz-adv-x="560" 
d="M298 506q51 0 93.5 -18.5t72.5 -50.5t46.5 -74.5t16.5 -90.5q0 -61 -22 -113.5t-61 -91.5t-93 -61t-117 -22q-51 0 -93.5 18.5t-72.5 50.5t-46.5 74.5t-16.5 90.5q0 61 22 113.5t61 91.5t93 61t117 22zM243 68q44 0 79.5 16.5t60 44t37.5 63t13 74.5q0 34 -11.5 62.5
t-31 49.5t-46 32.5t-55.5 11.5q-44 0 -79.5 -16.5t-60 -44t-37.5 -63t-13 -74.5q0 -34 11.5 -62.5t31 -49.5t46 -32.5t55.5 -11.5z" />
    <glyph glyph-name="pi" unicode="&#x3c0;" horiz-adv-x="694" 
d="M526 -8q-51 0 -85.5 29t-34.5 84q0 8 0.5 18t4.5 32l44 251h-210l-71 -406h-92l71 406h-120l15 84h634l-15 -84h-120l-42 -238q-2 -11 -2.5 -18.5t-0.5 -17.5q0 -22 11 -38t36 -16q17 0 25.5 2t19.5 7l15 -82q-20 -7 -39.5 -10t-43.5 -3z" />
    <glyph glyph-name="rho" unicode="&#x3c1;" horiz-adv-x="576" 
d="M259 -16q-27 0 -52 7t-45 18.5t-34.5 26.5t-21.5 32h-4l-8 -68l-38 -216h-91l80 460q10 56 33.5 104t60.5 83t87 55t112 20q43 0 80.5 -16t65.5 -45.5t43.5 -72t15.5 -95.5q0 -55 -21.5 -107.5t-59 -94t-90 -66.5t-113.5 -25zM268 68q37 0 70 16t58 44t39 64.5t14 78.5
q0 71 -34.5 110t-94.5 39q-41 0 -75.5 -17t-60 -45.5t-40 -67t-14.5 -80.5q0 -70 39 -106t99 -36z" />
    <glyph glyph-name="uni03C2" unicode="&#x3c2;" horiz-adv-x="519" 
d="M255 -16q-57 0 -103 16t-79 45.5t-50.5 72t-17.5 96.5q0 63 22.5 116.5t61.5 92.5t92.5 61t116.5 22q45 0 79 -12.5t58.5 -32.5t39.5 -45.5t22 -50.5l-88 -34q-12 42 -41.5 66.5t-80.5 24.5q-41 0 -75.5 -15.5t-59.5 -42.5t-39 -64t-14 -79q0 -32 9 -59.5t28.5 -48.5
t49.5 -33t73 -12h25q63 0 101.5 -29t38.5 -83q0 -32 -12 -57.5t-33.5 -44t-51 -28.5t-65.5 -10l15 84q26 0 42 12.5t16 34.5q0 15 -11 26t-37 11h-32z" />
    <glyph glyph-name="sigma" unicode="&#x3c3;" horiz-adv-x="593" 
d="M221 -16q-47 0 -86.5 15.5t-68.5 44t-45 69t-16 90.5q0 55 19 106.5t55.5 91.5t90.5 64.5t124 24.5h313l-15 -84h-70l-67 4l-1 -4q18 -20 33 -54.5t15 -85.5q0 -63 -22.5 -115t-61 -89t-89.5 -57.5t-108 -20.5zM232 68q36 0 68.5 13.5t56.5 38.5t38 60t14 77q0 35 -10 63
t-27 47t-40 29t-48 10q-41 0 -75 -15.5t-58.5 -42t-38 -62.5t-13.5 -77q0 -70 38 -105.5t95 -35.5z" />
    <glyph glyph-name="tau" unicode="&#x3c4;" horiz-adv-x="452" 
d="M47 490h404l-15 -84h-156l-72 -406h-92l72 406h-156z" />
    <glyph glyph-name="upsilon" unicode="&#x3c5;" horiz-adv-x="538" 
d="M211 -16q-40 0 -74 13.5t-58.5 38.5t-38.5 61t-14 81q0 13 1.5 26.5t3.5 27.5l45 258h92l-46 -259q-2 -13 -3 -22t-1 -23q0 -59 30 -88.5t79 -29.5q43 0 75.5 16t54.5 45.5t33.5 70t11.5 89.5q0 54 -10.5 102.5t-30.5 98.5h98q14 -35 25.5 -83.5t11.5 -107.5
q0 -65 -17.5 -122.5t-52.5 -100.5t-88.5 -67.5t-126.5 -24.5z" />
    <glyph glyph-name="phi" unicode="&#x3c6;" horiz-adv-x="718" 
d="M218 -216l35 204q-50 6 -91.5 26t-71 50t-45.5 69t-16 85q0 52 16.5 96t46.5 80t72 64t92 48l25 -82q-70 -27 -113.5 -75.5t-43.5 -123.5q0 -34 11.5 -60t31 -45.5t46 -31.5t55.5 -17l51 289q6 31 18.5 57.5t33 46t49 31t66.5 11.5q40 0 73.5 -17t57.5 -47t37 -71t13 -89
q0 -63 -23.5 -115t-66 -90.5t-101.5 -62t-131 -28.5l-35 -202h-92zM360 70q46 5 85 20.5t67.5 42t44 64t15.5 87.5q0 28 -6.5 52.5t-19 42.5t-30 28.5t-39.5 10.5q-21 0 -40 -12t-24 -39z" />
    <glyph glyph-name="chi" unicode="&#x3c7;" horiz-adv-x="472" 
d="M294 0l-90 182h-1l-149 -182h-111l216 252l-124 238h104l86 -172h1l143 172h112l-213 -243l130 -247h-104z" />
    <glyph glyph-name="psi" unicode="&#x3c8;" horiz-adv-x="684" 
d="M232 -16q-47 0 -85.5 14t-67 40t-44 62.5t-15.5 81.5q0 26 4 49l46 259h92l-46 -259q-2 -8 -3 -19t-1 -20q0 -33 11.5 -56.5t30.5 -38.5t43 -22t50 -7l75 422h92l-75 -422q54 0 93.5 21t64.5 54.5t37 77t12 88.5q0 54 -8 96t-25 85h95q13 -35 22 -80.5t9 -101.5
q0 -74 -23.5 -133.5t-65 -102t-99.5 -65.5t-127 -23l-35 -200h-92z" />
    <glyph glyph-name="omega" unicode="&#x3c9;" horiz-adv-x="776" 
d="M502 -16q-50 0 -85.5 23t-54.5 66q-63 -89 -167 -89q-36 0 -67.5 13.5t-55 39.5t-37 63.5t-13.5 85.5q0 47 11 90.5t28.5 82t38.5 71.5t41 60h104q-24 -30 -47.5 -64.5t-41.5 -72t-29.5 -76.5t-11.5 -79q0 -63 25 -96.5t68 -33.5q45 0 82.5 42t51.5 121l25 139h88
l-25 -139q-3 -18 -4 -31t-1 -29q0 -48 24.5 -75.5t67.5 -27.5q38 0 65.5 20t45 51.5t26 71t8.5 78.5q0 56 -11.5 103.5t-31.5 97.5h100q14 -40 24.5 -88.5t10.5 -114.5q0 -50 -15 -103.5t-46 -98t-78.5 -73t-112.5 -28.5z" />
    <glyph glyph-name="iotadieresis" unicode="&#x3ca;" horiz-adv-x="220" 
d="M86 602q-23 0 -40 17t-17 40q0 25 17 41t40 16q25 0 41 -16t16 -41q0 -23 -16 -40t-41 -17zM222 602q-23 0 -40 17t-17 40q0 25 17 41t40 16q25 0 41 -16t16 -41q0 -23 -16 -40t-41 -17zM0 0l86 490h92l-86 -490h-92z" />
    <glyph glyph-name="upsilondieresis" unicode="&#x3cb;" horiz-adv-x="538" 
d="M211 -16q-40 0 -74 13.5t-58.5 38.5t-38.5 61t-14 81q0 13 1.5 26.5t3.5 27.5l45 258h92l-46 -259q-2 -13 -3 -22t-1 -23q0 -59 30 -88.5t79 -29.5q43 0 75.5 16t54.5 45.5t33.5 70t11.5 89.5q0 54 -10.5 102.5t-30.5 98.5h98q14 -35 25.5 -83.5t11.5 -107.5
q0 -65 -17.5 -122.5t-52.5 -100.5t-88.5 -67.5t-126.5 -24.5zM383 602q-23 0 -40 17t-17 40q0 25 17 41t40 16q25 0 41 -16t16 -41q0 -23 -16 -40t-41 -17zM215 602q-23 0 -40 17t-17 40q0 25 17 41t40 16q25 0 41 -16t16 -41q0 -23 -16 -40t-41 -17z" />
    <glyph glyph-name="omicrontonos" unicode="&#x3cc;" horiz-adv-x="560" 
d="M298 506q51 0 93.5 -18.5t72.5 -50.5t46.5 -74.5t16.5 -90.5q0 -61 -22 -113.5t-61 -91.5t-93 -61t-117 -22q-51 0 -93.5 18.5t-72.5 50.5t-46.5 74.5t-16.5 90.5q0 61 22 113.5t61 91.5t93 61t117 22zM243 68q44 0 79.5 16.5t60 44t37.5 63t13 74.5q0 34 -11.5 62.5
t-31 49.5t-46 32.5t-55.5 11.5q-44 0 -79.5 -16.5t-60 -44t-37.5 -63t-13 -74.5q0 -34 11.5 -62.5t31 -49.5t46 -32.5t55.5 -11.5zM272 588l75 128h102l-95 -128h-82z" />
    <glyph glyph-name="upsilontonos" unicode="&#x3cd;" horiz-adv-x="538" 
d="M211 -16q-40 0 -74 13.5t-58.5 38.5t-38.5 61t-14 81q0 13 1.5 26.5t3.5 27.5l45 258h92l-46 -259q-2 -13 -3 -22t-1 -23q0 -59 30 -88.5t79 -29.5q43 0 75.5 16t54.5 45.5t33.5 70t11.5 89.5q0 54 -10.5 102.5t-30.5 98.5h98q14 -35 25.5 -83.5t11.5 -107.5
q0 -65 -17.5 -122.5t-52.5 -100.5t-88.5 -67.5t-126.5 -24.5zM244 588l75 128h102l-95 -128h-82z" />
    <glyph glyph-name="omegatonos" unicode="&#x3ce;" horiz-adv-x="776" 
d="M502 -16q-50 0 -85.5 23t-54.5 66q-63 -89 -167 -89q-36 0 -67.5 13.5t-55 39.5t-37 63.5t-13.5 85.5q0 47 11 90.5t28.5 82t38.5 71.5t41 60h104q-24 -30 -47.5 -64.5t-41.5 -72t-29.5 -76.5t-11.5 -79q0 -63 25 -96.5t68 -33.5q45 0 82.5 42t51.5 121l25 139h88
l-25 -139q-3 -18 -4 -31t-1 -29q0 -48 24.5 -75.5t67.5 -27.5q38 0 65.5 20t45 51.5t26 71t8.5 78.5q0 56 -11.5 103.5t-31.5 97.5h100q14 -40 24.5 -88.5t10.5 -114.5q0 -50 -15 -103.5t-46 -98t-78.5 -73t-112.5 -28.5zM392 588l75 128h102l-95 -128h-82z" />
    <glyph glyph-name="uni03D1" unicode="&#x3d1;" horiz-adv-x="624" 
d="M214 -16q-41 0 -76 13t-60.5 37t-39.5 59t-14 79q0 15 1.5 28.5t3.5 27.5l46 262h92l-45 -253q-2 -14 -3.5 -27t-1.5 -24q0 -60 30.5 -89t81.5 -29q69 0 110.5 42t55.5 121l8 48q-39 9 -71 30.5t-55.5 53t-36.5 71.5t-13 87q0 44 13 82.5t37 67t59 45t80 16.5
q35 0 60 -10.5t41 -28.5t23.5 -42.5t7.5 -52.5q0 -9 -0.5 -20t-4.5 -31l-33 -185h90l-15 -84h-90l-11 -66q-9 -49 -32 -91t-58 -72.5t-80.5 -47.5t-99.5 -17zM454 568q1 5 1.5 11t0.5 12q0 21 -13.5 38t-41.5 17q-20 0 -35.5 -10.5t-26 -27t-16 -38t-5.5 -43.5
q0 -55 26 -100t75 -62z" />
    <glyph glyph-name="uni03D2" unicode="&#x3d2;" horiz-adv-x="596" 
d="M587 724q38 0 69 -20l-41 -78q-7 4 -13.5 6t-15.5 2q-20 0 -38 -14t-44 -52l-169 -251l-56 -317h-92l56 317l-81 251q-12 38 -24.5 52t-31.5 14q-8 0 -16.5 -2.5t-13.5 -5.5l-27 81q11 5 33 11t45 6q81 0 111 -99l64 -216h4l134 210q21 33 39 53.5t35 32t35 15.5t38 4z
" />
    <glyph glyph-name="uni03D3" unicode="&#x3d3;" horiz-adv-x="677" 
d="M668 724q38 0 69 -20l-41 -78q-7 4 -13.5 6t-15.5 2q-20 0 -38 -14t-44 -52l-169 -251l-56 -317h-92l56 317l-81 251q-12 38 -24.5 52t-31.5 14q-8 0 -16.5 -2.5t-13.5 -5.5l-27 81q11 5 33 11t45 6q81 0 111 -99l64 -216h4l134 210q21 33 39 53.5t35 32t35 15.5t38 4z
M-63 588l75 128h102l-95 -128h-82z" />
    <glyph glyph-name="uni03D4" unicode="&#x3d4;" horiz-adv-x="596" 
d="M587 724q38 0 69 -20l-41 -78q-7 4 -13.5 6t-15.5 2q-20 0 -38 -14t-44 -52l-169 -251l-56 -317h-92l56 317l-81 251q-12 38 -24.5 52t-31.5 14q-8 0 -16.5 -2.5t-13.5 -5.5l-27 81q11 5 33 11t45 6q81 0 111 -99l64 -216h4l134 210q21 33 39 53.5t35 32t35 15.5t38 4z
M446 786q-23 0 -40 17t-17 40q0 25 17 41t40 16q25 0 41 -16t16 -41q0 -23 -16 -40t-41 -17zM278 786q-23 0 -40 17t-17 40q0 25 17 41t40 16q25 0 41 -16t16 -41q0 -23 -16 -40t-41 -17z" />
    <glyph glyph-name="uni03D6" unicode="&#x3d6;" horiz-adv-x="888" 
d="M234 -16q-36 0 -68 13t-56 38.5t-38.5 62t-14.5 84.5q0 61 18 115.5t49 108.5h-76l15 84h808l-15 -84h-81q6 -26 10 -57.5t4 -70.5q0 -52 -16.5 -104.5t-48.5 -94.5t-78.5 -68.5t-107.5 -26.5q-48 0 -84 23t-56 68q-31 -45 -72 -68t-92 -23zM394 318h88l-16 -88
q-2 -12 -3.5 -26.5t-1.5 -26.5q0 -54 22.5 -81.5t59.5 -27.5q40 0 69 19.5t47.5 50t27.5 68t9 74.5q0 30 -5.5 62t-15.5 64h-447q-32 -50 -55 -104.5t-23 -115.5q0 -57 25 -87.5t68 -30.5q45 0 83 41.5t52 120.5z" />
    <glyph glyph-name="uni0400" unicode="&#x400;" 
d="M211 628l-40 -227h294l-15 -86h-294l-40 -227h326l-16 -88h-418l127 716h418l-16 -88h-326zM312 772l-49 128h98l29 -128h-78z" />
    <glyph glyph-name="uni0401" unicode="&#x401;" 
d="M211 628l-40 -227h294l-15 -86h-294l-40 -227h326l-16 -88h-418l127 716h418l-16 -88h-326zM430 786q-23 0 -40 17t-17 40q0 25 17 41t40 16q25 0 41 -16t16 -41q0 -23 -16 -40t-41 -17zM262 786q-23 0 -40 17t-17 40q0 25 17 41t40 16q25 0 41 -16t16 -41q0 -23 -16 -40
t-41 -17z" />
    <glyph glyph-name="uni0402" unicode="&#x402;" horiz-adv-x="751" 
d="M697 237q0 -48 -18 -91t-51 -75.5t-79 -51.5t-101 -19h-34l16 88h24q31 0 58 10.5t46.5 29.5t31 45.5t11.5 59.5q0 53 -35 85.5t-98 32.5q-52 0 -99 -21t-79 -56l-49 -274h-92l111 628h-189l16 88h474l-16 -88h-193l-33 -190l-16 -68h4q32 30 77.5 49t106.5 19
q42 0 79 -13t65.5 -38.5t45 -63t16.5 -86.5z" />
    <glyph glyph-name="uni0403" unicode="&#x403;" horiz-adv-x="510" 
d="M135 716h414l-16 -88h-322l-111 -628h-92zM292 772l75 128h102l-95 -128h-82z" />
    <glyph glyph-name="uni0404" unicode="&#x404;" horiz-adv-x="725" 
d="M341 -16q-64 0 -120.5 23.5t-98.5 67t-66.5 106.5t-24.5 143q0 79 31.5 153t88 130.5t136 90.5t175.5 34q81 0 140.5 -27t110.5 -90l-73 -64q-34 45 -82 69t-111 24q-55 0 -106.5 -17.5t-93.5 -49t-73 -76.5t-44 -100h338l-15 -86h-332q1 -56 19 -101t49.5 -76.5
t74 -48.5t92.5 -17q73 0 127 26.5t107 77.5l58 -64q-65 -63 -137 -95.5t-170 -32.5z" />
    <glyph glyph-name="uni0405" unicode="&#x405;" horiz-adv-x="553" 
d="M224 -16q-43 0 -81 12.5t-68.5 37.5t-50.5 61t-27 83l89 36q3 -30 13.5 -55.5t29.5 -45t45.5 -30.5t60.5 -11q29 0 57.5 9.5t50.5 27t35.5 42t13.5 55.5q0 45 -30 72.5t-97 53.5l-43 16q-27 10 -52.5 25t-45.5 36.5t-32.5 50t-12.5 66.5q0 45 19.5 83t52.5 65t77 42.5
t93 15.5q53 0 91 -15t63 -37.5t38 -48.5t16 -47l-89 -33q-2 14 -9 30.5t-22 30.5t-38 23t-57 9q-28 0 -53.5 -7.5t-44.5 -21.5t-30 -34.5t-11 -46.5q0 -42 28.5 -67t80.5 -44l43 -16q33 -12 62.5 -29.5t51 -40t34.5 -52t13 -65.5q0 -55 -20.5 -99t-56 -74.5t-84 -46.5
t-103.5 -16z" />
    <glyph glyph-name="uni0406" unicode="&#x406;" horiz-adv-x="236" 
d="M135 716h92l-127 -716h-92z" />
    <glyph glyph-name="uni0407" unicode="&#x407;" horiz-adv-x="236" 
d="M276 804q-20 0 -36 16t-16 36q0 23 16 37.5t36 14.5q23 0 37.5 -14.5t14.5 -37.5q0 -20 -14.5 -36t-37.5 -16zM124 804q-20 0 -36 16t-16 36q0 23 16 37.5t36 14.5q23 0 37.5 -14.5t14.5 -37.5q0 -20 -14.5 -36t-37.5 -16zM135 716h92l-127 -716h-92z" />
    <glyph glyph-name="uni0408" unicode="&#x408;" horiz-adv-x="524" 
d="M185 -16q-39 0 -73 11.5t-60 33.5t-42.5 52.5t-20.5 68.5l90 35q3 -32 13.5 -53.5t26.5 -34.5t36 -19t42 -6q29 0 54 11t45 30.5t33.5 45.5t18.5 55l88 502h92l-87 -494q-11 -62 -34.5 -106.5t-57.5 -74t-75.5 -43.5t-88.5 -14z" />
    <glyph glyph-name="uni0409" unicode="&#x409;" horiz-adv-x="1064" 
d="M8 80q20 0 37 7t31 18q26 20 41 68.5t29 126.5l73 416h478l-53 -302h172q42 0 77 -12.5t60.5 -36t40 -58.5t14.5 -80q0 -51 -19 -93t-53 -71.5t-81.5 -46t-103.5 -16.5h-272l111 628h-294l-60 -338q-9 -54 -20.5 -95t-25.5 -72t-30 -52.5t-35 -37.5q-28 -24 -58.5 -32.5
t-72.5 -8.5q-7 0 -16 0.5t-17 2.5l16 90q7 -3 15 -4t16 -1zM771 88q31 0 57 10t45 27.5t29.5 41.5t10.5 53q0 48 -29.5 77t-80.5 29h-175l-42 -238h185z" />
    <glyph glyph-name="uni040A" unicode="&#x40a;" horiz-adv-x="1004" 
d="M8 0l127 716h92l-54 -302h318l54 302h92l-54 -302h173q42 0 77 -12.5t60.5 -36t40 -58.5t14.5 -80q0 -51 -19 -93t-53 -71.5t-81.5 -46t-103.5 -16.5h-273l58 326h-318l-58 -326h-92zM711 88q31 0 57 10t45 27.5t29.5 41.5t10.5 53q0 48 -29.5 77t-80.5 29h-175l-42 -238
h185z" />
    <glyph glyph-name="uni040B" unicode="&#x40b;" horiz-adv-x="745" 
d="M241 0h-92l111 628h-189l16 88h474l-16 -88h-193l-33 -190l-16 -68h4q33 29 77 48.5t103 19.5q41 0 75 -12t58.5 -35t38 -56t13.5 -74q0 -12 -1.5 -24t-3.5 -26l-38 -211h-94l37 208q3 19 3 37q0 45 -30 75.5t-90 30.5q-51 0 -92 -21t-73 -56z" />
    <glyph glyph-name="uni040C" unicode="&#x40c;" horiz-adv-x="610" 
d="M656 712l-382 -367l269 -341l-1 -4h-118l-260 336h-4l-60 -336h-92l127 716h92l-63 -356h4l365 356h124zM331 772l75 128h102l-95 -128h-82z" />
    <glyph glyph-name="uni040D" unicode="&#x40d;" horiz-adv-x="688" 
d="M552 0h-92l79 446l28 138h-4l-456 -584h-99l127 716h92l-74 -419l-29 -138h4l436 557h115zM368 772l-49 128h98l29 -128h-78z" />
    <glyph glyph-name="uni040E" unicode="&#x40e;" horiz-adv-x="602" 
d="M256 85q-64 -101 -158 -101q-29 0 -48 5t-32 11l38 85q19 -13 46 -13q30 0 47.5 13.5t35.5 41.5l38 59l-147 530h101l107 -424h4l255 424h111zM366 770q-24 0 -44.5 8t-35.5 22t-24 33t-9 42q0 5 0.5 10.5t1.5 10.5h74q-1 -4 -1 -11q0 -19 11.5 -32.5t34.5 -13.5
q25 0 42 15t22 42h73q-11 -65 -49.5 -95.5t-95.5 -30.5z" />
    <glyph glyph-name="uni040F" unicode="&#x40f;" horiz-adv-x="662" 
d="M210 -152l26 152h-214l126 716h92l-111 -628h334l111 628h92l-126 -716h-216l-26 -152h-88z" />
    <glyph glyph-name="uni0410" unicode="&#x410;" horiz-adv-x="668" 
d="M345 716h104l143 -716h-99l-34 194h-301l-105 -194h-104zM442 280l-60 323h-4l-174 -323h238z" />
    <glyph glyph-name="uni0411" unicode="&#x411;" horiz-adv-x="594" 
d="M346 414q42 0 77 -12.5t60.5 -36t40 -58.5t14.5 -80q0 -51 -19 -93t-53 -71.5t-81.5 -46t-103.5 -16.5h-273l127 716h418l-16 -88h-326l-38 -214h173zM301 88q31 0 57 10t45 27.5t29.5 41.5t10.5 53q0 48 -29.5 77t-80.5 29h-175l-42 -238h185z" />
    <glyph glyph-name="uni0412" unicode="&#x412;" horiz-adv-x="594" 
d="M135 716h245q45 0 80 -14t59.5 -38t37 -56t12.5 -67q0 -34 -10.5 -61.5t-28 -48.5t-40.5 -35.5t-47 -23.5l-1 -4q43 -23 69 -58.5t26 -90.5q0 -47 -20 -87t-54.5 -69t-81 -46t-100.5 -17h-273zM339 409q29 0 54 7.5t43.5 22.5t29 37t10.5 51q0 41 -26.5 71t-77.5 30h-161
l-39 -219h167zM301 88q24 0 49.5 8t45.5 23.5t33 40t13 57.5q0 48 -31 77t-84 29h-170l-41 -235h185z" />
    <glyph glyph-name="uni0413" unicode="&#x413;" horiz-adv-x="498" 
d="M135 716h402l-16 -88h-310l-111 -628h-92z" />
    <glyph glyph-name="uni0414" unicode="&#x414;" horiz-adv-x="775" 
d="M-36 -152l41 240h67q30 26 55.5 69.5t46 97.5t36.5 114.5t27 120.5l40 226h454l-111 -628h80l-42 -240h-88l26 152h-519l-26 -152h-87zM319 446q-21 -118 -54 -206.5t-84 -151.5h347l96 540h-272z" />
    <glyph glyph-name="uni0415" unicode="&#x415;" 
d="M211 628l-40 -227h294l-15 -86h-294l-40 -227h326l-16 -88h-418l127 716h418l-16 -88h-326z" />
    <glyph glyph-name="uni0416" unicode="&#x416;" horiz-adv-x="900" 
d="M432 0h-92l58 328h-4l-329 -328h-123l1 4l357 356l-220 352l1 4h108l212 -348h4l62 348h92l-62 -348h4l331 348h117l-1 -4l-353 -366l235 -342l-1 -4h-115l-220 328h-4z" />
    <glyph glyph-name="uni0417" unicode="&#x417;" horiz-adv-x="546" 
d="M220 -16q-32 0 -67.5 10.5t-67 32t-55 56t-29.5 82.5l93 35q5 -57 39.5 -92.5t95.5 -35.5q31 0 59.5 10.5t50.5 30t34.5 46.5t12.5 60q0 24 -9.5 44.5t-26.5 35.5t-40 24t-50 9h-62l15 86h54q27 0 54.5 9t49.5 25.5t36 41t14 55.5q0 21 -9 38.5t-24 30t-35.5 19.5
t-43.5 7q-29 0 -52 -8.5t-40 -22.5t-28.5 -31.5t-17.5 -34.5l-80 36q11 26 30.5 52.5t48 48t65.5 35t84 13.5q43 0 79 -13t62 -35.5t41 -53.5t15 -67q0 -63 -33.5 -108t-90.5 -74l-1 -4q17 -9 33.5 -23.5t29 -34t20 -44t7.5 -52.5q0 -53 -20.5 -96.5t-55.5 -75.5
t-82.5 -49.5t-102.5 -17.5z" />
    <glyph glyph-name="uni0418" unicode="&#x418;" horiz-adv-x="688" 
d="M552 0h-92l79 446l28 138h-4l-456 -584h-99l127 716h92l-74 -419l-29 -138h4l436 557h115z" />
    <glyph glyph-name="uni0419" unicode="&#x419;" horiz-adv-x="688" 
d="M410 770q-24 0 -44.5 8t-35.5 22t-24 33t-9 42q0 5 0.5 10.5t1.5 10.5h74q-1 -4 -1 -11q0 -19 11.5 -32.5t34.5 -13.5q25 0 42 15t22 42h73q-11 -65 -49.5 -95.5t-95.5 -30.5zM552 0h-92l79 446l28 138h-4l-456 -584h-99l127 716h92l-74 -419l-29 -138h4l436 557h115z
" />
    <glyph glyph-name="uni041A" unicode="&#x41a;" horiz-adv-x="610" 
d="M656 712l-382 -367l269 -341l-1 -4h-118l-260 336h-4l-60 -336h-92l127 716h92l-63 -356h4l365 356h124z" />
    <glyph glyph-name="uni041B" unicode="&#x41b;" horiz-adv-x="706" 
d="M8 80q20 0 37 7t31 18q26 20 41 68.5t29 126.5l73 416h478l-126 -716h-92l111 628h-294l-60 -338q-9 -54 -20.5 -95t-25.5 -72t-30 -52.5t-35 -37.5q-28 -24 -58.5 -32.5t-72.5 -8.5q-7 0 -16 0.5t-17 2.5l16 90q7 -3 15 -4t16 -1z" />
    <glyph glyph-name="uni041C" unicode="&#x41c;" horiz-adv-x="854" 
d="M135 716h88l172 -436h4l323 436h99l-127 -716h-92l75 425l25 120h-4l-293 -393h-54l-155 393h-4l-17 -120l-75 -425h-92z" />
    <glyph glyph-name="uni041D" unicode="&#x41d;" horiz-adv-x="686" 
d="M135 716h92l-55 -307h358l55 307h92l-127 -716h-92l57 323h-358l-57 -323h-92z" />
    <glyph glyph-name="uni041E" unicode="&#x41e;" horiz-adv-x="817" 
d="M358 -16q-69 0 -128.5 23.5t-104 66.5t-69.5 102.5t-25 131.5q0 82 30.5 158.5t86 135.5t133.5 94.5t173 35.5q68 0 127.5 -23.5t103.5 -66.5t69 -102.5t25 -131.5q0 -82 -30.5 -158.5t-86 -135.5t-133 -94.5t-171.5 -35.5zM367 72q67 0 124.5 28t100.5 74t67.5 105.5
t24.5 121.5q0 57 -19 102t-51.5 76.5t-76.5 48t-94 16.5q-67 0 -125 -28t-100.5 -74t-67 -105t-24.5 -122q0 -57 19 -102t51.5 -76.5t76.5 -48t94 -16.5z" />
    <glyph glyph-name="uni041F" unicode="&#x41f;" horiz-adv-x="662" 
d="M135 716h518l-127 -716h-92l111 628h-334l-111 -628h-92z" />
    <glyph glyph-name="uni0420" unicode="&#x420;" horiz-adv-x="564" 
d="M8 0l127 716h238q42 0 78 -13.5t62 -38t40.5 -59t14.5 -75.5q0 -57 -20 -101.5t-55 -75.5t-83.5 -47t-105.5 -16h-152l-52 -290h-92zM321 378q31 0 58.5 8t48.5 25t33 43.5t12 63.5q0 51 -31 80.5t-77 29.5h-154l-44 -250h154z" />
    <glyph glyph-name="uni0421" unicode="&#x421;" horiz-adv-x="729" 
d="M652 111q-34 -32 -68 -56t-70.5 -40t-77.5 -23.5t-89 -7.5q-69 0 -127 23t-100 65t-65.5 101t-23.5 132q0 83 32.5 160t90.5 136.5t137.5 95t173.5 35.5q42 0 79 -9.5t68.5 -25.5t56.5 -38t41 -47l-74 -61q-33 48 -76 70.5t-105 22.5q-69 0 -129.5 -28t-105 -74.5
t-70 -106.5t-25.5 -125q0 -54 17.5 -98t49 -75t74 -48t92.5 -17q75 0 130 28.5t105 77.5z" />
    <glyph glyph-name="uni0422" unicode="&#x422;" horiz-adv-x="546" 
d="M160 0l111 628h-200l16 88h492l-16 -88h-200l-111 -628h-92z" />
    <glyph glyph-name="uni0423" unicode="&#x423;" horiz-adv-x="602" 
d="M256 85q-64 -101 -158 -101q-29 0 -48 5t-32 11l38 85q19 -13 46 -13q30 0 47.5 13.5t35.5 41.5l38 59l-147 530h101l107 -424h4l255 424h111z" />
    <glyph glyph-name="uni0424" unicode="&#x424;" horiz-adv-x="802" 
d="M283 -48l19 106q-62 7 -112 29t-85 57.5t-54 82.5t-19 104q0 75 30.5 134t82 100.5t119.5 64.5t143 28l19 106h92l-19 -107q63 -7 113 -29t85 -57.5t53.5 -82.5t18.5 -103q0 -76 -30 -135t-81.5 -100t-120 -64.5t-144.5 -28.5l-18 -105h-92zM127 337q0 -82 49.5 -132
t140.5 -61l75 428q-53 -5 -101 -23t-84.5 -47.5t-58 -71t-21.5 -93.5zM674 375q0 84 -49 134.5t-141 61.5l-75 -427q54 6 102 23.5t84 46.5t57.5 69.5t21.5 91.5z" />
    <glyph glyph-name="uni0425" unicode="&#x425;" horiz-adv-x="632" 
d="M260 375l-167 341h108l126 -272h4l221 272h113l-288 -348l182 -368h-109l-142 293h-4l-243 -293h-108z" />
    <glyph glyph-name="uni0426" unicode="&#x426;" horiz-adv-x="690" 
d="M480 -168l29 168h-486l126 716h92l-110 -628h310l110 628h92l-111 -628h85l-45 -256h-92z" />
    <glyph glyph-name="uni0427" unicode="&#x427;" horiz-adv-x="586" 
d="M505 716h92l-127 -716h-92l57 322q-32 -26 -74.5 -44t-109.5 -18q-39 0 -74 11.5t-61 34t-41.5 56.5t-15.5 79q0 13 1.5 26.5t3.5 27.5l39 221h94l-40 -226q-3 -20 -3 -33q0 -53 33.5 -81.5t96.5 -28.5q51 0 94 21t75 56z" />
    <glyph glyph-name="uni0428" unicode="&#x428;" horiz-adv-x="896" 
d="M8 0l127 716h92l-111 -628h237l112 628h92l-111 -628h238l111 628h92l-127 -716h-752z" />
    <glyph glyph-name="uni0429" unicode="&#x429;" horiz-adv-x="948" 
d="M723 -168l29 168h-744l127 716h92l-111 -628h237l112 628h92l-111 -628h238l111 628h92l-112 -628h85l-45 -256h-92z" />
    <glyph glyph-name="uni042A" unicode="&#x42a;" horiz-adv-x="743" 
d="M149 0l111 628h-189l16 88h281l-47 -262h149q50 0 90.5 -14t69.5 -40.5t45 -64t16 -85.5q0 -54 -20.5 -100t-57.5 -79t-89 -52t-116 -19h-259zM306 366l-50 -278h169q36 0 67.5 11t54 31t35.5 48t13 62q0 57 -34.5 91.5t-93.5 34.5h-161z" />
    <glyph glyph-name="uni042B" unicode="&#x42b;" horiz-adv-x="806" 
d="M8 0l127 716h92l-47 -262h149q50 0 90.5 -14t69.5 -40.5t45 -64t16 -85.5q0 -54 -20.5 -100t-57.5 -79t-89 -52t-116 -19h-259zM165 366l-50 -278h169q36 0 67.5 11t54 31t35.5 48t13 62q0 57 -34.5 91.5t-93.5 34.5h-161zM705 716h92l-127 -716h-92z" />
    <glyph glyph-name="uni042C" unicode="&#x42c;" horiz-adv-x="602" 
d="M8 0l127 716h92l-47 -262h149q50 0 90.5 -14t69.5 -40.5t45 -64t16 -85.5q0 -54 -20.5 -100t-57.5 -79t-89 -52t-116 -19h-259zM165 366l-50 -278h169q36 0 67.5 11t54 31t35.5 48t13 62q0 57 -34.5 91.5t-93.5 34.5h-161z" />
    <glyph glyph-name="uni042D" unicode="&#x42d;" horiz-adv-x="725" 
d="M272 -16q-51 0 -93 12t-76 31.5t-60 44.5t-45 50l73 61q33 -46 83.5 -78.5t127.5 -32.5q59 0 110 19.5t91 52.5t68 77t41 94h-336l15 86h332q-1 60 -19 105t-49.5 76t-73.5 46.5t-91 15.5q-62 0 -115.5 -24.5t-94.5 -69.5l-64 65q58 55 126 86t158 31q70 0 128 -23
t99 -66t64 -104.5t23 -138.5q0 -82 -30 -157t-85.5 -132.5t-133.5 -92t-173 -34.5z" />
    <glyph glyph-name="uni042E" unicode="&#x42e;" horiz-adv-x="1071" 
d="M620 -16q-69 0 -129 23.5t-104 66.5t-69 102.5t-25 131.5v15h-136l-57 -323h-92l127 716h92l-55 -307h133q15 66 51.5 125t90 103t122 69.5t147.5 25.5q68 0 127.5 -23.5t103.5 -66.5t69 -102.5t25 -131.5q0 -82 -30.5 -158.5t-86 -135.5t-133 -94.5t-171.5 -35.5z
M629 72q67 0 124.5 28t100.5 74t67.5 105.5t24.5 121.5q0 57 -19 102t-51.5 76.5t-76.5 48t-94 16.5q-67 0 -125 -28t-100.5 -74t-67 -105t-24.5 -122q0 -57 19 -102t51.5 -76.5t76.5 -48t94 -16.5z" />
    <glyph glyph-name="uni042F" unicode="&#x42f;" horiz-adv-x="601" 
d="M465 0h-92l52 290h-96l-245 -290h-114l1 4l251 291l-1 3q-26 7 -50.5 23t-44 40t-31.5 55t-12 70q0 47 20.5 89t55.5 73.5t83 49.5t104 18h246zM440 376l44 252h-151q-35 0 -64 -11.5t-49 -30.5t-31 -43.5t-11 -49.5q0 -57 33.5 -87t87.5 -30h141z" />
    <glyph glyph-name="uni0430" unicode="&#x430;" horiz-adv-x="510" 
d="M287 506q95 0 143.5 -44t48.5 -119q0 -12 -1.5 -25.5t-3.5 -27.5l-52 -290h-88l12 68h-4q-24 -35 -66 -59.5t-94 -24.5q-36 0 -67 10.5t-53.5 30.5t-35.5 47.5t-13 62.5q0 42 18.5 76t50.5 57.5t75.5 36.5t94.5 13q41 0 72.5 -8.5t60.5 -21.5l4 21q2 8 2 20q0 43 -31 69
t-82 26q-39 0 -69.5 -15t-59.5 -50l-72 51q35 47 89.5 71.5t120.5 24.5zM201 66q31 0 59.5 11t51 30.5t38.5 46t21 56.5q-12 9 -30 17q-16 6 -39.5 11.5t-56.5 5.5q-25 0 -49.5 -6t-43.5 -19t-31 -32t-12 -44q0 -19 8 -33.5t20.5 -24t29 -14.5t34.5 -5z" />
    <glyph glyph-name="uni0431" unicode="&#x431;" horiz-adv-x="588" 
d="M398 616q-31 0 -54 -4.5t-40.5 -11.5t-31 -16t-24.5 -19q-26 -22 -48.5 -58t-36.5 -85h4q26 35 69.5 59.5t100.5 24.5q44 0 82 -15.5t65.5 -45.5t43.5 -72.5t16 -96.5q0 -55 -19.5 -107.5t-57 -93.5t-92 -66t-124.5 -25q-47 0 -86.5 18.5t-68 53t-44 83t-15.5 107.5
q0 48 9 100t27.5 102t47 94.5t68.5 78.5q42 36 96.5 57.5t119.5 21.5q29 0 47 2t28.5 6t16.5 10t11 15h92q-12 -36 -29 -59t-41 -35.5t-56.5 -17.5t-75.5 -5zM321 422q-40 0 -75 -15.5t-61.5 -43.5t-41.5 -65.5t-15 -81.5q0 -33 10 -60.5t28.5 -47t43.5 -30t55 -10.5
q42 0 76 18.5t58.5 47t38 63.5t13.5 69q0 78 -38 117t-92 39z" />
    <glyph glyph-name="uni0432" unicode="&#x432;" horiz-adv-x="492" 
d="M367 248q26 -12 46 -33t20 -59q0 -33 -14.5 -61.5t-39.5 -49.5t-58 -33t-69 -12h-259l87 490h221q68 0 109 -32.5t41 -86.5q0 -24 -7 -43.5t-18.5 -34t-26.5 -25t-31 -16.5zM123 212l-23 -128h158q32 0 56 18.5t24 55.5q0 23 -16.5 38.5t-45.5 15.5h-153zM157 406
l-21 -120h147q32 0 53 17.5t21 47.5q0 25 -16.5 40t-47.5 15h-136z" />
    <glyph glyph-name="uni0433" unicode="&#x433;" horiz-adv-x="412" 
d="M79 490h332l-15 -84h-240l-72 -406h-91z" />
    <glyph glyph-name="uni0434" unicode="&#x434;" horiz-adv-x="640" 
d="M-39 -152l41 236h56q13 11 27 35.5t27 57t24 71t18 77.5l29 165h394l-71 -406h80l-42 -236h-88l27 152h-408l-27 -152h-87zM241 308q-12 -72 -32 -125.5t-49 -98.5h254l56 322h-212z" />
    <glyph glyph-name="uni0435" unicode="&#x435;" horiz-adv-x="536" 
d="M459 116q-39 -65 -100 -98.5t-131 -33.5q-54 0 -95.5 18t-70 48.5t-43 71t-14.5 86.5q0 57 19.5 110.5t56.5 95.5t89.5 67t117.5 25q51 0 90 -16t65 -44t39 -65t13 -80q0 -18 -2 -38t-7 -35h-386q-1 -10 -1 -16v-13q0 -33 11.5 -58t30.5 -41t43 -24t49 -8q50 0 89.5 24
t65.5 64zM402 304v11q0 21 -7.5 40.5t-23 34t-38.5 23.5t-54 9q-60 0 -102.5 -32.5t-59.5 -85.5h285z" />
    <glyph glyph-name="uni0436" unicode="&#x436;" horiz-adv-x="722" 
d="M251 0l43 240h-4l-239 -240h-117l1 4l263 261l-161 221l1 4h108l150 -214h4l38 214h92l-38 -214h4l223 214h119l-1 -4l-247 -232l168 -250l-1 -4h-111l-156 240h-5l-42 -240h-92z" />
    <glyph glyph-name="uni0437" unicode="&#x437;" horiz-adv-x="482" 
d="M265 506q36 0 67.5 -10.5t54 -28.5t35.5 -42.5t13 -52.5q0 -45 -26 -77.5t-63 -43.5v-4q33 -19 50 -43t17 -66q0 -35 -17.5 -63.5t-48 -48.5t-71.5 -31t-87 -11q-72 0 -119.5 26.5t-79.5 65.5l76 57q20 -27 53.5 -46t78.5 -19q22 0 44 4.5t39 14.5t27.5 26t10.5 38
q0 24 -22.5 42.5t-73.5 18.5h-66l13 74h63q53 0 80.5 19t27.5 50q0 27 -24.5 47t-64.5 20q-35 0 -64 -11.5t-57 -40.5l-64 55q42 40 89 60.5t109 20.5z" />
    <glyph glyph-name="uni0438" unicode="&#x438;" horiz-adv-x="546" 
d="M428 0h-92l45 256l21 96h-4l-308 -352h-96l87 490h92l-45 -256l-21 -96h4l308 352h96z" />
    <glyph glyph-name="uni0439" unicode="&#x439;" horiz-adv-x="546" 
d="M428 0h-92l45 256l21 96h-4l-308 -352h-96l87 490h92l-45 -256l-21 -96h4l308 352h96zM320 571q-24 0 -44.5 8t-35.5 22t-24 33t-9 42q0 5 0.5 10.5t1.5 10.5h74q-1 -4 -1 -11q0 -19 11.5 -32.5t34.5 -13.5q25 0 42 15t22 42h73q-11 -65 -49.5 -95.5t-95.5 -30.5z" />
    <glyph glyph-name="uni043A" unicode="&#x43a;" horiz-adv-x="475" 
d="M171 490l-39 -220h4l235 220h120l-1 -4l-256 -232l182 -250l-1 -4h-110l-173 246h-4l-44 -246h-91l86 490h92z" />
    <glyph glyph-name="uni043B" unicode="&#x43b;" horiz-adv-x="600" 
d="M29 -8q-29 0 -49 8l15 83q9 -3 16 -4t15 -1q33 0 50.5 31.5t29.5 99.5l49 281h412l-86 -490h-92l72 406h-230l-35 -197q-11 -62 -28 -104t-39 -67t-47.5 -35.5t-52.5 -10.5z" />
    <glyph glyph-name="uni043C" unicode="&#x43c;" horiz-adv-x="657" 
d="M451 0l45 255l21 96h-4l-202 -287h-65l-102 287h-4l-13 -96l-45 -255h-92l87 490h110l107 -312h3l218 312h115l-87 -490h-92z" />
    <glyph glyph-name="uni043D" unicode="&#x43d;" horiz-adv-x="546" 
d="M334 0l36 202h-250l-36 -202h-91l86 490h92l-36 -202h250l36 202h92l-87 -490h-92z" />
    <glyph glyph-name="uni043E" unicode="&#x43e;" horiz-adv-x="560" 
d="M298 506q51 0 93.5 -18.5t72.5 -50.5t46.5 -74.5t16.5 -90.5q0 -61 -22 -113.5t-61 -91.5t-93 -61t-117 -22q-51 0 -93.5 18.5t-72.5 50.5t-46.5 74.5t-16.5 90.5q0 61 22 113.5t61 91.5t93 61t117 22zM243 68q44 0 79.5 16.5t60 44t37.5 63t13 74.5q0 34 -11.5 62.5
t-31 49.5t-46 32.5t-55.5 11.5q-44 0 -79.5 -16.5t-60 -44t-37.5 -63t-13 -74.5q0 -34 11.5 -62.5t31 -49.5t46 -32.5t55.5 -11.5z" />
    <glyph glyph-name="uni043F" unicode="&#x43f;" horiz-adv-x="526" 
d="M79 490h414l-87 -490h-92l72 406h-230l-72 -406h-91z" />
    <glyph glyph-name="uni0440" unicode="&#x440;" horiz-adv-x="572" 
d="M336 506q43 0 80 -16t64.5 -45.5t43 -72t15.5 -95.5q0 -57 -21.5 -109.5t-59.5 -93.5t-90 -65.5t-113 -24.5q-50 0 -90.5 24t-61.5 60h-4l-8 -68l-39 -216h-92l125 706h88l-12 -68h4q25 34 66.5 59t104.5 25zM262 68q38 0 71.5 15.5t58 43t39 64.5t14.5 80
q0 71 -34.5 111t-100.5 40q-39 0 -73 -17.5t-58.5 -46.5t-38.5 -66.5t-14 -77.5q0 -72 39 -109t97 -37z" />
    <glyph glyph-name="uni0441" unicode="&#x441;" horiz-adv-x="522" 
d="M218 -16q-48 0 -87.5 17.5t-67 48t-43 72t-15.5 88.5q0 64 23 118.5t62.5 94t93 61.5t114.5 22q45 0 79 -12.5t58.5 -32.5t39.5 -45.5t22 -50.5l-86 -33q-12 42 -42.5 66t-81.5 24q-40 0 -74.5 -15.5t-59.5 -43t-39.5 -65t-14.5 -81.5q0 -30 9 -57.5t26 -47.5t43 -32
t59 -12q47 0 84.5 25t63.5 68l74 -35q-23 -36 -46.5 -63t-52 -44.5t-63 -26t-78.5 -8.5z" />
    <glyph glyph-name="uni0442" unicode="&#x442;" horiz-adv-x="428" 
d="M47 490h404l-15 -84h-156l-72 -406h-92l72 406h-156z" />
    <glyph glyph-name="uni0443" unicode="&#x443;" horiz-adv-x="498" 
d="M5 -216l158 247l-121 459h97l86 -353h2l205 353h102l-432 -706h-97z" />
    <glyph glyph-name="uni0444" unicode="&#x444;" horiz-adv-x="742" 
d="M708 274q0 -68 -26.5 -120t-72 -88t-107.5 -56.5t-133 -24.5l-35 -201h-92l36 203q-116 13 -181 73.5t-65 154.5q0 70 27.5 122.5t73.5 88.5t107 55.5t129 23.5l38 211h92l-38 -213q57 -6 102.5 -23.5t77.5 -46.5t49.5 -69t17.5 -90zM619 258q0 73 -45 112.5t-128 47.5
l-61 -346q46 4 88 17t74.5 35.5t52 55.5t19.5 78zM121 224q0 -68 48 -106t124 -46l61 345q-45 -5 -87 -18.5t-74.5 -37t-52 -57.5t-19.5 -80z" />
    <glyph glyph-name="uni0445" unicode="&#x445;" horiz-adv-x="472" 
d="M294 0l-90 182h-1l-149 -182h-111l216 252l-124 238h104l86 -172h1l143 172h112l-213 -243l130 -247h-104z" />
    <glyph glyph-name="uni0446" unicode="&#x446;" horiz-adv-x="578" 
d="M372 -152l27 152h-406l86 490h92l-72 -406h230l72 406h92l-72 -406h80l-41 -236h-88z" />
    <glyph glyph-name="uni0447" unicode="&#x447;" horiz-adv-x="500" 
d="M235 242q36 0 67 7.5t53 23.5l39 217h92l-87 -490h-92l33 185q-21 -11 -52.5 -19t-77.5 -8q-39 0 -69.5 12.5t-51.5 34t-32 50t-11 61.5q0 8 1 19t6 37l21 118h94l-25 -139q-3 -14 -3 -27q0 -42 27.5 -62t67.5 -20z" />
    <glyph glyph-name="uni0448" unicode="&#x448;" horiz-adv-x="756" 
d="M-7 0l87 490h92l-72 -406h174l72 406h92l-72 -406h174l72 406h92l-87 -490h-624z" />
    <glyph glyph-name="uni0449" unicode="&#x449;" horiz-adv-x="808" 
d="M583 -152l26 152h-616l87 490h92l-72 -406h174l72 406h92l-72 -406h174l72 406h92l-72 -406h80l-41 -236h-88z" />
    <glyph glyph-name="uni044A" unicode="&#x44a;" horiz-adv-x="580" 
d="M55 490h204l-29 -164h136q36 0 66.5 -10.5t52.5 -30t34.5 -47.5t12.5 -64q0 -39 -15 -71t-42 -55t-65.5 -35.5t-85.5 -12.5h-244l72 406h-112zM337 84q43 0 71 22.5t28 62.5q0 32 -23 52.5t-59 20.5h-139l-28 -158h150z" />
    <glyph glyph-name="uni044B" unicode="&#x44b;" horiz-adv-x="692" 
d="M481 0l87 490h92l-87 -490h-92zM-7 0l87 490h92l-29 -164h136q36 0 66.5 -10.5t52.5 -30t34.5 -47.5t12.5 -64q0 -39 -15 -71t-42 -55t-65.5 -35.5t-85.5 -12.5h-244zM250 84q43 0 71 22.5t28 62.5q0 32 -23 52.5t-59 20.5h-139l-28 -158h150z" />
    <glyph glyph-name="uni044C" unicode="&#x44c;" horiz-adv-x="500" 
d="M-7 0l87 490h92l-29 -164h136q36 0 66.5 -10.5t52.5 -30t34.5 -47.5t12.5 -64q0 -39 -15 -71t-42 -55t-65.5 -35.5t-85.5 -12.5h-244zM250 84q43 0 71 22.5t28 62.5q0 32 -23 52.5t-59 20.5h-139l-28 -158h150z" />
    <glyph glyph-name="uni044D" unicode="&#x44d;" horiz-adv-x="518" 
d="M195 -16q-41 0 -76.5 12t-63 32t-46 45.5t-25.5 52.5l82 32q9 -20 20 -36.5t27.5 -28.5t39 -18.5t52.5 -6.5q34 0 62 11t50 30t37.5 44.5t23.5 53.5h-219l13 75h214q-2 35 -13.5 61t-29.5 43.5t-40.5 26.5t-47.5 9q-56 0 -91.5 -26t-58.5 -66l-77 38q15 29 37 54.5
t50.5 44t64 29t79.5 10.5q48 0 87.5 -16t68 -46t44.5 -73t16 -96q0 -60 -20.5 -113t-57.5 -92.5t-88.5 -62.5t-113.5 -23z" />
    <glyph glyph-name="uni044E" unicode="&#x44e;" horiz-adv-x="768" 
d="M0 0l86 490h92l-36 -202h79q11 48 37 88t63 69t84 45t101 16q51 0 93.5 -18.5t72.5 -50.5t46.5 -74.5t16.5 -90.5q0 -61 -22 -113.5t-61 -91.5t-93 -61t-117 -22q-49 0 -90 17t-71 47t-47.5 69.5t-20.5 84.5h-86l-35 -202h-92zM451 68q44 0 79.5 16.5t60 44t37.5 63
t13 74.5q0 34 -11.5 62.5t-31 49.5t-46 32.5t-55.5 11.5q-44 0 -79.5 -16.5t-60 -44t-37.5 -63t-13 -74.5q0 -34 11.5 -62.5t31 -49.5t46 -32.5t55.5 -11.5z" />
    <glyph glyph-name="uni044F" unicode="&#x44f;" horiz-adv-x="480" 
d="M-60 0l1 5l169 172l-2 3q-17 6 -34 17.5t-30.5 28.5t-22 39.5t-8.5 51.5q0 34 14 65t40.5 55t63.5 38.5t84 14.5h235l-87 -490h-92l31 172h-89l-162 -172h-111zM207 406q-44 0 -71.5 -24.5t-27.5 -61.5q0 -32 23 -50t55 -18h130l27 154h-136z" />
    <glyph glyph-name="uni0450" unicode="&#x450;" horiz-adv-x="532" 
d="M459 116q-39 -65 -100 -98.5t-131 -33.5q-54 0 -95.5 18t-70 48.5t-43 71t-14.5 86.5q0 57 19.5 110.5t56.5 95.5t89.5 67t117.5 25q51 0 90 -16t65 -44t39 -65t13 -80q0 -18 -2 -38t-7 -35h-386q-1 -10 -1 -16v-13q0 -33 11.5 -58t30.5 -41t43 -24t49 -8q50 0 89.5 24
t65.5 64zM402 304v11q0 21 -7.5 40.5t-23 34t-38.5 23.5t-54 9q-60 0 -102.5 -32.5t-59.5 -85.5h285zM272 588l-49 128h98l29 -128h-78z" />
    <glyph glyph-name="uni0451" unicode="&#x451;" horiz-adv-x="532" 
d="M401 602q-23 0 -40 17t-17 40q0 25 17 41t40 16q25 0 41 -16t16 -41q0 -23 -16 -40t-41 -17zM233 602q-23 0 -40 17t-17 40q0 25 17 41t40 16q25 0 41 -16t16 -41q0 -23 -16 -40t-41 -17zM459 116q-39 -65 -100 -98.5t-131 -33.5q-54 0 -95.5 18t-70 48.5t-43 71
t-14.5 86.5q0 57 19.5 110.5t56.5 95.5t89.5 67t117.5 25q51 0 90 -16t65 -44t39 -65t13 -80q0 -18 -2 -38t-7 -35h-386q-1 -10 -1 -16v-13q0 -33 11.5 -58t30.5 -41t43 -24t49 -8q50 0 89.5 24t65.5 64zM402 304v11q0 21 -7.5 40.5t-23 34t-38.5 23.5t-54 9
q-60 0 -102.5 -32.5t-59.5 -85.5h285z" />
    <glyph glyph-name="uni0452" unicode="&#x452;" 
d="M185 572l-14 -82l-16 -68h4q27 36 72 60t98 24q41 0 71 -11.5t49 -31.5t28 -46.5t9 -56.5q0 -12 -1.5 -26.5t-5.5 -37.5l-66 -374q-7 -41 -22 -69t-36.5 -45.5t-48.5 -25.5t-59 -8t-55 10l35 80q12 -6 30 -6q52 0 64 65l65 371q2 10 3 19.5t1 17.5q0 45 -26.5 68
t-71.5 23q-31 0 -58 -13t-48 -34.5t-35.5 -49.5t-19.5 -58l-47 -267h-91l100 572h-64l13 72h64l13 72h92l-13 -72h144l-13 -72h-144z" />
    <glyph glyph-name="uni0453" unicode="&#x453;" horiz-adv-x="392" 
d="M79 490h332l-15 -84h-240l-72 -406h-91zM200 588l75 128h102l-95 -128h-82z" />
    <glyph glyph-name="uni0454" unicode="&#x454;" horiz-adv-x="518" 
d="M93 207q2 -31 13.5 -56.5t30 -44t42.5 -28.5t51 -10q55 0 89 24.5t60 67.5l75 -35q-40 -72 -95.5 -106.5t-138.5 -34.5q-47 0 -86 17t-68 48t-45 75t-16 98q0 52 19 102.5t55.5 91t89 65.5t119.5 25q45 0 80.5 -12t61 -32t41.5 -45t23 -52l-83 -32q-14 42 -45.5 65.5
t-87.5 23.5q-33 0 -61.5 -10t-51.5 -28.5t-39.5 -44.5t-24.5 -57h219l-13 -75h-214z" />
    <glyph glyph-name="uni0455" unicode="&#x455;" horiz-adv-x="455" 
d="M186 -16q-43 0 -76 11t-57.5 29.5t-40.5 44t-24 55.5l88 35q10 -46 43 -69.5t76 -23.5q48 0 76 20t28 49q0 28 -18 45t-60 28l-56 15q-53 14 -87.5 44.5t-34.5 86.5q0 33 16 61t43 48t63 31.5t77 11.5q70 0 119 -32.5t66 -83.5l-88 -34q-11 28 -36.5 48t-66.5 20
q-43 0 -70 -16.5t-27 -46.5q0 -19 15 -35t52 -26l63 -17q60 -17 93 -51.5t33 -85.5q0 -37 -15 -67t-43 -51t-66.5 -32.5t-84.5 -11.5z" />
    <glyph glyph-name="uni0456" unicode="&#x456;" horiz-adv-x="220" 
d="M0 0l86 490h92l-86 -490h-92zM162 594q-27 0 -46 19t-19 46t19 46t46 19t46 -19t19 -46t-19 -46t-46 -19z" />
    <glyph glyph-name="uni0457" unicode="&#x457;" horiz-adv-x="220" 
d="M92 602q-23 0 -40 17t-17 40q0 25 17 41t40 16q25 0 41 -16t16 -41q0 -23 -16 -40t-41 -17zM228 602q-23 0 -40 17t-17 40q0 25 17 41t40 16q25 0 41 -16t16 -41q0 -23 -16 -40t-41 -17zM0 0l86 490h92l-86 -490h-92z" />
    <glyph glyph-name="uni0458" unicode="&#x458;" horiz-adv-x="220" 
d="M-88 -226q-32 0 -55 10l35 80q12 -6 30 -6q52 0 64 65l100 567h92l-100 -568q-7 -41 -22 -69t-36.5 -45.5t-48.5 -25.5t-59 -8zM162 594q-27 0 -46 19t-19 46t19 46t46 19t46 -19t19 -46t-19 -46t-46 -19z" />
    <glyph glyph-name="uni0459" unicode="&#x459;" horiz-adv-x="888" 
d="M27 -8q-29 0 -49 8l15 83q9 -3 16 -4t15 -1q33 0 50.5 31.5t29.5 99.5l49 281h412l-31 -174h133q77 0 121 -39t44 -105q0 -39 -14.5 -71t-41.5 -54.5t-64 -34.5t-82 -12h-243l72 406h-230l-35 -197q-11 -62 -28 -104t-39 -67t-47.5 -35.5t-52.5 -10.5zM519 232l-26 -148
h151q40 0 66 19t26 61q0 31 -21.5 49.5t-53.5 18.5h-142z" />
    <glyph glyph-name="uni045A" unicode="&#x45a;" horiz-adv-x="818" 
d="M315 0l41 232h-230l-41 -232h-92l87 490h92l-31 -174h230l31 174h92l-31 -174h134q77 0 121 -39t44 -105q0 -39 -14.5 -71t-41.5 -54.5t-64 -34.5t-82 -12h-245zM449 232l-25 -148h150q40 0 66 19t26 61q0 31 -21.5 49.5t-53.5 18.5h-142z" />
    <glyph glyph-name="uni045B" unicode="&#x45b;" 
d="M198 644h144l-13 -72h-144l-14 -82l-16 -68h4q27 36 72 60t98 24q41 0 71 -11.5t49 -31.5t28 -46.5t9 -56.5q0 -12 -1.5 -26.5t-5.5 -37.5l-53 -296h-92l52 294q2 10 3 19.5t1 17.5q0 45 -26.5 68t-71.5 23q-31 0 -58 -13t-48 -34.5t-35.5 -49.5t-19.5 -58l-47 -267h-91
l100 572h-64l13 72h64l13 72h92z" />
    <glyph glyph-name="uni045C" unicode="&#x45c;" horiz-adv-x="475" 
d="M171 490l-39 -220h4l235 220h120l-1 -4l-256 -232l182 -250l-1 -4h-110l-173 246h-4l-44 -246h-91l86 490h92zM238 588l75 128h102l-95 -128h-82z" />
    <glyph glyph-name="uni045D" unicode="&#x45d;" horiz-adv-x="546" 
d="M428 0h-92l45 256l21 96h-4l-308 -352h-96l87 490h92l-45 -256l-21 -96h4l308 352h96zM286 588l-49 128h98l29 -128h-78z" />
    <glyph glyph-name="uni045E" unicode="&#x45e;" horiz-adv-x="498" 
d="M5 -216l158 247l-121 459h97l86 -353h2l205 353h102l-432 -706h-97zM296 586q-24 0 -44.5 8t-35.5 22t-24 33t-9 42q0 5 0.5 10.5t1.5 10.5h74q-1 -4 -1 -11q0 -19 11.5 -32.5t34.5 -13.5q25 0 42 15t22 42h73q-11 -65 -49.5 -95.5t-95.5 -30.5z" />
    <glyph glyph-name="uni045F" unicode="&#x45f;" horiz-adv-x="546" 
d="M140 -152l26 152h-173l87 490h92l-72 -406h250l72 406h92l-87 -490h-173l-26 -152h-88z" />
    <glyph glyph-name="uni0490" unicode="&#x490;" horiz-adv-x="510" 
d="M125 716h326l19 112h88l-35 -200h-322l-110 -628h-91z" />
    <glyph glyph-name="uni0491" unicode="&#x491;" horiz-adv-x="412" 
d="M79 490h243l18 98h88l-32 -182h-240l-72 -406h-91z" />
    <glyph glyph-name="uni04B0" unicode="&#x4b0;" horiz-adv-x="594" 
d="M189 0l49 276h-175l13 72h165l-166 368h105l125 -291h4l225 291h111l-293 -368h166l-13 -72h-175l-49 -276h-92z" />
    <glyph glyph-name="uni04B1" unicode="&#x4b1;" horiz-adv-x="498" 
d="M46 490h95l79 -390l217 390h99l-226 -387l-21 -33h118l-13 -70h-145l-38 -216h-92l38 216h-145l13 70h118l-9 33z" />
    <glyph glyph-name="Wgrave" unicode="&#x1e80;" horiz-adv-x="922" 
d="M652 0h-94l-71 472h-4l-238 -472h-94l-72 716h94l52 -563h4l235 467h88l72 -467h4l245 563h96zM476 772l-49 128h98l29 -128h-78z" />
    <glyph glyph-name="wgrave" unicode="&#x1e81;" horiz-adv-x="754" 
d="M434 0l-55 376l-188 -376h-93l-71 490h94l43 -370h1l187 370h95l55 -370h1l174 370h96l-245 -490h-94zM371 588l-49 128h98l29 -128h-78z" />
    <glyph glyph-name="Wacute" unicode="&#x1e82;" horiz-adv-x="922" 
d="M652 0h-94l-71 472h-4l-238 -472h-94l-72 716h94l52 -563h4l235 467h88l72 -467h4l245 563h96zM490 772l75 128h102l-95 -128h-82z" />
    <glyph glyph-name="wacute" unicode="&#x1e83;" horiz-adv-x="754" 
d="M434 0l-55 376l-188 -376h-93l-71 490h94l43 -370h1l187 370h95l55 -370h1l174 370h96l-245 -490h-94zM378 588l75 128h102l-95 -128h-82z" />
    <glyph glyph-name="Wdieresis" unicode="&#x1e84;" horiz-adv-x="922" 
d="M652 0h-94l-71 472h-4l-238 -472h-94l-72 716h94l52 -563h4l235 467h88l72 -467h4l245 563h96zM618 786q-23 0 -40 17t-17 40q0 25 17 41t40 16q25 0 41 -16t16 -41q0 -23 -16 -40t-41 -17zM450 786q-23 0 -40 17t-17 40q0 25 17 41t40 16q25 0 41 -16t16 -41
q0 -23 -16 -40t-41 -17z" />
    <glyph glyph-name="wdieresis" unicode="&#x1e85;" horiz-adv-x="754" 
d="M434 0l-55 376l-188 -376h-93l-71 490h94l43 -370h1l187 370h95l55 -370h1l174 370h96l-245 -490h-94zM509 602q-23 0 -40 17t-17 40q0 25 17 41t40 16q25 0 41 -16t16 -41q0 -23 -16 -40t-41 -17zM341 602q-23 0 -40 17t-17 40q0 25 17 41t40 16q25 0 41 -16t16 -41
q0 -23 -16 -40t-41 -17z" />
    <glyph glyph-name="Ygrave" unicode="&#x1ef2;" horiz-adv-x="594" 
d="M189 0l59 333l-173 383h105l125 -291h4l225 291h111l-305 -383l-59 -333h-92zM326 772l-49 128h98l29 -128h-78z" />
    <glyph glyph-name="ygrave" unicode="&#x1ef3;" horiz-adv-x="498" 
d="M5 -216l158 247l-121 459h97l86 -353h2l205 353h102l-432 -706h-97zM250 588l-49 128h98l29 -128h-78z" />
    <glyph glyph-name="endash" unicode="&#x2013;" horiz-adv-x="592" 
d="M55 348h480l-13 -76h-480z" />
    <glyph glyph-name="emdash" unicode="&#x2014;" horiz-adv-x="892" 
d="M55 348h780l-13 -76h-780z" />
    <glyph glyph-name="quoteleft" unicode="&#x2018;" horiz-adv-x="232" 
d="M231 701l-60 -73q10 -4 25 -19t15 -43q0 -29 -20.5 -48.5t-46.5 -19.5q-29 0 -49 19.5t-20 48.5q0 17 12.5 35t29.5 39l77 92z" />
    <glyph glyph-name="quoteright" unicode="&#x2019;" horiz-adv-x="232" 
d="M88 529l60 73q-5 2 -12 6.5t-13 12t-10.5 18.5t-4.5 25q0 29 20.5 48.5t46.5 19.5q29 0 49 -19.5t20 -48.5q0 -17 -12.5 -35t-29.5 -39l-77 -92z" />
    <glyph glyph-name="quotesinglbase" unicode="&#x201a;" horiz-adv-x="232" 
d="M-21 -72l60 73q-5 2 -12 6.5t-13 12t-10.5 18.5t-4.5 25q0 29 20.5 48.5t46.5 19.5q29 0 49 -19.5t20 -48.5q0 -17 -12.5 -35t-29.5 -39l-77 -92z" />
    <glyph glyph-name="quotedblleft" unicode="&#x201c;" horiz-adv-x="408" 
d="M231 701l-60 -73q10 -4 25 -19t15 -43q0 -29 -20.5 -48.5t-46.5 -19.5q-29 0 -49 19.5t-20 48.5q0 17 12.5 35t29.5 39l77 92zM407 701l-60 -73q10 -4 25 -19t15 -43q0 -29 -20.5 -48.5t-46.5 -19.5q-29 0 -49 19.5t-20 48.5q0 17 12.5 35t29.5 39l77 92z" />
    <glyph glyph-name="quotedblright" unicode="&#x201d;" horiz-adv-x="408" 
d="M88 529l60 73q-5 2 -12 6.5t-13 12t-10.5 18.5t-4.5 25q0 29 20.5 48.5t46.5 19.5q29 0 49 -19.5t20 -48.5q0 -17 -12.5 -35t-29.5 -39l-77 -92zM264 529l60 73q-5 2 -12 6.5t-13 12t-10.5 18.5t-4.5 25q0 29 20.5 48.5t46.5 19.5q29 0 49 -19.5t20 -48.5
q0 -17 -12.5 -35t-29.5 -39l-77 -92z" />
    <glyph glyph-name="quotedblbase" unicode="&#x201e;" horiz-adv-x="408" 
d="M-21 -72l60 73q-5 2 -12 6.5t-13 12t-10.5 18.5t-4.5 25q0 29 20.5 48.5t46.5 19.5q29 0 49 -19.5t20 -48.5q0 -17 -12.5 -35t-29.5 -39l-77 -92zM154 -72l60 73q-5 2 -12 6.5t-13 12t-10.5 18.5t-4.5 25q0 29 20.5 48.5t46.5 19.5q29 0 49 -19.5t20 -48.5
q0 -17 -12.5 -35t-29.5 -39l-77 -92z" />
    <glyph glyph-name="bullet" unicode="&#x2022;" horiz-adv-x="400" 
d="M194 204q-25 0 -46.5 9.5t-38 26t-26 38t-9.5 46.5t9.5 46.5t26 38t38 26t46.5 9.5t46.5 -9.5t38 -26t26 -38t9.5 -46.5t-9.5 -46.5t-26 -38t-38 -26t-46.5 -9.5z" />
    <glyph glyph-name="ellipsis" unicode="&#x2026;" horiz-adv-x="704" 
d="M64 -6q-29 0 -48.5 19.5t-19.5 48.5t19.5 48.5t48.5 19.5t48.5 -19.5t19.5 -48.5t-19.5 -48.5t-48.5 -19.5zM300 -6q-29 0 -48.5 19.5t-19.5 48.5t19.5 48.5t48.5 19.5t48.5 -19.5t19.5 -48.5t-19.5 -48.5t-48.5 -19.5zM536 -6q-29 0 -48.5 19.5t-19.5 48.5t19.5 48.5
t48.5 19.5t48.5 -19.5t19.5 -48.5t-19.5 -48.5t-48.5 -19.5z" />
    <glyph glyph-name="guilsinglleft" unicode="&#x2039;" horiz-adv-x="356" 
d="M243 100l-60 -48l-163 219l240 219l47 -53l-187 -171z" />
    <glyph glyph-name="guilsinglright" unicode="&#x203a;" horiz-adv-x="356" 
d="M78 442l60 48l163 -219l-240 -219l-47 53l187 171z" />
    <glyph glyph-name="fraction" unicode="&#x2044;" horiz-adv-x="170" 
d="M-238 34l592 690l53 -42l-589 -691z" />
    <glyph glyph-name="uni2074" unicode="&#x2074;" horiz-adv-x="345" 
d="M197 350l13 72h-171l8 48l218 246h67l-41 -234h48l-11 -60h-48l-13 -72h-70zM221 482l22 126h-4l-112 -126h94z" />
    <glyph glyph-name="uni20A3" unicode="&#x20a3;" horiz-adv-x="550" 
d="M36 0l20 114h-75l14 76h74l88 494h414l-16 -88h-322l-38 -219h290l-15 -86h-290l-18 -101h135l-14 -76h-135l-20 -114h-92z" />
    <glyph glyph-name="uni20A4" unicode="&#x20a4;" horiz-adv-x="519" 
d="M459 113q-29 -54 -70.5 -83.5t-110.5 -29.5h-309l14 80q32 14 60 36t47 50h-91l12 76h107v8q0 23 -2.5 41t-6.5 35h-83l13 76h46q-5 18 -8.5 38t-3.5 46q0 42 16 80.5t46 68.5t72.5 47.5t95.5 17.5q43 0 75 -12.5t54.5 -32.5t36.5 -45.5t21 -51.5l-90 -35q-9 37 -34.5 63
t-73.5 26q-29 0 -52 -10t-39.5 -27.5t-25.5 -40t-9 -47.5q0 -23 3.5 -43.5t8.5 -41.5h164l-13 -76h-133q2 -16 4 -32.5t2 -35.5v-6q0 -4 -1 -10h113l-13 -76h-122q-11 -21 -28 -39.5t-37 -35.5l2 -3h178q37 0 58.5 15.5t36.5 41.5z" />
    <glyph glyph-name="uni20A9" unicode="&#x20a9;" horiz-adv-x="973" 
d="M822 326l-144 -326h-91l-38 326h-131l-157 -326h-92l-30 326h-113l13 76h93l-25 282h98l18 -282h141l135 282h95l31 -282h138l119 282h99l-125 -282h92l-13 -76h-113zM328 326h-100l12 -178h3zM731 326h-97l20 -178h3zM455 402h85l-16 134h-4z" />
    <glyph glyph-name="uni20AB" unicode="&#x20ab;" horiz-adv-x="568" 
d="M204 -16q-41 0 -77.5 15t-63.5 43t-42.5 68.5t-15.5 92.5q0 55 20 107t55.5 92t85.5 64t110 24q31 0 56 -7t44.5 -19t33 -27t21.5 -31h4l8 68l11 66h-139l12 72h140l13 72h92l-13 -72h64l-12 -72h-65l-95 -540h-88l12 68h-4q-23 -35 -65.5 -59.5t-101.5 -24.5zM227 68
q43 0 77 18t57 46.5t35.5 64.5t12.5 72q0 35 -10 61t-27 43t-40 25t-50 8q-40 0 -74 -16t-58.5 -43.5t-38 -64t-13.5 -77.5q0 -69 37.5 -103t91.5 -34zM-5 -84h442l-14 -76h-441z" />
    <glyph glyph-name="Euro" unicode="&#x20ac;" horiz-adv-x="629" 
d="M42 460h87q22 51 58 94.5t82.5 76t103 51t121.5 18.5q49 0 84 -12t64 -32l-50 -76q-20 14 -47.5 22.5t-65.5 8.5q-85 0 -149.5 -42t-100.5 -109h230l-13 -76h-246q-10 -39 -10 -84h241l-13 -76h-219q20 -79 73.5 -115t118.5 -36q66 0 128 32l36 -77q-43 -24 -85 -34
t-91 -10q-53 0 -99.5 15.5t-83 46t-61.5 75t-35 103.5h-99l13 76h81q0 21 2.5 42t7.5 42h-76z" />
    <glyph glyph-name="uni20AE" unicode="&#x20ae;" horiz-adv-x="526" 
d="M84 334l142 80l32 182h-193l16 88h478l-16 -88h-193l-23 -130l143 81l-17 -94l-142 -81l-17 -96l143 82l-17 -94l-143 -81l-32 -183h-92l23 131l-142 -80l17 93l141 80l17 96l-141 -80z" />
    <glyph glyph-name="uni20B1" unicode="&#x20b1;" horiz-adv-x="632" 
d="M36 0l78 441h-76l14 76h75l30 167h222q39 0 73.5 -12t61.5 -33.5t44 -52.5t21 -69h65l-14 -76h-57q-10 -41 -34 -72t-57.5 -52t-76 -32t-88.5 -11h-140l-49 -274h-92zM334 362q48 0 85.5 22t54.5 57h-268l-14 -79h142zM219 517h263q-8 35 -34.5 57t-72.5 22h-142z" />
    <glyph glyph-name="uni20B8" unicode="&#x20b8;" horiz-adv-x="526" 
d="M153 0l79 448h-193l14 76h478l-14 -76h-193l-79 -448h-92zM68 608l13 76h478l-13 -76h-478z" />
    <glyph glyph-name="uni20B9" unicode="&#x20b9;" horiz-adv-x="556" 
d="M435 4l-1 -4h-120l-218 269l16 94h141q58 0 94 21.5t50 62.5h-358l14 77h350q-7 33 -31 58.5t-69 25.5h-235l13 76h508l-13 -76h-114q30 -38 36 -84h63l-14 -77h-53q-10 -41 -33.5 -73t-56.5 -53.5t-74 -32.5t-84 -11h-27l-3 -3z" />
    <glyph glyph-name="uni20BA" unicode="&#x20ba;" horiz-adv-x="537" 
d="M29 389l142 80l38 215h92l-29 -163l143 81l-17 -94l-142 -80l-17 -97l142 82l-16 -94l-143 -81l-26 -150q40 1 75 14t62.5 36t46 54t25.5 69h90q-12 -59 -40 -107.5t-69.5 -82.5t-95.5 -52.5t-117 -18.5h-85l33 186l-141 -80l16 93l141 80l17 96l-142 -80z" />
    <glyph glyph-name="uni20BD" unicode="&#x20bd;" horiz-adv-x="580" 
d="M36 0l20 114h-75l14 76h74l15 84h-75l13 76h76l59 334h224q42 0 78.5 -13t63 -37.5t42 -59.5t15.5 -79q0 -50 -19 -90.5t-53.5 -69.5t-83 -45t-107.5 -16h-140l-15 -84h135l-14 -76h-135l-20 -114h-92zM334 362q32 0 59.5 8.5t48 25t32 40t11.5 53.5q0 45 -30 76t-85 31
h-137l-41 -234h142z" />
    <glyph glyph-name="uni2116" unicode="&#x2116;" horiz-adv-x="1078" 
d="M885 390q-32 0 -59.5 11.5t-48 32t-32 49t-11.5 63.5q0 41 15 75.5t41.5 59t62 38t77.5 13.5q33 0 60.5 -11.5t47.5 -31.5t31 -47.5t11 -59.5q0 -47 -15.5 -82.5t-42 -60t-62 -37t-75.5 -12.5zM894 457q26 0 47 9.5t35.5 25.5t22 37t7.5 45q0 40 -23 65.5t-62 25.5
q-26 0 -47 -10.5t-35.5 -27t-22.5 -37t-8 -41.5q0 -43 25 -67.5t61 -24.5zM712 238l13 72h280l-13 -72h-280zM135 716h105l256 -557h4l21 138l74 419h92l-127 -716h-88l-269 584h-4l-20 -138l-79 -446h-92z" />
    <glyph glyph-name="minus" unicode="&#x2212;" horiz-adv-x="550" 
d="M34 233l13 76h438l-13 -76h-438z" />
    <glyph glyph-name="uni2215" unicode="&#x2215;" horiz-adv-x="437" 
d="M-38 0l423 716h88l-424 -716h-87z" />
    <glyph glyph-name="uniF8FF" horiz-adv-x="1000" 
d="M891 451q4 -21 5.5 -42t1.5 -44q0 -89 -28.5 -163.5t-81 -128.5t-126 -84t-163.5 -30q-86 0 -162 32.5t-132.5 89t-89 132.5t-32.5 162t32.5 162t89 132.5t132.5 89t162 32.5q85 0 154.5 -28.5t123.5 -79.5l-119 -120q-65 62 -159 62q-51 0 -96 -20t-78 -54t-52.5 -79.5
t-19.5 -96.5t19.5 -96.5t52.5 -80t78 -54.5t96 -20q46 0 84 12.5t67 34.5t47.5 52.5t25.5 66.5h-224v161h392z" />
    <glyph glyph-name="one.numerator" horiz-adv-x="242" 
d="M110 350l50 282l-63 -25l-22 55l124 54h46l-65 -366h-70z" />
    <glyph glyph-name="two.denominator" horiz-adv-x="304" 
d="M-37 0l11 60q42 36 75 65l28 24t26 22q11 10 19 16q7 6 9 8q17 13 35 32.5t18 41.5q0 20 -13.5 30.5t-33.5 10.5q-45 0 -67 -58l-60 27q14 46 50.5 70.5t83.5 24.5q51 0 82 -28t31 -70q0 -20 -6 -36.5t-16.5 -31t-24.5 -27.5t-29 -26q-11 -9 -28 -24l-36 -30
q-21 -18 -44 -37h151l-12 -64h-249z" />
    <glyph glyph-name="two.numerator" horiz-adv-x="304" 
d="M23 350l11 60q42 36 75 65l28 24t26 22q11 10 19 16q7 6 9 8q17 13 35 32.5t18 41.5q0 20 -13.5 30.5t-33.5 10.5q-45 0 -67 -58l-60 27q14 46 50.5 70.5t83.5 24.5q51 0 82 -28t31 -70q0 -20 -6 -36.5t-16.5 -31t-24.5 -27.5t-29 -26q-11 -9 -28 -24l-36 -30
q-21 -18 -44 -37h151l-12 -64h-249z" />
    <glyph glyph-name="three.numerator" horiz-adv-x="323" 
d="M161 342q-43 0 -79 24t-45 76l65 23q8 -32 25 -45.5t41 -13.5q27 0 47 16.5t20 40.5q0 47 -61 47h-32l11 60h37q26 0 43.5 14.5t17.5 36.5q0 20 -13.5 29.5t-30.5 9.5q-27 0 -42 -14.5t-23 -28.5l-58 25q14 36 48.5 59t82.5 23t78.5 -26.5t30.5 -65.5q0 -30 -20.5 -55
t-45.5 -35q22 -11 35.5 -30.5t13.5 -46.5q0 -26 -11 -48.5t-30.5 -39t-46.5 -26t-58 -9.5z" />
    <glyph glyph-name="four.denominator" horiz-adv-x="345" 
d="M134 0l13 72h-171l8 48l218 246h67l-41 -234h48l-11 -60h-48l-13 -72h-70zM158 132l22 126h-4l-112 -126h94z" />
    <glyph glyph-name="four.numerator" horiz-adv-x="345" 
d="M197 350l13 72h-171l8 48l218 246h67l-41 -234h48l-11 -60h-48l-13 -72h-70zM221 482l22 126h-4l-112 -126h94z" />
    <glyph glyph-name="r.alt" horiz-adv-x="360" 
d="M153 410h4q22 47 69.5 70.5t102.5 23.5q14 0 20 -0.5t13 -1.5l-17 -96q-7 2 -17 3t-24 1q-31 0 -59.5 -10.5t-52 -30.5t-39.5 -48t-22 -62l-46 -259h-92l86 490h88z" />
    <glyph glyph-name="uni03BC" 
d="M336 0l12 68h-4q-25 -36 -68 -60t-98 -24q-28 0 -52.5 11t-38.5 29h-4l-6 -56l-34 -184h-91l124 706h92l-52 -294q-4 -20 -4 -40q0 -45 27.5 -66.5t73.5 -21.5q30 0 56.5 12t47 32.5t34.5 48t19 58.5l48 271h92l-86 -490h-88z" />
    <glyph glyph-name="uni2103" horiz-adv-x="973" 
d="M600 -16q-69 0 -124.5 24.5t-94.5 66.5t-59.5 98t-20.5 119q0 81 29.5 155t83.5 130t130 89.5t168 33.5q74 0 133.5 -30.5t100.5 -83.5l-74 -62q-14 19 -30 35t-37 27.5t-47.5 18t-60.5 6.5q-64 0 -119 -23.5t-95.5 -65.5t-63.5 -100t-23 -128q0 -52 16.5 -93t46 -69.5
t69.5 -43.5t88 -15q36 0 65.5 6.5t55 18.5t48.5 29.5t46 39.5l53 -63q-30 -30 -60 -52.5t-64 -37.5t-73 -22.5t-87 -7.5zM186 442q-24 0 -45.5 8t-38 23t-26 36t-9.5 47q0 32 11 58.5t30.5 45.5t46 29.5t58.5 10.5q24 0 45.5 -8.5t38 -23.5t26 -36t9.5 -46q0 -32 -11 -58.5
t-30.5 -45.5t-46.5 -29.5t-58 -10.5zM192 506q29 0 50 20.5t21 51.5q0 26 -15.5 42t-40.5 16q-29 0 -50 -20.5t-21 -51.5q0 -26 15.5 -42t40.5 -16z" />
    <glyph glyph-name="uni2109" horiz-adv-x="813" 
d="M313 0l121 684h404l-16 -88h-312l-38 -219h281l-15 -86h-281l-52 -291h-92zM186 442q-24 0 -45.5 8t-38 23t-26 36t-9.5 47q0 32 11 58.5t30.5 45.5t46 29.5t58.5 10.5q24 0 45.5 -8.5t38 -23.5t26 -36t9.5 -46q0 -32 -11 -58.5t-30.5 -45.5t-46.5 -29.5t-58 -10.5z
M192 506q29 0 50 20.5t21 51.5q0 26 -15.5 42t-40.5 16q-29 0 -50 -20.5t-21 -51.5q0 -26 15.5 -42t40.5 -16z" />
    <glyph glyph-name="uni2190" horiz-adv-x="1082" 
d="M246 272v-160l-198 198l198 198v-160h780v-76h-780z" />
    <glyph glyph-name="uni2191" horiz-adv-x="476" 
d="M276 -120h-76v742h-160l198 198l198 -198h-160v-742z" />
    <glyph glyph-name="uni2192" horiz-adv-x="1082" 
d="M56 272v76h780v160l198 -198l-198 -198v160h-780z" />
    <glyph glyph-name="uni2193" horiz-adv-x="476" 
d="M276 50h160l-198 -198l-198 198h160v742h76v-742z" />
    <glyph glyph-name="uni2196" horiz-adv-x="772" 
d="M772 38l-54 -54l-565 565l-113 -113v280h280l-113 -113z" />
    <glyph glyph-name="uni2197" horiz-adv-x="772" 
d="M565 603l-113 113h280v-280l-113 113l-565 -565l-54 54z" />
    <glyph glyph-name="uni2198" horiz-adv-x="772" 
d="M207 113l113 -113h-280v280l113 -113l565 565l54 -54z" />
    <glyph glyph-name="uni2199" horiz-adv-x="772" 
d="M0 678l54 54l565 -565l113 113v-280h-280l113 113z" />
    <glyph glyph-name="uni2639" horiz-adv-x="836" 
d="M287 395q-23 0 -39.5 16.5t-16.5 40.5q0 23 16.5 39t39.5 16t39.5 -16t16.5 -39q0 -24 -16.5 -40.5t-39.5 -16.5zM549 395q-23 0 -39.5 16.5t-16.5 40.5q0 23 16.5 39t39.5 16t39.5 -16t16.5 -39q0 -24 -16.5 -40.5t-39.5 -16.5zM418 -16q-77 0 -145 29.5t-119 80.5
t-80.5 119t-29.5 145t29.5 145t80.5 119t119 80.5t145 29.5t145 -29.5t119 -80.5t80.5 -119t29.5 -145t-29.5 -145t-80.5 -119t-119 -80.5t-145 -29.5zM418 48q64 0 120.5 24.5t98.5 67t66.5 99t24.5 119.5q0 64 -24.5 120.5t-66.5 98.5t-98.5 66.5t-120.5 24.5
q-63 0 -119.5 -24.5t-99 -66.5t-67 -98.5t-24.5 -120.5q0 -63 24.5 -119.5t67 -99t99 -67t119.5 -24.5zM418 301q63 0 113 -32.5t74 -86.5l-67 -31q-17 35 -49.5 55t-70.5 20t-70.5 -20t-48.5 -55l-68 31q24 54 74 86.5t113 32.5z" />
    <glyph glyph-name="uni263A" horiz-adv-x="836" 
d="M549 395q-23 0 -39.5 16.5t-16.5 40.5q0 23 16.5 39t39.5 16t39.5 -16t16.5 -39q0 -24 -16.5 -40.5t-39.5 -16.5zM287 395q-23 0 -39.5 16.5t-16.5 40.5q0 23 16.5 39t39.5 16t39.5 -16t16.5 -39q0 -24 -16.5 -40.5t-39.5 -16.5zM418 152q-63 0 -113 32.5t-74 86.5l68 31
q16 -35 48.5 -55t70.5 -20t70.5 20t49.5 55l67 -31q-24 -54 -74 -86.5t-113 -32.5zM418 -16q-77 0 -145 29.5t-119 80.5t-80.5 119t-29.5 145t29.5 145t80.5 119t119 80.5t145 29.5t145 -29.5t119 -80.5t80.5 -119t29.5 -145t-29.5 -145t-80.5 -119t-119 -80.5t-145 -29.5z
M418 48q64 0 120.5 24.5t98.5 67t66.5 99t24.5 119.5q0 64 -24.5 120.5t-66.5 98.5t-98.5 66.5t-120.5 24.5q-63 0 -119.5 -24.5t-99 -66.5t-67 -98.5t-24.5 -120.5q0 -63 24.5 -119.5t67 -99t99 -67t119.5 -24.5z" />
    <glyph glyph-name="uni2780" horiz-adv-x="836" 
d="M396 177v285l-64 -26l-24 54l112 53h46v-366h-70zM418 -16q-77 0 -145 29.5t-119 80.5t-80.5 119t-29.5 145t29.5 145t80.5 119t119 80.5t145 29.5t145 -29.5t119 -80.5t80.5 -119t29.5 -145t-29.5 -145t-80.5 -119t-119 -80.5t-145 -29.5zM418 48q64 0 120.5 24.5
t98.5 67t66.5 99t24.5 119.5q0 64 -24.5 120.5t-66.5 98.5t-98.5 66.5t-120.5 24.5q-63 0 -119.5 -24.5t-99 -66.5t-67 -98.5t-24.5 -120.5q0 -63 24.5 -119.5t67 -99t99 -67t119.5 -24.5z" />
    <glyph glyph-name="uni2781" horiz-adv-x="836" 
d="M293 177v60q35 36 64 65l70 70q13 13 27.5 31.5t14.5 39.5q0 20 -15 32t-37 12t-38.5 -14t-22.5 -44l-65 27q10 45 45.5 70t79.5 25q24 0 46.5 -7.5t40 -21.5t28 -34t10.5 -45q0 -18 -7 -34t-16.5 -30.5t-20.5 -26t-20 -20.5l-24 -24q-16 -15 -31 -30l-37 -37h158v-64
h-250zM418 -16q-77 0 -145 29.5t-119 80.5t-80.5 119t-29.5 145t29.5 145t80.5 119t119 80.5t145 29.5t145 -29.5t119 -80.5t80.5 -119t29.5 -145t-29.5 -145t-80.5 -119t-119 -80.5t-145 -29.5zM418 48q64 0 120.5 24.5t98.5 67t66.5 99t24.5 119.5q0 64 -24.5 120.5
t-66.5 98.5t-98.5 66.5t-120.5 24.5q-63 0 -119.5 -24.5t-99 -66.5t-67 -98.5t-24.5 -120.5q0 -63 24.5 -119.5t67 -99t99 -67t119.5 -24.5z" />
    <glyph glyph-name="uni2782" horiz-adv-x="836" 
d="M418 -16q-77 0 -145 29.5t-119 80.5t-80.5 119t-29.5 145t29.5 145t80.5 119t119 80.5t145 29.5t145 -29.5t119 -80.5t80.5 -119t29.5 -145t-29.5 -145t-80.5 -119t-119 -80.5t-145 -29.5zM418 48q64 0 120.5 24.5t98.5 67t66.5 99t24.5 119.5q0 64 -24.5 120.5
t-66.5 98.5t-98.5 66.5t-120.5 24.5q-63 0 -119.5 -24.5t-99 -66.5t-67 -98.5t-24.5 -120.5q0 -63 24.5 -119.5t67 -99t99 -67t119.5 -24.5zM415 169q-46 0 -83.5 24t-50.5 76l65 24q8 -34 28 -47t41 -13q23 0 42 14.5t19 39.5q0 23 -17.5 36.5t-42.5 13.5h-41v60h37
q23 0 37.5 13t14.5 34q0 20 -15 31.5t-35 11.5q-27 0 -40 -14.5t-18 -28.5l-62 25q13 36 42.5 59t77.5 23q54 0 88 -29.5t34 -76.5q0 -25 -11.5 -43t-33.5 -32q25 -14 41 -34.5t16 -49.5q0 -28 -11 -49.5t-29.5 -36.5t-42.5 -23t-50 -8z" />
    <glyph glyph-name="uni2783" horiz-adv-x="836" 
d="M423 177v72h-171v48l174 246h67v-234h48v-60h-48v-72h-70zM423 440h-4l-94 -131h98v131zM418 -16q-77 0 -145 29.5t-119 80.5t-80.5 119t-29.5 145t29.5 145t80.5 119t119 80.5t145 29.5t145 -29.5t119 -80.5t80.5 -119t29.5 -145t-29.5 -145t-80.5 -119t-119 -80.5
t-145 -29.5zM418 48q64 0 120.5 24.5t98.5 67t66.5 99t24.5 119.5q0 64 -24.5 120.5t-66.5 98.5t-98.5 66.5t-120.5 24.5q-63 0 -119.5 -24.5t-99 -66.5t-67 -98.5t-24.5 -120.5q0 -63 24.5 -119.5t67 -99t99 -67t119.5 -24.5z" />
    <glyph glyph-name="uni2784" horiz-adv-x="836" 
d="M418 -16q-77 0 -145 29.5t-119 80.5t-80.5 119t-29.5 145t29.5 145t80.5 119t119 80.5t145 29.5t145 -29.5t119 -80.5t80.5 -119t29.5 -145t-29.5 -145t-80.5 -119t-119 -80.5t-145 -29.5zM418 48q64 0 120.5 24.5t98.5 67t66.5 99t24.5 119.5q0 64 -24.5 120.5
t-66.5 98.5t-98.5 66.5t-120.5 24.5q-63 0 -119.5 -24.5t-99 -66.5t-67 -98.5t-24.5 -120.5q0 -63 24.5 -119.5t67 -99t99 -67t119.5 -24.5zM418 169q-20 0 -41 5t-39 16t-32 28t-21 42l65 25q6 -25 24 -38.5t44 -13.5t44 19t18 45q0 27 -18 45.5t-44 18.5q-37 0 -61 -33
l-61 25l25 189h209v-60h-150l-12 -81q11 10 26.5 15t32.5 5q25 0 48 -9t40 -25t27 -39.5t10 -51.5q0 -27 -11 -50.5t-29.5 -40.5t-42.5 -26.5t-51 -9.5z" />
    <glyph glyph-name="uni2785" horiz-adv-x="836" 
d="M418 -16q-77 0 -145 29.5t-119 80.5t-80.5 119t-29.5 145t29.5 145t80.5 119t119 80.5t145 29.5t145 -29.5t119 -80.5t80.5 -119t29.5 -145t-29.5 -145t-80.5 -119t-119 -80.5t-145 -29.5zM418 48q64 0 120.5 24.5t98.5 67t66.5 99t24.5 119.5q0 64 -24.5 120.5
t-66.5 98.5t-98.5 66.5t-120.5 24.5q-63 0 -119.5 -24.5t-99 -66.5t-67 -98.5t-24.5 -120.5q0 -63 24.5 -119.5t67 -99t99 -67t119.5 -24.5zM414 169q-28 0 -52.5 10t-42.5 27t-28.5 40t-10.5 49q0 31 12.5 58.5t32.5 55.5q9 13 27 38l36 50q21 29 45 62l54 -38l-84 -106
q4 2 10 3t11 1q26 0 48.5 -10.5t39 -27.5t26 -39.5t9.5 -46.5q0 -26 -11 -49t-29 -40t-42 -27t-51 -10zM413 233q28 0 45 19t17 44q0 24 -17 43.5t-45 19.5q-27 0 -44 -19.5t-17 -43.5q0 -25 16.5 -44t44.5 -19z" />
    <glyph glyph-name="uni2786" horiz-adv-x="836" 
d="M418 -16q-77 0 -145 29.5t-119 80.5t-80.5 119t-29.5 145t29.5 145t80.5 119t119 80.5t145 29.5t145 -29.5t119 -80.5t80.5 -119t29.5 -145t-29.5 -145t-80.5 -119t-119 -80.5t-145 -29.5zM418 48q64 0 120.5 24.5t98.5 67t66.5 99t24.5 119.5q0 64 -24.5 120.5
t-66.5 98.5t-98.5 66.5t-120.5 24.5q-63 0 -119.5 -24.5t-99 -66.5t-67 -98.5t-24.5 -120.5q0 -63 24.5 -119.5t67 -99t99 -67t119.5 -24.5zM314 195l159 284h-172v64h250v-60l-175 -321z" />
    <glyph glyph-name="uni2787" horiz-adv-x="836" 
d="M418 -16q-77 0 -145 29.5t-119 80.5t-80.5 119t-29.5 145t29.5 145t80.5 119t119 80.5t145 29.5t145 -29.5t119 -80.5t80.5 -119t29.5 -145t-29.5 -145t-80.5 -119t-119 -80.5t-145 -29.5zM418 48q64 0 120.5 24.5t98.5 67t66.5 99t24.5 119.5q0 64 -24.5 120.5
t-66.5 98.5t-98.5 66.5t-120.5 24.5q-63 0 -119.5 -24.5t-99 -66.5t-67 -98.5t-24.5 -120.5q0 -63 24.5 -119.5t67 -99t99 -67t119.5 -24.5zM418 169q-25 0 -49 8t-43 22.5t-30.5 35.5t-11.5 48q0 26 13.5 48.5t37.5 38.5q-17 11 -28 31t-11 41q0 25 10 45t27 34.5t39 22
t46 7.5q23 0 45 -7.5t39 -22t27.5 -34.5t10.5 -45q0 -20 -11 -40t-28 -32q24 -16 37.5 -38.5t13.5 -48.5q0 -27 -11.5 -48t-30.5 -36t-43 -22.5t-49 -7.5zM418 397q19 0 34.5 12.5t15.5 32.5q0 19 -14.5 32t-35.5 13q-22 0 -36 -13t-14 -32q0 -20 15 -32.5t35 -12.5z
M418 233q22 0 42 15t20 38t-20 37.5t-42 14.5q-23 0 -42.5 -14.5t-19.5 -37.5q0 -24 19.5 -38.5t42.5 -14.5z" />
    </font>
</defs>
</svg>
